osu file format v12

[General]
AudioFilename: Horie Yui - Endless Seventeen (Miss Monochrome ED).mp3
AudioLeadIn: 0
PreviewTime: 29209
Countdown: 1
SampleSet: Normal
StackLeniency: 0.7
Mode: 0
LetterboxInBreaks: 1
WidescreenStoryboard: 1

[Editor]
DistanceSpacing: 1.2
BeatDivisor: 4
GridSize: 8

[Metadata]
Title:Endless Seventeen
TitleUnicode:Endless Seventeen
Artist:Horie Yui
ArtistUnicode:Horie Yui
Creator:BuBBLe1q
Version:Hard
Source:Miss Monochrome: The Animation
Tags:vocaloid miss monochrome
BeatmapID:312318
BeatmapSetID:121548

[Difficulty]
HPDrainRate:7
CircleSize:4
OverallDifficulty:7
ApproachRate:7
SliderMultiplier:2
SliderTickRate:2

[Events]
//Background and Video events
Video,-462,"ミス・モノクロームザアニメーションED [Miss.Monochrome The Animation ED].flv"
0,0,"Безымянный.jpg",0,0
//Break Periods
//Storyboard Layer 0 (Background)
//Storyboard Layer 1 (Fail)
//Storyboard Layer 2 (Pass)
//Storyboard Layer 3 (Foreground)
//Storyboard Sound Samples
//Background Colour Transformations
3,100,163,162,255

[TimingPoints]
974.589805453431,441.176470588235,4,1,0,20,1,0
29209,-100,4,1,0,20,0,1
42445,-100,4,1,0,20,0,0
43327,-100,4,1,0,20,0,1
56562,-100,4,1,0,20,0,0

[Colours]
Combo1 : 0,0,0
Combo2 : 255,255,255
Combo3 : 192,192,192
Combo4 : 128,128,128

[HitObjects]
80,176,974,1,8,0:0:0:0:
136,256,1194,1,0,0:0:0:0:
168,264,1305,1,0,0:0:0:0:
200,264,1415,1,8,0:0:0:0:
192,168,1636,1,0,0:0:0:0:
136,88,1856,1,0,0:0:0:0:
176,64,1967,1,0,0:0:0:0:
224,64,2077,1,0,0:0:0:0:
264,88,2187,1,0,0:0:0:0:
288,128,2298,1,8,0:0:0:0:
384,136,2518,5,0,0:0:0:0:
328,216,2739,1,8,0:0:0:0:
264,288,2959,1,0,0:0:0:0:
216,304,3070,1,0,0:0:0:0:
168,312,3180,1,8,0:0:0:0:
40,256,3401,1,0,0:0:0:0:
128,224,3621,2,0,P|168:176|96:48,1,200,0|4,0:0|0:0,0:0:0:0:
96,296,4504,5,0,0:0:0:0:
216,272,4724,1,0,0:0:0:0:
272,272,4834,1,0,0:0:0:0:
328,296,4945,1,8,0:0:0:0:
432,240,5165,1,0,0:0:0:0:
416,120,5386,2,0,P|360:144|320:192,1,100
332,171,5827,1,8,0:0:0:0:
216,136,6048,5,0,0:0:0:0:
112,72,6268,1,0,0:0:0:0:
56,176,6489,1,0,0:0:0:0:
152,248,6709,1,0,0:0:0:0:
80,344,6930,1,0,0:0:0:0:
272,200,7371,5,0,0:0:0:0:
272,200,7481,1,0,0:0:0:0:
272,200,7592,1,0,0:0:0:0:
200,104,7812,1,0,0:0:0:0:
320,88,8033,2,0,B|328:112|328:112|368:144|360:192,1,100,8|0,0:0|0:0,0:0:0:0:
328,288,8474,2,0,P|272:304|192:272,1,100
231,297,8915,1,8,0:0:0:0:
136,80,9356,6,8,P|96:120|96:184,1,100
72,280,9798,2,8,B|88:264|88:264|152:264|168:208,1,100
232,144,10239,2,8,P|264:192|272:232,1,100
392,232,10680,2,8,P|408:176|456:136,1,100
448,24,11121,1,8,0:0:0:0:
344,72,11342,1,8,0:0:0:0:
288,56,11452,1,0,0:0:0:0:
232,56,11562,6,0,L|144:128,1,100,8|0,0:0|0:0,0:0:0:0:
32,120,12004,2,0,B|48:136|48:136|56:192|104:192,1,100,8|0,0:0|0:0,0:0:0:0:
216,184,12445,2,0,P|240:232|232:288,1,100
264,352,12886,2,0,P|312:336|352:272,1,100
320,184,13327,2,0,P|384:192|440:248,1,100
464,104,13768,2,0,P|432:96|360:112,1,100
246,108,14209,2,0,P|182:148|46:124,1,200
152,64,15092,5,0,0:0:0:0:
256,120,15312,1,0,0:0:0:0:
296,168,15423,1,0,0:0:0:0:
312,224,15533,1,0,0:0:0:0:
416,280,15754,2,0,P|376:328|320:328,1,100
232,296,16195,1,0,0:0:0:0:
184,264,16305,1,0,0:0:0:0:
128,272,16415,1,0,0:0:0:0:
56,176,16636,6,0,P|104:152|168:160,1,100
149,153,17077,2,0,P|200:152|248:88,1,100
236,121,17518,2,0,P|280:88|360:104,1,100
323,85,17849,1,0,0:0:0:0:
323,85,17959,2,0,P|400:120|456:104,1,100
272,312,18621,6,0,L|80:256,1,200
296,152,19504,2,0,L|496:208,1,200
488,205,20165,1,0,0:0:0:0:
32,48,21048,1,0,0:0:0:0:
64,160,21268,1,0,0:0:0:0:
104,208,21379,1,0,0:0:0:0:
112,272,21489,1,0,0:0:0:0:
232,256,21709,1,0,0:0:0:0:
344,208,21930,1,0,0:0:0:0:
448,264,22151,6,0,L|376:72,1,200
137,76,23033,6,0,L|207:263,1,200
207,263,23584,1,0,0:0:0:0:
207,263,23695,1,0,0:0:0:0:
326,263,23915,2,0,L|288:160,1,100
411,169,24356,2,0,L|456:272,1,100
451,260,24798,1,0,0:0:0:0:
331,260,25129,1,0,0:0:0:0:
331,260,25239,1,0,0:0:0:0:
246,175,25459,1,0,0:0:0:0:
125,175,25680,6,0,P|109:247|181:343,1,200
419,342,26562,2,0,P|461:295|453:159,1,200
216,200,27445,2,0,P|208:224|240:296,1,100
360,272,27886,2,0,P|368:256|352:176,1,100
288,232,28327,1,0,0:0:0:0:
288,232,28437,1,0,0:0:0:0:
288,111,28658,1,0,0:0:0:0:
288,111,28768,1,0,0:0:0:0:
184,48,28989,1,0,0:0:0:0:
168,104,29099,1,0,0:0:0:0:
176,160,29209,1,0,0:0:0:0:
176,160,29430,5,0,0:0:0:0:
56,184,29651,2,0,P|88:232|96:272,1,100
208,304,30092,1,0,0:0:0:0:
208,304,30312,1,0,0:0:0:0:
320,264,30533,2,0,P|328:208|360:168,1,100
440,256,30974,2,0,P|472:208|472:152,1,100
352,176,31415,2,0,P|320:216|328:288,1,100
208,304,31856,1,0,0:0:0:0:
96,256,32077,1,0,0:0:0:0:
64,208,32187,1,0,0:0:0:0:
72,144,32298,1,0,0:0:0:0:
168,72,32518,5,0,0:0:0:0:
216,184,32739,1,0,0:0:0:0:
320,128,32959,2,0,P|336:192|320:240,1,100
408,312,33401,2,0,P|440:264|448:208,1,100
432,104,33842,1,0,0:0:0:0:
432,104,33952,1,0,0:0:0:0:
432,104,34062,1,0,0:0:0:0:
324,50,34283,2,0,P|276:66|244:114,1,100
184,208,34724,1,0,0:0:0:0:
152,256,34834,1,0,0:0:0:0:
104,288,34945,1,0,0:0:0:0:
48,184,35165,5,0,0:0:0:0:
96,72,35386,1,0,0:0:0:0:
208,32,35606,2,0,P|245:45|276:127,1,100
208,104,36048,1,0,0:0:0:0:
208,104,36158,1,0,0:0:0:0:
208,104,36268,1,0,0:0:0:0:
328,104,36489,6,0,P|307:168|286:195,1,100
256,248,36820,1,0,0:0:0:0:
280,304,36930,1,0,0:0:0:0:
400,296,37151,2,0,P|440:248|440:184,1,100
328,216,37592,2,0,P|288:248|272:304,1,100
232,336,37923,1,0,0:0:0:0:
176,312,38033,6,0,L|81:260,1,100
120,152,38474,2,0,L|224:216,1,100
312,136,38915,1,0,0:0:0:0:
416,200,39136,1,0,0:0:0:0:
456,88,39356,1,0,0:0:0:0:
216,64,39798,6,0,P|176:104|168:160,1,100
166,145,40239,1,0,0:0:0:0:
336,314,40680,1,0,0:0:0:0:
336,314,40901,2,0,P|368:266|368:210,1,100
256,192,41342,12,0,42224,0:0:0:0:
256,192,42445,5,0,0:0:0:0:
136,208,42665,2,0,P|104:168|104:120,3,100
224,128,43548,2,0,P|288:128|328:192,1,100
344,200,43879,1,0,0:0:0:0:
360,256,43989,2,0,P|376:304|416:336,1,100
472,232,44430,1,0,0:0:0:0:
456,112,44651,2,0,P|400:104|336:128,1,100
240,128,45092,6,0,P|176:104|128:112,3,100
176,224,45974,1,0,0:0:0:0:
104,320,46195,1,0,0:0:0:0:
40,216,46415,1,0,0:0:0:0:
120,128,46636,1,0,0:0:0:0:
176,104,46746,1,0,0:0:0:0:
232,112,46856,6,0,P|296:104|392:192,1,200
160,264,47739,2,0,P|184:320|224:344,1,100
256,296,48070,1,0,0:0:0:0:
296,248,48180,2,0,P|312:272|376:312,1,100
392,192,48621,1,0,0:0:0:0:
336,96,48842,1,0,0:0:0:0:
216,120,49062,2,0,P|168:176|120:184,1,100
104,72,49504,1,0,0:0:0:0:
104,72,49724,1,0,0:0:0:0:
104,72,49945,2,0,P|136:48|224:56,1,100
256,56,50276,5,0,0:0:0:0:
312,64,50386,1,0,0:0:0:0:
351,176,50606,2,0,B|335:208|335:208|280:184|239:232,1,100
151,205,51048,2,0,B|143:183|88:207|88:207|72:175,1,100
168,128,51489,2,0,P|224:120|288:136,1,100
384,96,51930,1,0,0:0:0:0:
432,136,52040,1,0,0:0:0:0:
456,192,52151,1,0,0:0:0:0:
368,272,52371,2,0,P|304:280|256:312,1,100
160,264,52812,2,0,P|144:216|96:184,1,100
105,187,53254,1,0,0:0:0:0:
105,187,53474,1,0,0:0:0:0:
345,187,53915,5,0,0:0:0:0:
288,80,54136,1,0,0:0:0:0:
176,120,54356,1,0,0:0:0:0:
48,320,54798,1,0,0:0:0:0:
168,320,55018,1,0,0:0:0:0:
224,216,55239,1,0,0:0:0:0:
440,112,55680,6,0,P|392:168|368:224,1,100
379,190,56121,1,0,0:0:0:0:
379,190,56342,1,0,0:0:0:0:
40,312,57004,1,0,0:0:0:0:
256,192,57445,12,0,59209,0:0:0:0:
