osu file format v12

[General]
AudioFilename: coloring.mp3
AudioLeadIn: 2000
PreviewTime: 65766
Countdown: 0
SampleSet: Soft
StackLeniency: 0.7
Mode: 0
LetterboxInBreaks: 0

[Editor]
DistanceSpacing: 0.2
BeatDivisor: 4
GridSize: 4

[Metadata]
Title:Coloring (TV Size)
TitleUnicode:Coloring (TV Size)
Artist:Horie Yui
ArtistUnicode:堀江由衣
Creator:alacat
Version:Insane
Source:Papa no Iukoto wo Kikinasai!
Tags:papakiki paikoki ending wring kevincela -kevincela- 0oomickeyoo0
BeatmapID:210161
BeatmapSetID:73873

[Difficulty]
HPDrainRate:7
CircleSize:4
OverallDifficulty:7
ApproachRate:8
SliderMultiplier:1.8
SliderTickRate:1

[Events]
//Background and Video events
0,0,"bg.jpg",0,0
Video,0,"papa.avi"
//Break Periods
//Storyboard Layer 0 (Background)
//Storyboard Layer 1 (Fail)
//Storyboard Layer 2 (Pass)
//Storyboard Layer 3 (Foreground)
//Storyboard Sound Samples
//Background Colour Transformations
3,100,0,0,0

[TimingPoints]
146,512.820512820513,4,2,1,40,1,0
402,-100,4,2,1,50,0,0
8351,-100,4,2,1,40,0,0
8607,-100,4,2,1,50,0,0
16556,-100,4,2,1,40,0,0
16812,-100,4,2,1,50,0,0
24761,-100,4,2,1,40,0,0
25017,-100,4,2,1,50,0,0
32966,-100,4,2,1,40,0,0
33222,-100,4,2,1,50,0,0
41299,-100,4,2,1,60,0,0
49376,-100,4,2,1,70,0,1
49504,-100,4,2,1,70,0,0
56812,-100,4,2,2,70,0,0
57197,-100,4,2,1,70,0,0
65017,-100,4,2,1,60,0,0
65274,-100,4,2,1,50,0,0
65530,-100,4,2,1,40,0,0
65787,-66.6666666666667,4,2,1,80,0,1
73222,-66.6666666666667,4,2,2,80,0,1
73607,-66.6666666666667,4,2,1,80,0,1
81171,-100,4,2,1,70,0,1
81684,-100,4,2,1,60,0,1
82197,-100,4,2,1,50,0,0
88351,-100,4,2,1,40,0,0

[Colours]
Combo1 : 151,151,255
Combo2 : 149,255,255
Combo3 : 255,181,255
Combo4 : 255,255,155
Combo5 : 196,0,196
Combo6 : 255,191,128
Combo7 : 155,255,155
Combo8 : 255,128,128

[HitObjects]
336,128,146,5,4,0:0:0:0:
404,188,402,102,0,L|448:180,1,45
448,260,658,2,0,L|492:268,2,45,8|0|0,0:0|0:0|0:0,0:0:0:0:
212,364,1171,2,0,P|200:288|208:232,1,135,2|0,0:0|0:0,0:0:0:0:
256,164,1684,2,0,L|248:120,1,45,8|0,0:0|0:0,0:0:0:0:
320,220,1940,2,0,L|328:264,1,45
308,316,2197,1,0,0:0:0:0:
128,208,2453,53,0,0:0:0:0:
120,228,2581,1,0,0:0:0:0:
116,248,2710,1,8,0:0:0:0:
116,268,2838,1,0,0:0:0:0:
120,288,2966,1,0,0:0:0:0:
168,124,3222,1,2,0:0:0:0:
320,220,3479,1,0,0:0:0:0:
128,304,3735,1,8,0:0:0:0:
280,108,3992,1,0,0:0:0:0:
308,316,4248,21,2,0:0:0:0:
168,124,4504,1,0,0:0:0:0:
396,128,4761,1,8,0:0:0:0:
396,128,4889,1,0,0:0:0:0:
396,128,5017,1,0,0:0:0:0:
220,228,5274,2,0,P|152:240|92:208,1,135,2|0,0:0|0:0,0:0:0:0:
12,152,5787,2,0,L|0:200,1,45,8|0,0:0|0:0,0:0:0:0:
32,280,6043,2,0,L|40:328,1,45
208,336,6299,38,0,L|232:248,1,90,2|0,0:0|0:0,0:0:0:0:
220,228,6684,2,0,L|196:140,1,90
204,120,7069,1,0,0:0:0:0:
136,272,7325,1,2,0:0:0:0:
362,152,7581,1,0,0:0:0:0:
107,114,7838,1,8,0:0:0:0:
291,293,8094,1,2,0:0:0:0:
248,41,8351,1,4,0:0:0:0:
107,114,8607,102,0,L|96:160,1,45,2|0,0:0|0:0,0:0:0:0:
132,228,8863,2,0,L|136:276,1,45,8|0,0:0|0:0,0:0:0:0:
172,344,9120,1,0,0:0:0:0:
360,240,9376,1,2,0:0:0:0:
444,76,9633,2,0,L|452:120,1,45
484,192,9889,1,8,0:0:0:0:
436,336,10146,1,0,0:0:0:0:
284,320,10402,1,0,0:0:0:0:
76,236,10658,53,2,0:0:0:0:
104,232,10787,1,0,0:0:0:0:
132,228,10915,1,8,0:0:0:0:
160,224,11043,1,0,0:0:0:0:
188,220,11171,1,2,0:0:0:0:
340,200,11428,2,0,L|360:240,2,45,2|0|0,0:0|0:0|0:0,0:0:0:0:
200,80,11940,2,0,L|180:40,2,45,10|0|0,0:0|0:0|0:0,0:0:0:0:
284,320,12453,1,0,0:0:0:0:
340,100,12710,21,2,0:0:0:0:
340,100,12838,1,0,0:0:0:0:
340,100,12966,2,0,P|388:100|432:88,1,90,8|0,0:0|0:0,0:0:0:0:
112,184,13479,2,0,B|96:228|108:272,1,90,2|0,0:0|0:0,0:0:0:0:
120,296,13863,2,0,L|140:336,1,45,0|8,0:0|0:0,0:0:0:0:
40,124,14248,1,0,0:0:0:0:
228,164,14504,37,0,0:0:0:0:
256,172,14633,1,0,0:0:0:0:
284,180,14761,1,2,0:0:0:0:
424,292,15017,1,8,0:0:0:0:
256,284,15274,1,0,0:0:0:0:
356,84,15530,1,2,0:0:0:0:
456,172,15787,1,0,0:0:0:0:
172,236,16043,1,10,0:0:0:0:
340,348,16299,1,0,0:0:0:0:
216,72,16556,1,4,0:0:0:0:
100,144,16812,102,0,L|92:188,1,45,2|0,0:0|0:0,0:0:0:0:
20,232,17069,2,0,L|28:276,1,45,8|0,0:0|0:0,0:0:0:0:
80,336,17325,1,0,0:0:0:0:
284,256,17581,2,0,L|328:252,2,45,2|0|0,0:0|0:0|0:0,0:0:0:0:
168,264,18094,1,8,0:0:0:0:
100,144,18351,1,0,0:0:0:0:
256,88,18607,1,0,0:0:0:0:
380,192,18863,53,2,0:0:0:0:
380,192,18992,1,0,0:0:0:0:
380,192,19120,2,0,L|404:104,1,90,8|0,0:0|0:0,0:0:0:0:
456,264,19633,2,0,P|412:292|376:296,1,90,2|0,0:0|0:0,0:0:0:0:
348,292,20017,1,0,0:0:0:0:
324,280,20146,2,0,L|232:288,1,90,10|0,0:0|0:0,0:0:0:0:
80,348,20658,1,0,0:0:0:0:
32,244,20915,22,0,P|48:200|48:156,1,90,2|8,0:0|0:0,0:0:0:0:
96,96,21299,2,0,P|138:95|182:79,1,90
252,40,21684,2,0,P|296:56|338:56,1,90,2|0,0:0|0:0,0:0:0:0:
408,92,22069,2,0,L|416:136,1,45,0|8,0:0|0:0,0:0:0:0:
480,240,22453,1,0,0:0:0:0:
347,323,22710,1,0,0:0:0:0:
263,193,22966,37,2,0:0:0:0:
116,148,23222,2,0,L|104:192,1,45,8|2,0:0|0:0,0:0:0:0:
196,312,23607,2,0,L|208:268,1,45,0|2,0:0|0:0,0:0:0:0:
208,100,23992,1,8,0:0:0:0:
96,292,24248,1,2,0:0:0:0:
344,232,24504,1,8,0:0:0:0:
388,56,24761,1,4,0:0:0:0:
456,172,25017,101,2,0:0:0:0:
456,172,25146,1,0,0:0:0:0:
456,172,25274,2,0,L|472:260,1,90,8|2,0:0|0:0,0:0:0:0:
476,288,25658,1,0,0:0:0:0:
480,316,25787,2,0,P|436:332|392:329,1,90,2|0,0:0|0:0,0:0:0:0:
252,272,26299,1,8,0:0:0:0:
308,132,26556,1,0,0:0:0:0:
308,348,26812,1,0,0:0:0:0:
164,308,27069,54,0,L|72:300,2,90,2|8|2,0:0|0:0|0:0,0:0:0:0:
384,300,27838,2,0,P|404:256|408:212,1,90,2|0,0:0|0:0,0:0:0:0:
388,140,28222,2,0,L|432:128,1,45,0|10,0:0|0:0,0:0:0:0:
244,188,28607,1,0,0:0:0:0:
364,60,28863,1,0,0:0:0:0:
492,192,29120,21,2,0:0:0:0:
492,192,29248,1,0,0:0:0:0:
492,192,29376,1,8,0:0:0:0:
276,284,29633,1,0,0:0:0:0:
164,116,29889,2,0,L|148:204,1,90,2|0,0:0|0:0,0:0:0:0:
76,236,30274,1,0,0:0:0:0:
76,236,30402,2,0,L|100:276,1,45,10|0,0:0|0:0,0:0:0:0:
160,324,30658,2,0,L|204:316,1,45,2|0,0:0|0:0,0:0:0:0:
276,284,30915,1,0,0:0:0:0:
388,168,31171,37,2,0:0:0:0:
440,324,31428,1,8,0:0:0:0:
276,284,31684,1,0,0:0:0:0:
369,89,31940,1,2,0:0:0:0:
511,262,32197,1,0,0:0:0:0:
204,240,32453,2,0,L|152:244,2,45,10|0|0,0:0|0:0|0:0,0:0:0:0:
388,168,32966,1,4,0:0:0:0:
440,48,33222,101,2,0:0:0:0:
440,48,33351,1,0,0:0:0:0:
440,48,33479,2,0,P|443:94|427:135,1,90,8|2,0:0|0:0,0:0:0:0:
409,155,33863,1,0,0:0:0:0:
388,168,33992,2,0,P|367:211|363:252,1,90,2|0,0:0|0:0,0:0:0:0:
420,336,34504,1,8,0:0:0:0:
388,168,34761,1,0,0:0:0:0:
248,268,35017,1,0,0:0:0:0:
160,332,35274,54,0,L|68:320,1,90,2|8,0:0|0:0,0:0:0:0:
16,264,35658,2,0,P|4:216|8:176,1,90,2|0,0:0|0:0,0:0:0:0:
40,104,36043,1,2,0:0:0:0:
176,168,36299,1,0,0:0:0:0:
204,160,36428,1,0,0:0:0:0:
232,152,36556,1,10,0:0:0:0:
372,108,36812,1,0,0:0:0:0:
476,197,37069,1,0,0:0:0:0:
344,249,37325,21,2,0:0:0:0:
372,108,37581,1,8,0:0:0:0:
504,56,37838,1,0,0:0:0:0:
344,249,38094,1,2,0:0:0:0:
449,339,38351,1,0,0:0:0:0:
476,197,38607,1,8,0:0:0:0:
344,249,38863,1,0,0:0:0:0:
214,346,39120,37,2,0:0:0:0:
184,112,39376,1,0,0:0:0:0:
184,112,39504,2,0,P|196:156|204:200,1,90,2|0,0:0|0:0,0:0:0:0:
156,272,39889,1,2,0:0:0:0:
184,112,40145,1,0,0:0:0:0:
255,267,40402,1,0,0:0:0:0:
112,180,40658,1,8,0:0:0:0:
280,164,40915,1,8,0:0:0:0:
384,104,41171,101,4,0:0:0:0:
384,104,41299,1,0,0:0:0:0:
384,104,41428,1,0,0:0:0:0:
484,144,41684,1,8,0:0:0:0:
284,60,41940,1,0,0:0:0:0:
44,215,42197,1,2,0:0:0:0:
168,60,42453,1,0,0:0:0:0:
97,310,42710,1,8,0:0:0:0:
73,112,42966,1,0,0:0:0:0:
240,196,43222,53,2,0:0:0:0:
240,196,43351,1,0,0:0:0:0:
240,196,43479,1,0,0:0:0:0:
352,348,43735,2,0,P|368:300|368:260,1,90,8|0,0:0|0:0,0:0:0:0:
356,116,44248,1,2,0:0:0:0:
248,312,44504,1,0,0:0:0:0:
472,188,44761,1,8,0:0:0:0:
236,64,45017,1,0,0:0:0:0:
132,136,45274,21,2,0:0:0:0:
132,136,45402,1,0,0:0:0:0:
132,136,45530,1,0,0:0:0:0:
24,312,45787,2,0,P|32:264|52:228,1,90,8|0,0:0|0:0,0:0:0:0:
164,244,46299,1,2,0:0:0:0:
324,128,46556,1,0,0:0:0:0:
284,224,46812,2,0,P|288:272|308:312,1,90,8|0,0:0|0:0,0:0:0:0:
472,304,47325,38,0,L|488:348,2,45,2|0|0,0:0|0:0|0:0,0:0:0:0:
396,232,47838,1,2,0:0:0:0:
404,204,47966,1,0,0:0:0:0:
412,176,48094,1,0,0:0:0:0:
440,72,48351,101,2,0:0:0:0:
416,56,48479,1,0,0:0:0:0:
388,48,48607,1,0,0:0:0:0:
360,52,48735,1,0,0:0:0:0:
314,73,48863,53,2,0:0:0:0:
285,78,48992,1,0,0:0:0:0:
256,74,49120,1,0,0:0:0:0:
232,60,49248,1,0,0:0:0:0:
188,36,49376,6,0,P|140:48|108:76,1,90,4|0,0:0|0:0,0:0:0:0:
100,224,49889,2,0,P|148:212|180:184,1,90,8|0,0:0|0:0,0:0:0:0:
264,268,50402,2,0,P|298:232|311:192,1,90,2|0,0:0|0:0,0:0:0:0:
296,120,50787,1,2,0:0:0:0:
456,80,51043,22,0,L|476:40,2,45,2|0|0,0:0|0:0|0:0,0:0:0:0:
420,148,51428,2,0,P|413:187|427:234,1,90,2|0,0:0|0:0,0:0:0:0:
480,292,51812,1,2,0:0:0:0:
316,352,52069,2,0,L|360:348,1,45,0|2,0:0|0:0,0:0:0:0:
176,260,52453,53,2,0:0:0:0:
340,184,52710,1,0,0:0:0:0:
316,352,52966,1,8,0:0:0:0:
176,260,53222,101,0,0:0:0:0:
176,260,53351,1,0,0:0:0:0:
176,260,53479,2,0,L|136:340,1,90,2|0,0:0|0:0,0:0:0:0:
8,352,53992,2,0,L|48:272,1,90,8|0,0:0|0:0,0:0:0:0:
8,152,54504,2,0,P|44:120|87:110,1,90,2|0,0:0|0:0,0:0:0:0:
164,128,54889,1,2,0:0:0:0:
248,40,55145,101,2,0:0:0:0:
267,58,55274,1,0,0:0:0:0:
286,76,55402,1,0,0:0:0:0:
308,92,55530,2,0,P|360:104|400:100,1,90,2|8,0:0|0:0,0:0:0:0:
464,56,55915,1,2,0:0:0:0:
452,216,56171,2,0,L|408:295,1,90,8|0,0:0|0:0,0:0:0:0:
340,336,56556,1,2,0:0:0:0:
196,220,56812,1,8,0:0:0:0:
68,312,57069,1,8,0:0:0:0:
68,312,57197,70,0,L|60:356,2,45,2|0|0,0:0|0:0|0:0,0:0:0:0:
104,232,57581,1,4,0:0:0:0:
272,172,57838,1,0,0:0:0:0:
196,220,58094,1,8,0:0:0:0:
364,176,58351,1,0,0:0:0:0:
440,128,58607,2,0,P|452:84|448:40,1,90,2|0,0:0|0:0,0:0:0:0:
448,40,58992,1,2,0:0:0:0:
488,280,59248,102,0,L|500:328,2,45,2|0|0,0:0|0:0|0:0,0:0:0:0:
440,216,59633,1,2,0:0:0:0:
348,320,59889,2,0,L|300:316,1,45,2|0,0:0|0:0,0:0:0:0:
196,220,60274,2,0,L|152:228,1,45,2|0,0:0|0:0,0:0:0:0:
64,340,60658,21,2,0:0:0:0:
456,44,61171,1,10,0:0:0:0:
472,68,61299,1,0,0:0:0:0:
476,96,61428,1,0,0:0:0:0:
468,124,61556,1,0,0:0:0:0:
456,148,61684,54,0,P|440:196|448:236,1,90,2|0,0:0|0:0,0:0:0:0:
368,376,62197,2,0,P|375:338|359:290,1,90,8|0,0:0|0:0,0:0:0:0:
208,152,62710,2,0,P|200:189|216:237,1,90,2|0,0:0|0:0,0:0:0:0:
292,256,63094,1,2,0:0:0:0:
204,332,63351,101,2,0:0:0:0:
180,340,63479,1,0,0:0:0:0:
156,348,63607,1,0,0:0:0:0:
132,356,63735,2,0,L|40:360,1,90,2|0,0:0|0:0,0:0:0:0:
80,220,64248,1,8,0:0:0:0:
220,56,64504,1,0,0:0:0:0:
292,256,64761,1,2,0:0:0:0:
128,116,65017,101,0,0:0:0:0:
116,104,65274,1,0,0:0:0:0:
104,92,65530,1,0,0:0:0:0:
200,256,65787,70,0,P|228:320|288:344,1,135.000005149842,4|0,0:0|0:0,0:0:0:0:
392,152,66299,2,0,P|364:88|304:64,1,135.000005149842,8|0,0:0|0:0,0:0:0:0:
148,136,66812,1,2,0:0:0:0:
20,248,67069,1,0,0:0:0:0:
12,280,67197,1,2,0:0:0:0:
200,256,67453,102,0,P|232:272|268:272,2,67.5000025749208,2|0|0,0:0|0:0|0:0,0:0:0:0:
120,216,67838,1,2,0:0:0:0:
28,136,68094,2,0,P|36:100|52:72,1,67.5000025749208,2|0,0:0|0:0,0:0:0:0:
224,40,68479,2,0,P|251:64|267:92,1,67.5000025749208,2|0,0:0|0:0,0:0:0:0:
304,200,68863,21,2,0:0:0:0:
168,300,69120,1,0,0:0:0:0:
148,136,69376,1,8,0:0:0:0:
280,292,69633,53,0,0:0:0:0:
300,312,69761,1,0,0:0:0:0:
320,332,69889,1,2,0:0:0:0:
472,344,70145,1,0,0:0:0:0:
372,260,70402,1,8,0:0:0:0:
508,192,70658,1,0,0:0:0:0:
356,128,70915,1,2,0:0:0:0:
148,136,71171,1,0,0:0:0:0:
188,128,71299,1,2,0:0:0:0:
312,52,71556,102,0,P|348:40|380:44,2,67.5000025749208,2|0|0,0:0|0:0|0:0,0:0:0:0:
272,124,71940,1,2,0:0:0:0:
124,176,72197,2,0,L|148:240,1,67.5000025749208,2|0,0:0|0:0,0:0:0:0:
240,368,72581,2,0,L|256:300,1,67.5000025749208,2|0,0:0|0:0,0:0:0:0:
356,128,72966,1,2,0:0:0:0:
456,272,73222,1,8,0:0:0:0:
188,192,73479,1,8,0:0:0:0:
188,192,73607,102,0,L|120:176,2,67.5000025749208,2|0|0,0:0|0:0|0:0,0:0:0:0:
276,188,73992,1,4,0:0:0:0:
360,344,74248,1,0,0:0:0:0:
432,184,74504,1,8,0:0:0:0:
360,344,74761,1,0,0:0:0:0:
276,188,75017,2,0,P|210:174|143:193,1,135.000005149842,2|0,0:0|0:0,0:0:0:0:
84,252,75402,1,2,0:0:0:0:
24,120,75658,70,0,L|8:52,2,67.5000025749208,2|0|0,0:0|0:0|0:0,0:0:0:0:
12,196,76043,2,0,P|-4:264|28:320,1,135.000005149842,2|0,0:0|0:0,0:0:0:0:
104,336,76428,2,0,P|172:320|236:332,1,135.000005149842,2|0,0:0|0:0,0:0:0:0:
300,380,76812,1,2,0:0:0:0:
476,260,77069,101,2,0:0:0:0:
308,296,77325,1,0,0:0:0:0:
424,184,77581,2,0,L|448:120,1,67.5000025749208,8|0,0:0|0:0,0:0:0:0:
364,116,77838,2,0,L|372:48,1,67.5000025749208,8|0,0:0|0:0,0:0:0:0:
292,52,78094,21,2,0:0:0:0:
340,208,78351,1,0,0:0:0:0:
276,140,78607,1,8,0:0:0:0:
424,184,78863,1,0,0:0:0:0:
248,224,79120,2,0,P|180:228|124:192,1,135.000005149842,2|0,0:0|0:0,0:0:0:0:
96,116,79504,1,2,0:0:0:0:
244,52,79761,53,2,0:0:0:0:
276,48,79889,1,0,0:0:0:0:
308,44,80017,1,0,0:0:0:0:
340,40,80145,1,2,0:0:0:0:
428,176,80402,1,0,0:0:0:0:
316,292,80658,1,8,0:0:0:0:
272,136,80915,1,0,0:0:0:0:
176,248,81171,102,0,L|136:276,3,45,2|0|0|0,0:0|0:0|0:0|0:0,0:0:0:0:
108,312,81684,101,10,0:0:0:0:
84,324,81812,1,0,0:0:0:0:
56,328,81940,1,0,0:0:0:0:
28,324,82069,1,0,0:0:0:0:
4,308,82197,1,4,0:0:0:0:
60,168,82453,54,0,L|48:120,1,45,0|0,0:0|0:0,0:0:0:0:
124,108,82710,2,0,L|132:60,1,45,8|0,0:0|0:0,0:0:0:0:
200,32,82966,1,0,0:0:0:0:
256,172,83222,1,0,0:0:0:0:
256,172,83735,1,8,0:0:0:0:
216,352,84248,1,2,0:0:0:0:
312,268,84504,21,0,0:0:0:0:
332,260,84633,1,0,0:0:0:0:
352,256,84761,1,8,0:0:0:0:
372,256,84889,1,0,0:0:0:0:
392,260,85017,1,0,0:0:0:0:
472,384,85274,2,0,P|488:336|484:296,1,90
448,100,85787,2,0,L|464:188,1,90,8|0,0:0|0:0,0:0:0:0:
360,56,86299,53,0,0:0:0:0:
152,120,86556,1,0,0:0:0:0:
256,88,86812,1,8,0:0:0:0:
256,88,86940,1,0,0:0:0:0:
256,88,87069,1,0,0:0:0:0:
256,304,87325,1,0,0:0:0:0:
256,304,87838,1,8,0:0:0:0:
8,260,88351,102,0,P|32:220|40:176,1,90,2|0,0:0|0:0,0:0:0:0:
4,108,88735,2,0,P|44:84|88:76,1,90,2|0,0:0|0:0,0:0:0:0:
152,120,89120,1,2,0:0:0:0:
312,216,89376,1,2,0:0:0:0:
416,120,89633,1,0,0:0:0:0:
272,72,89889,1,2,0:0:0:0:
416,120,90145,1,0,0:0:0:0:
