osu file format v9

[General]
AudioFilename: Coloring.mp3
AudioLeadIn: 0
PreviewTime: 58120
Countdown: 0
SampleSet: Normal
StackLeniency: 0.7
Mode: 0
LetterboxInBreaks: 1

[Editor]
DistanceSpacing: 0.9
BeatDivisor: 4
GridSize: 4

[Metadata]
Title:Coloring
Artist:Horie Yui
Creator:IchiGUN
Version:Normal
Source:Papa no Iukoto wo Kikinasai!
Tags:Black_Cherry_Ita BCI [CSGA]Ar3sgice ending

[Difficulty]
HPDrainRate:3
CircleSize:3
OverallDifficulty:3
ApproachRate:5
SliderMultiplier:1.7
SliderTickRate:2

[Events]
//Background and Video events
0,0,"bg.jpg"
//Break Periods
2,74730,81536
2,132166,142048
//Storyboard Layer 0 (Background)
//Storyboard Layer 1 (Fail)
//Storyboard Layer 2 (Pass)
//Storyboard Layer 3 (Foreground)
//Storyboard Sound Samples
//Background Colour Transformations
3,100,163,162,255

[TimingPoints]
8890,512.820512820513,4,1,0,50,1,0
33377,-100,4,2,1,70,0,0
33633,-100,4,1,0,50,0,0
41582,-100,4,2,1,70,0,0
41838,-100,4,1,0,50,0,0
58120,-100,4,1,0,70,0,1
74531,-100,4,1,0,50,0,0
82607,-100,4,2,1,70,0,0
82864,-100,4,1,0,50,0,0
86197,-100,4,2,1,70,0,0
86454,-100,4,1,0,50,0,0
99146,-100,4,1,0,70,0,1
131966,-100,4,1,0,50,0,0
168890,-100,4,1,0,70,0,1
185300,-100,4,1,0,50,0,0
185813,-100,4,1,0,70,0,1
218120,-100,4,1,0,50,0,0
225941,-100,4,2,1,50,0,0

[Colours]
Combo1 : 254,207,112
Combo2 : 244,166,242
Combo3 : 243,175,124
Combo4 : 239,68,37

[HitObjects]
40,152,8890,5,4
168,64,9402,2,0,B|204:36|256:36,1,85,8|0
324,36,9915,1,2
448,124,10428,1,8
480,196,10684,1,0
448,268,10941,1,4
308,328,11454,6,0,B|256:316|220:356,1,85,8|0
152,340,11966,2,0,B|92:336|72:288,1,85,2|0
48,232,12479,1,2
48,232,12736,1,2
36,156,12992,6,0,B|36:60,1,85,0|0
112,72,13505,2,0,B|112:157,1,85,8|0
188,156,14018,1,2
288,40,14531,6,0,B|376:36,2,85,8|0|0
436,84,15556,1,8
476,232,16069,2,0,B|404:304,1,85,2|0
356,340,16582,2,0,B|272:304,1,85,2|2
216,260,17095,1,4
156,308,17351,6,0,B|80:344,2,85,0|8|0
136,232,18120,2,0,B|52:204,1,85
36,132,18633,1,8
152,32,19146,1,0
224,52,19402,6,8,B|264:132,2,85,0|8|0
296,24,20172,2,0,B|376:56,1,85,2|0
416,120,20684,1,8
468,264,21197,1,4
416,320,21454,6,0,B|328:352,2,85,0|8|0
392,248,22223,2,0,B|304:228,1,85
234,211,22736,1,8
260,60,23248,1,4
184,44,23505,6,0,B|124:32|112:96,1,85,0|10
68,140,24018,1,0
46,213,24274,2,0,B|26:265|82:289,1,85,0|0
140,320,24787,1,2
292,348,25300,1,4
368,340,25556,6,0,B|420:332|436:280,2,85,0|8|0
360,264,26325,1,0
420,216,26582,1,0
456,148,26838,1,8
340,52,27351,1,4
272,84,27607,6,0,B|208:20,2,85,0|8|0
212,132,28377,2,0,B|124:144,1,85
72,196,28890,1,8
113,260,29146,1,0
176,304,29402,1,0
248,332,29659,6,0,B|312:348|312:348|328:280|380:280,1,170,2|8
456,276,30428,1,0
488,128,30941,1,8
420,91,31197,1,0
272,48,31710,6,0,B|208:32|208:32|192:100|140:100,1,170,2|0
68,120,32479,2,0,B|8:188,1,85,2|0
12,260,32992,1,0
87,247,33248,1,8
164,244,33505,1,4
208,308,33761,6,0,B|176:340,2,42.5,2|0|2
280,336,34274,1,8
356,316,34531,2,0,B|404:312|420:264,1,85
348,240,35043,1,8
476,156,35556,5,4
372,44,36069,1,8
220,56,36582,2,0,B|155:71|155:71|173:139|127:163,1,170,2|8
24,272,37607,1,4
76,328,37864,6,0,B|48:360,2,42.5,2|8|0
148,356,38377,1,0
222,337,38633,2,0,B|208:256|294:257|262:173,1,170,0|8
304,32,39659,6,0,B|304:76|304:76|388:76|404:144,2,170,2|8|2
228,32,40941,1,0
164,72,41197,1,4
100,212,41710,5,4
56,276,41966,2,0,B|12:264,2,42.5,2|0|8
84,348,42479,1,0
160,355,42736,2,0,B|241:329|196:253|286:242,1,170,0|8
420,304,43761,6,0,B|476:288|452:232,1,85,2|0
452,164,44274,2,0,B|472:115|416:99,1,85,10|0
356,56,44787,2,0,B|269:84|269:-9|187:29,1,170,0|8
52,72,45813,1,0
52,148,46069,6,0,B|52:236,1,85,0|8
52,308,46582,1,2
152,192,47095,2,0,B|152:280,1,85,0|0
152,352,47607,1,10
256,192,48120,12,2,49659
208,320,50172,5,2
160,260,50428,1,0
208,200,50684,1,8
300,76,51197,5,2
356,128,51454,1,0
412,76,51710,1,8
472,216,52223,6,0,B|420:292,1,85,2|8
377,347,52736,1,0
328,288,52992,1,2
276,232,53248,1,0
224,288,53505,2,0,B|208:340|152:332,1,85,10|0
60,216,54274,6,0,B|32:192|32:128,2,85,2|8|0
160,100,55300,2,0,B|188:124|188:188,2,85,2|8|0
308,56,56325,6,0,B|332:28|396:28,2,85,2|8|0
264,120,57095,1,2
308,184,57351,1,0
264,248,57607,1,2
308,312,57864,1,8
236,340,58120,6,0,B|192:368|140:336,1,85,2|0
88,308,58633,2,0,B|120:264|92:212,1,85,2|8
76,156,59146,1,0
112,88,59402,2,0,B|144:56,1,42.5
216,36,59787,6,0,B|264:36,3,42.5,2|8|0|0
412,36,60684,1,0
488,168,61197,2,0,B|496:268|416:316,1,170,2|0
268,348,62223,6,0,B|224:276,1,85,2|0
164,324,62736,2,0,B|120:252,1,85,2|8
80,188,63248,1,0
44,120,63505,2,0,B|30:93|52:72,1,42.5
232,36,64274,5,0
196,184,64787,1,0
300,72,65300,1,2
268,220,65813,1,0
300,72,66325,6,0,B|332:36|384:44,1,85,2|0
448,64,66838,2,0,B|480:100|460:156,1,85,2|8
436,216,67351,1,0
388,276,67607,2,0,B|356:308,1,42.5
292,344,67992,6,0,B|244:344,3,42.5,2|8|0|0
164,212,68890,1,0
36,292,69402,2,0,B|84:376|184:332,1,170,2|0
272,208,70428,6,0,B|316:136,1,85,2|0
356,72,70941,2,0,B|432:116,1,85,2|8
464,180,71454,1,0
464,256,71710,2,0,B|444:304,1,42.5
376,324,72095,6,0,B|352:336|324:332,3,42.5,2|8|0|0
260,312,72736,1,0
220,248,72992,1,2
260,184,73248,1,8
308,124,73505,2,0,B|344:32|452:65,2,170,0|0|4
332,196,82736,5,0
256,196,82992,2,0,B|256:152,2,42.5,0|2|0
256,272,83505,1,8
192,316,83761,1,2
115,316,84018,1,0
44,348,84274,1,0
256,272,85043,6,0,B|288:310|332:316,1,85,2|8
404,328,85556,1,2
464,280,85813,2,0,B|506:206|422:180|482:111,1,170,0|4
256,188,87095,6,0,B|256:232,2,42.5,0|2|0
256,112,87607,1,8
320,68,87864,1,2
396,68,88120,1,0
468,40,88377,1,4
256,112,89146,6,0,B|201:75|201:75|163:133|114:115,1,170,2|8
36,248,90172,1,2
88,304,90428,1,0
156,340,90684,1,4
308,320,91197,6,0,B|344:292,2,42.5,2|0|8
264,256,91710,1,8
308,192,91966,1,0
264,128,92223,1,2
308,64,92479,1,8
508,176,93248,6,0,B|516:224|392:200|400:308,1,170,0|0
344,344,94018,1,0
192,344,94531,1,8
120,316,94787,1,0
76,172,95300,6,0,B|140:116,1,85,2|8
200,68,95813,1,0
332,144,96325,2,0,B|396:88,1,85,2|8
456,40,96838,1,0
256,192,97351,12,2,98633
276,44,99146,6,0,B|320:16|372:48,1,85,2|0
424,80,99659,2,0,B|456:124|428:176,1,85,2|8
364,128,100172,1,0
364,204,100428,2,0,B|364:248,1,42.5
364,324,100813,6,0,B|320:352,3,42.5,2|8|0|0
236,224,101710,1,0
132,336,102223,2,0,B|36:300|12:208,1,170,2|2
52,72,103248,6,0,B|132:120,1,85,2|0
188,72,103761,2,0,B|220:152,1,85,2|8
248,224,104274,1,0
291,287,104531,2,0,B|332:316,1,42.5
492,220,105300,5,0
424,84,105813,1,0
280,36,106325,1,2
136,84,106838,1,2
280,134,107351,6,0,B|304:175|280:222,1,85,2|0
212,244,107864,2,0,B|210:294|167:316,1,85,2|8
96,328,108377,1,0
52,268,108633,2,0,B|36:228,1,42.5
36,152,109018,6,0,B|60:116,3,42.5,2|8|0|0
188,32,109915,1,0
340,32,110428,2,0,B|220:168,1,170,2|2
368,220,111454,6,0,B|344:312,1,85,2|0
276,272,111966,2,0,B|196:316,1,85,2|8
144,260,112479,1,0
72,232,112736,2,0,B|60:188,1,42.5
40,116,113120,6,0,B|44:89|64:69,3,42.5,2|8|0|0
120,32,113761,1,0
180,80,114018,1,8
240,32,114274,1,0
300,80,114531,2,0,B|383:95|349:176|441:174,1,170,2|2
411,325,115556,6,0,B|367:353|327:329,1,85,2|0
367,261,116069,2,0,B|323:233|283:257,1,85,2|8
228,304,116582,1,0
160,336,116838,2,0,B|132:348|100:336,1,42.5
64,288,117223,6,0,B|32:240,3,42.5,2|8|0|0
40,100,118120,1,0
176,172,118633,2,0,B|124:132|124:132|132:112|136:56|96:32|80:32,1,170,2|2
228,116,119659,6,0,B|304:80,1,85,2|0
328,152,120172,2,0,B|408:176,1,85,2|8
468,224,120684,1,0
412,276,120941,2,0,B|368:312,2,42.5
280,356,121710,5,0
132,324,122223,1,0
40,204,122736,1,2
92,60,123248,1,0
244,36,123761,6,0,B|291:25|328:62,1,85,2|0
400,44,124274,2,0,B|395:91|444:125,1,85,2|8
476,180,124787,1,0
428,240,125043,2,0,B|396:276,1,42.5
336,316,125428,6,0,B|288:316,3,42.5,2|8|0|0
144,352,126325,1,0
40,240,126838,2,0,B|100:172|196:188,1,170,2|0
344,200,127864,6,0,B|372:116,1,85,2|0
296,112,128377,2,0,B|260:28,1,85,2|8
192,64,128890,1,0
120,32,129146,2,0,B|72:60,1,42.5
40,116,129531,6,0,B|28:140|32:168,3,42.5,2|8|0|0
96,200,130172,1,0
160,160,130428,1,2
224,200,130684,1,8
288,160,130941,2,0,B|392:168|396:272,2,170,2|2|4
256,192,143248,5,4
256,348,143761,1,8
384,268,144274,2,0,B|416:236,2,42.5,2|0|0
444,168,144915,1,0
384,72,145300,1,0
236,36,145813,2,0,B|192:16|148:36,1,85,2|8
40,136,146582,5,0
84,240,146966,1,0
184,296,147351,1,0
328,344,147864,2,0,B|372:372|420:336,2,85,0|8|0
368,280,148633,5,0
432,184,149018,1,0
452,72,149402,1,0
304,36,149915,2,0,B|256:48,1,42.5,8|0
280,120,150300,2,0,B|252:156,1,42.5,8|0
228,224,150684,5,0
196,336,151069,1,0
84,356,151454,1,0
56,204,151966,2,0,B|20:168|36:116,2,85,8|0|0
108,148,152736,5,0
188,64,153120,1,0
300,36,153505,1,0
428,116,154018,2,0,B|472:140|468:196,2,85,8|0|0
392,184,154787,5,0
332,280,155172,1,0
220,312,155556,1,0
68,328,156069,2,0,B|24:304|28:248,2,85,8|0|0
104,260,156838,5,0
28,176,157223,1,0
104,88,157607,1,0
252,44,158120,2,0,B|296:20|340:48,2,85,8|0|0
292,112,158890,5,0
352,208,159274,1,0
412,308,159659,1,0
264,348,160172,2,0,B|201:325|201:325|227:259|184:230,1,170,2|8
143,167,160941,6,0,B|115:155|91:115|103:67|151:47|183:47,1,170,0|0
252,32,161710,2,0,B|320:24|376:68,2,127.5,8|0|0
232,108,162736,5,8
340,216,163248,1,0
224,316,163761,1,8
100,228,164274,2,0,B|52:208|53:157,1,85,0|0
68,88,164787,1,8
140,63,165043,6,0,B|156:31|196:11|248:27|268:67|260:103,1,170,0|0
276,168,165813,2,0,B|284:236|240:292,2,127.5,8|0|0
256,192,166838,12,8,168377
260,340,168890,6,0,B|344:296,1,85,2|0
404,340,169402,2,0,B|428:248,1,85,2|8
440,184,169915,1,0
448,108,170172,2,0,B|416:76,1,42.5
356,32,170556,6,0,B|308:32,3,42.5,2|8|0|0
160,32,171454,1,0
40,124,171966,2,0,B|32:216|108:272,1,170,2|2
236,356,172992,6,0,B|276:324|316:356,1,85,2|0
392,352,173505,2,0,B|436:332|436:280,1,85,2|8
404,216,174018,1,0
436,148,174274,2,0,B|450:121|428:100,1,42.5
256,36,175043,5,0
204,180,175556,1,0
256,324,176069,1,2
204,180,176582,1,2
120,52,177095,6,0,B|36:84,1,85,2|0
80,148,177607,2,0,B|68:240,1,85,2|8
52,308,178120,1,0
128,324,178377,2,0,B|168:336,1,42.5
244,348,178761,6,0,B|268:360|292:348,3,42.5,2|8|0|0
436,320,179659,1,0
476,172,180172,2,0,B|436:236|436:236|336:236,1,170,2|2
376,88,181197,6,0,B|372:40|328:24,1,85,2|0
300,96,181710,2,0,B|248:96|244:148,1,85,2|8
216,220,182223,1,0
184,292,182479,2,0,B|164:340,1,42.5
92,352,182864,6,0,B|74:355|50:343,3,42.5,2|8|0|0
36,268,183505,1,0
92,212,183761,1,2
16,192,184018,1,0
71,139,184274,2,0,B|116:56|220:44,1,170,2|2
356,76,185300,6,0,B|424:128,1,85,2|0
376,188,185813,2,0,B|392:276,1,85,2|8
328,312,186325,1,0
260,348,186582,2,0,B|232:360|200:348,1,42.5
164,300,186966,6,0,B|132:252,3,42.5
256,168,187864,1,8
104,196,188377,2,0,B|176:172|176:172|176:132|192:104|228:96,1,170,2|8
84,36,189402,6,0,B|35:36|24:84,1,85,2|0
56,152,189915,2,0,B|104:152|116:200,1,85,2|8
144,272,190428,1,0
180,340,190684,2,0,B|203:358|228:340,1,42.5
412,332,191454,5,0
476,192,191966,1,0
412,52,192479,1,2
260,28,192992,1,2
108,52,193505,6,0,B|76:88|91:138,1,85,2|0
41,193,194018,2,0,B|84:210|91:269,1,85,2|8
112,332,194531,1,0
184,356,194787,2,0,B|228:356,1,42.5
300,332,195172,6,0,B|332:304,3,42.5,2|8|0|0
452,208,196069,1,0
484,60,196582,2,0,B|416:8|320:36,1,170,2|2
172,68,197607,6,0,B|144:152,1,85,2|0
221,137,198120,2,0,B|257:221,1,85,2|8
256,292,198633,1,0
200,344,198890,2,0,B|144:344,1,42.5
92,304,199274,6,0,B|68:288|68:256,3,42.5,2|8|0|0
36,200,199915,1,0
92,150,200172,1,8
72,77,200428,1,0
129,28,200684,1,2
256,116,201197,1,6
256,268,201710,6,0,B|277:315|338:316,1,85,2|0
400,316,202223,2,0,B|444:315|465:268,1,85,2|8
484,196,202736,1,0
484,120,202992,2,0,B|484:76,1,42.5
420,32,203377,6,0,B|400:16|372:24,3,42.5,2|8|0|0
300,152,204274,1,0
228,288,204787,2,0,B|144:328|64:296,1,170,2|2
40,144,205813,6,0,B|120:96,1,85,2|0
172,148,206325,2,0,B|204:68,1,85,2|8
280,60,206838,1,0
352,84,207095,2,0,B|381:90|383:120,1,42.5
472,280,207864,5,0
336,348,208377,1,0
184,348,208890,1,2
48,280,209402,1,2
40,128,209915,6,0,B|40:80|85:52,1,85,2|0
155,67,210428,2,0,B|182:25|230:28,1,85,2|8
304,32,210941,1,0
376,60,211197,2,0,B|392:100,1,42.5
432,164,211582,6,0,B|476:164,3,42.5,2|8|0|0
340,240,212479,1,8
472,320,212992,2,0,B|400:296|400:296|372:320|332:328|300:308,1,170,2|10
371,172,214018,6,0,B|347:80,1,85,2|0
276,112,214531,2,0,B|196:68,1,85,2|8
144,124,215043,1,0
72,152,215300,2,0,B|60:196,1,42.5
40,268,215684,6,0,B|44:295|64:315,3,42.5,2|8|0|0
120,352,216325,1,0
180,304,216582,1,0
240,352,216838,1,0
300,304,217095,2,0,B|365:251|404:330|463:259,1,170,2|4
480,116,218120,5,4
340,60,218633,2,0,B|304:32|252:32,1,85
184,44,219146,1,2
52,120,219659,1,8
20,192,219915,1,0
52,264,220172,1,4
203,283,220684,6,0,B|255:271|291:311,1,85,2|0
344,348,221197,2,0,B|404:344|424:296,1,85,2|0
464,248,221710,1,8
464,248,221966,1,2
488,176,222223,6,0,B|444:96,1,85,0|0
384,144,222736,2,0,B|300:108,1,85,8|0
236,80,223248,1,2
84,104,223761,5,8
94,256,224274,2,0,B|12:372,2,127.5
168,276,225300,2,0,B|224:340,1,85,2|0
268,276,225813,2,0,B|352:300,1,85,2|4
