osu file format v9

[General]
AudioFilename: Papa_no_Iu_Koto_wo_Kikinasai_-_Coloring.mp3
AudioLeadIn: 0
PreviewTime: 57785
Countdown: 0
SampleSet: Soft
StackLeniency: 0.5
Mode: 0
LetterboxInBreaks: 0

[Editor]
DistanceSpacing: 1
BeatDivisor: 2
GridSize: 4

[Metadata]
Title:Coloring
Artist:Horie Yui
Creator:CXu
Version:Normal
Source:Papa no Iu Koto wo Kikinasai!
Tags:kriers Colouring Ending Beren KinomiCandy

[Difficulty]
HPDrainRate:2
CircleSize:3
OverallDifficulty:2
ApproachRate:3
SliderMultiplier:1.2
SliderTickRate:1

[Events]
//Background and Video events
0,0,"moe.jpg"
//Break Periods
2,74702,79216
2,132138,138703
//Storyboard Layer 0 (Background)
//Storyboard Layer 1 (Fail)
//Storyboard Layer 2 (Pass)
//Storyboard Layer 3 (Foreground)
Sprite,Foreground,Centre,"SB\A.png",320,240 M,0,17066,17322,266,706,266,658 M,0,17322,19117,266,658 M,0,19117,19373,266,658,266,612 M,0,19373,21168,266,612 M,0,21168,21425,266,612,266,570 M,0,21425,25271,266,570 M,0,25271,25527,266,570,266,521 M,0,25527,29373,266,521 M,0,29373,29630,266,521,266,478 M,0,29630,33476,266,478 M,0,33476,33732,266,479,266,431 M,0,33732,37579,266,431 M,0,37579,37835,266,432,266,387 M,0,37835,41681,266,387 M,0,41681,41938,266,387,266,339 M,0,41938,45784,266,339 M,0,45784,46040,266,339,266,297 M,0,46040,49886,266,297 M,0,49886,50143,266,297,266,252 M,0,50143,53989,266,252 M,0,53989,54245,266,252,266,204 M,0,54245,57835,266,204 M,0,57835,58091,266,204,266,162
Sprite,Foreground,Centre,"SB\B.png",320,240 M,0,57835,58091,196,635,196,590 S,0,58091,,1 M,0,58091,59630,196,590 M,0,59630,59886,196,590,196,548 M,0,59886,61938,196,548 M,0,61938,62194,196,549,196,501 M,0,62194,63732,196,501 M,0,63732,63989,196,501,196,456 M,0,63989,65784,196,456 M,0,65784,66040,196,456,196,411 M,0,66040,67579,196,411 M,0,67579,67835,196,411,196,366 M,0,67835,70143,196,366 M,0,70143,70399,196,366,196,321 M,0,70399,71938,196,321 M,0,71938,72194,196,321,196,276 M,0,72194,74502,196,276 M,0,74502,74758,196,276,196,231
Sprite,Foreground,Centre,"SB\C.png",320,240 M,0,74502,74758,247,636,247,591 M,0,74758,76553,247,591 M,0,76553,76809,247,591,247,549 M,0,76809,78604,247,549 M,0,78604,78861,247,549,247,501 M,0,78861,80656,247,501 M,0,80656,80912,247,501,247,457 M,0,80912,82707,247,457 M,0,82707,82963,247,457,247,409 M,0,82963,86809,247,409 M,0,86809,87066,247,409,247,367 M,0,87066,90912,247,367 M,0,90912,91168,247,367,247,319 M,0,91168,95014,247,319 M,0,95014,95271,247,319,247,274 M,0,95271,98861,247,274 M,0,98861,99117,247,274,247,232
Sprite,Foreground,Centre,"SB\D.png",320,240 M,0,98861,99117,196,635,196,593 M,0,99117,100656,196,593 M,0,100656,100912,196,593,196,548 M,0,100912,102963,196,548 M,0,102963,103220,196,548,196,504 M,0,103220,104758,196,504 M,0,104758,105014,196,505,196,457 M,0,105014,106809,196,457 M,0,106809,107066,196,457,196,412 M,0,107066,108604,196,412 M,0,108604,108861,196,412,196,367 M,0,108861,111168,196,367 M,0,111168,111425,196,367,196,324 M,0,111425,112963,196,324 M,0,112963,113220,196,324,196,276 M,0,113220,115271,196,276 M,0,115271,115527,196,276,196,231
Sprite,Foreground,Centre,"SB\E.png",320,240 M,0,115271,115527,196,636,196,592 M,0,115527,117066,196,592 M,0,117066,117322,196,592,196,545 M,0,117322,119373,196,545 M,0,119373,119630,196,545,196,503 M,0,119630,121168,196,503 M,0,121168,121425,196,503,196,456 M,0,121425,123220,196,456 M,0,123220,123476,196,456,196,410 M,0,123476,125271,196,410 M,0,125271,125527,196,410,196,365 M,0,125527,127579,196,365 M,0,127579,127835,196,365,196,324 M,0,127835,129117,196,324 M,0,129117,129373,196,324,196,278 M,0,129373,131681,196,278 M,0,131681,131938,196,278,196,227
Sprite,Foreground,Centre,"SB\F.png",320,240 M,0,143732,143989,252,592,252,548 M,0,143989,148348,252,548 M,0,148348,148604,252,548,252,504 M,0,148604,152450,252,504 M,0,152450,152707,252,504,252,457 M,0,152707,156553,252,457 M,0,156553,156809,252,457,252,412 M,0,156809,160656,252,412 M,0,160656,160912,252,413,252,368 M,0,160912,164758,252,368 M,0,164758,165014,252,368,252,321 M,0,165014,168604,252,321 M,0,168604,168861,252,321,252,273
Sprite,Foreground,Centre,"SB\E.png",320,240 M,0,168604,168861,196,637,196,590 M,0,168861,170399,196,590 M,0,170399,170656,196,592,196,551 M,0,170656,172707,196,551 M,0,172707,172963,196,551,196,498 M,0,172963,174502,196,498 M,0,174502,174758,196,498,196,459 M,0,174758,176553,196,459 M,0,176553,176809,196,459,196,411 M,0,176809,178604,196,411 M,0,178604,178861,196,411,196,366 M,0,178861,180912,196,366 M,0,180912,181168,196,366,196,322 M,0,181168,182450,196,322 M,0,182450,182707,196,322,196,277 M,0,182707,185014,196,277 M,0,185014,185271,196,277,196,226
Sprite,Foreground,Centre,"SB\D.png",320,240 M,0,185014,185271,196,635,196,593 M,0,185271,186809,196,593 M,0,186809,187066,196,593,196,548 M,0,187066,189117,196,548 M,0,189117,189373,196,548,196,500 M,0,189373,190912,196,500 M,0,190912,191168,196,500,196,455 M,0,191168,192963,196,455 M,0,192963,193220,196,455,196,413 M,0,193220,195014,196,413 M,0,195014,195271,196,413,196,366 M,0,195271,197322,196,366 M,0,197322,197579,196,367,196,320 M,0,197579,199117,196,320 M,0,199117,199373,196,320,196,275 M,0,199373,201425,196,275 M,0,201425,201681,196,275,196,230
Sprite,Foreground,Centre,"SB\B.png",320,240 M,0,201425,201681,196,635,196,592 M,0,201681,203220,196,592 M,0,203220,203476,196,592,196,548 M,0,203476,205527,196,548 M,0,205527,205784,196,548,196,503 M,0,205784,207066,196,503 M,0,207066,207322,196,503,196,456 M,0,207322,209373,196,456 M,0,209373,209630,196,456,196,408 M,0,209630,211681,196,408 M,0,211681,211938,196,408,196,367 M,0,211938,213732,196,367 M,0,213732,213989,196,367,196,322 M,0,213989,215527,196,322 M,0,215527,215784,196,322,196,274 M,0,215784,217579,196,274 M,0,217579,218091,196,274,196,229
Sprite,Foreground,Centre,"SB\moe.png",320,240 S,0,17066,131938,0.8
Sprite,Foreground,Centre,"SB\G.png",320,240 M,0,131938,132450,320,164,320,189 F,0,131938,132450,0,1 M,0,132450,140143,320,189 M,0,140143,141168,320,189,-178,189
Sprite,Foreground,Centre,"SB\H.png",320,240 M,0,133989,134502,320,331,320,324 F,0,133989,134502,0,1 M,0,134502,140143,320,324 M,0,140143,141168,320,324,818,324
Sprite,Foreground,Centre,"SB\moe.png",320,240 S,0,143732,218091,0.8
//Storyboard Sound Samples
//Background Colour Transformations
3,100,163,162,255

[TimingPoints]
656,512.820512820513,4,2,1,50,1,0
49886,-100,4,2,1,60,0,0
58091,-100,4,2,1,70,0,1
69758,-100,4,2,2,70,0,1
70335,-100,4,2,1,70,0,1
74373,-100,4,2,2,50,0,1
74502,-100,4,2,2,50,0,0
80527,-100,4,2,1,60,0,0
99117,-100,4,2,1,70,0,1
110784,-100,4,2,2,70,0,1
111040,-100,4,2,1,70,0,1
114630,-100,4,2,2,60,0,1
115399,-100,4,2,1,70,0,0
115527,-100,4,2,1,70,0,1
127194,-100,4,2,2,70,0,1
127450,-100,4,2,1,70,0,1
131938,-100,4,2,1,70,0,0
140656,-100,4,2,1,65,0,0
141168,-100,4,2,1,60,0,0
141681,-100,4,2,1,55,0,0
142194,-100,4,2,1,50,0,0
142707,-100,4,2,1,45,0,0
143220,-100,4,2,1,70,0,0
143476,-100,4,2,1,50,0,0
143989,-100,4,2,1,70,0,0
153861,-100,4,2,2,50,0,0
154630,-100,4,2,1,70,0,0
155912,-100,4,2,2,50,0,0
156681,-100,4,2,1,70,0,0
157963,-100,4,2,2,50,0,0
158732,-100,4,2,1,70,0,0
159886,-100,4,2,1,50,0,0
160784,-100,4,2,1,60,0,0
167066,-100,4,2,1,40,0,0
167835,-100,4,2,1,50,0,0
168091,-100,4,2,1,55,0,0
168348,-100,4,2,1,60,0,0
168604,-100,4,2,1,65,0,0
168861,-100,4,2,1,70,0,1
180527,-100,4,2,2,70,0,1
180784,-100,4,2,1,70,0,1
184373,-100,4,2,2,60,0,1
185271,-100,4,2,2,50,0,0
185784,-100,4,2,1,70,0,1
196938,-100,4,2,2,70,0,1
197194,-100,4,2,1,70,0,1
201553,-100,4,2,1,70,0,0
201681,-100,4,2,1,70,0,1
213348,-100,4,2,2,70,0,1
213925,-100,4,2,1,70,0,1
218091,-100,4,2,1,70,0,0

[Colours]
Combo1 : 255,255,128
Combo2 : 128,255,128
Combo3 : 0,128,255
Combo4 : 255,128,128

[HitObjects]
440,236,17066,1,4
420,180,17322,2,0,B|396:120|328:112,1,120,0|2
280,80,18091,2,0,B|216:80,2,60,0|0|8
28,124,19373,6,0,B|-16:180|12:244,1,120,2|2
60,268,20143,2,0,B|204:268,2,120,0|8|2
68,208,21425,6,0,B|196:160,1,120,0|2
240,160,22194,2,0,B|304:144|348:208,2,120,0|8|2
268,240,23476,5,2
268,240,23732,1,8
352,80,24502,1,2
352,80,24758,1,8
220,80,25271,5,4
184,124,25527,2,0,B|148:152|92:132|52:168,1,120,0|2
32,204,26297,2,0,B|24:276,2,60,0|0|8
184,124,27579,6,0,B|252:152|328:140,1,120,2|2
352,108,28348,2,0,B|388:76|444:92,2,90,2|2|0
412,212,29630,6,0,B|428:268|388:320,4,90,2|0|2|0|2
300,172,31681,6,0,B|284:116|324:64,4,90,2|0|2|0|2
304,284,33732,5,0
244,276,33989,2,0,B|184:264,1,60,8|2
204,208,34502,2,0,B|156:172,2,60,0|0|8
320,144,35784,6,0,B|388:120|424:180,1,120,2|2
456,252,36553,2,0,B|388:276|352:220,1,120,0|8
172,288,37835,5,0
108,248,38091,2,0,B|48:248,1,60,8|2
84,172,38604,2,0,B|156:172,2,60,0|0|8
264,84,39886,6,0,B|332:188,1,120,2|2
236,260,40912,2,0,B|192:196,1,60,0|8
168,96,41681,5,4
167,96,41938,2,0,B|95:96,2,60,0|8|2
168,180,42707,2,0,B|168:236|168:236|140:256|140:256|140:308,1,120,0|8
316,252,43989,6,0,B|364:188|348:116,1,120,2|2
316,104,44758,2,0,B|252:92|240:32,2,90,2|2|0
324,20,45784,5,4
380,40,46040,2,0,B|416:60|428:104,2,60,0|8|2
396,160,47066,2,0,B|359:180|348:224,2,60,0|8|2
388,280,48091,6,0,B|348:228|256:244,1,120,2|2
224,264,48861,2,0,B|176:216|208:152,1,120,2|8
232,100,49630,2,0,B|256:44,1,60,2|4
380,60,50399,6,0,B|420:112|404:180,1,120,2|2
288,256,51425,2,0,B|328:204|312:136,1,120,2|2
200,52,52450,6,0,B|84:104,1,120,2|2
98,237,53476,2,0,B|208:188,1,120,2|4
208,332,54502,5,2
344,284,55014,1,2
440,176,55527,1,2
256,192,56040,12,4,58091
156,252,58604,6,0,B|104:208|108:140,2,120,2|2|2
216,292,59886,1,0
280,324,60143,2,0,B|340:336|400:324,1,120,2|2
399,180,61168,2,0,B|339:168|279:180,1,120,4|2
172,80,62194,5,4
64,176,62707,1,2
161,283,63220,1,2
268,187,63732,1,2
324,56,64245,6,0,B|376:16|448:32,2,120,2|2|2
268,104,65527,1,8
268,104,65784,1,10
228,244,66297,6,0,B|100:244,2,120,4|2|2
300,244,67579,1,0
372,244,67835,1,2
460,128,68348,6,0,B|456:52|384:40,1,120,2|2
344,176,69373,2,0,B|344:300,1,120,4|2
204,324,70399,5,2
204,324,70912,1,4
104,224,71425,1,2
104,224,71938,1,4
12,112,72450,6,0,B|76:136,1,60,2|0
136,156,72963,2,0,B|192:120|260:136,2,120,2|2|2
104,224,74245,1,2
104,224,74502,1,2
244,132,80656,38,0,B|244:16,2,90,2|2|2
320,100,81681,2,0,B|320:228,1,120,2|2
256,348,82707,5,4
328,348,82963,1,0
328,348,83220,2,0,B|408:344|436:284,2,120,8|0|8
476,192,85014,5,2
404,192,85271,1,8
332,192,85527,1,2
260,196,85784,2,0,B|144:216|144:120|24:124,1,240,0|2
36,196,87066,6,0,B|36:268,1,60,0|8
104,240,87579,2,0,B|104:308,1,60,2|0
172,280,88091,2,0,B|172:344,1,60,0|8
388,328,89117,6,0,B|352:276|364:212,1,120,2|2
488,140,90143,2,0,B|448:80|384:80,1,120,2|0
316,84,90912,5,4
256,124,91168,2,0,B|228:148|192:144,2,60,0|8|2
316,164,91938,2,0,B|360:216|340:280,1,120,0|8
132,328,93220,6,0,B|68:328,2,60,2|8|2
204,328,93989,2,0,B|260:320|288:256,2,90,2|2|0
104,224,95271,6,0,B|60:176|52:116,1,120,0|2
192,80,96297,2,0,B|232:104|276:72|320:92,1,120,0|2
256,192,97066,12,2,98604
224,116,99117,6,0,B|205:35|118:54|74:86|60:170|165:239|256:308|256:308|347:239|453:170|438:86|395:54|307:35|289:116,1,840,4|2
256,192,103220,5,4
394,152,103732,1,2
431,293,104245,1,2
292,330,104758,1,2
148,316,105271,6,0,B|96:268|96:196,2,120,2|2|2
216,344,106553,1,8
216,344,106809,1,10
240,200,107322,6,0,B|247:153|247:153|236:120|236:120|256:64,2,120,4|2|2
168,184,108604,1,0
96,168,108861,1,2
136,304,109373,6,0,B|256:340,1,120,2|2
380,276,110399,2,0,B|260:240,1,120,4|2
184,124,111425,5,2
184,124,111938,1,4
312,56,112450,1,2
312,56,112963,1,4
364,108,113220,6,0,B|416:152,2,60,2|2|0
292,124,113989,2,0,B|280:184,2,60,8|0|2
244,68,114758,1,2
172,80,115014,1,2
100,92,115271,1,2
28,104,115527,5,4
64,244,116040,2,0,B|100:324|100:324|152:348,2,120,2|2|2
40,176,117322,1,0
112,180,117579,2,0,B|240:180,1,120,2|2
368,128,118604,2,0,B|408:184|368:240,1,120,4|2
256,328,119630,5,4
132,256,120143,1,2
132,111,120655,1,2
256,184,121168,1,2
372,100,121681,6,0,B|424:60|496:76,2,120,2|2|2
372,172,122963,2,0,B|372:248,1,60,8|10
240,292,123732,6,0,B|180:316|112:292,2,120,4|2|2
296,244,125014,1,0
284,172,125271,1,2
176,76,125784,6,0,B|128:76|128:76|104:100|104:100|56:104,1,120,2|2
66,247,126809,2,0,B|114:247|114:247|138:223|138:223|186:219,1,120,4|2
236,352,127835,5,2
236,352,128348,1,4
352,268,128861,1,2
352,268,129373,1,4
256,192,129886,12,4,131938
256,192,140143,12,2,143220
256,64,143732,5,2
320,300,144502,6,0,B|336:248|400:236,2,90,2|2|2
192,300,146553,6,0,B|176:248|112:236,2,90,2|2|2
256,140,148604,6,0,B|248:100|272:80|256:48,2,90,2|2|2
300,308,150655,6,0,B|256:328|212:308,2,90,2|2|2
424,52,152707,6,0,B|456:96|444:156,2,90,2|2|2
296,116,153989,1,2
224,132,154245,1,0
152,120,154502,1,2
88,88,154758,6,0,B|56:132|68:192,2,90,2|2|2
216,152,156040,1,2
288,168,156297,1,0
360,156,156553,1,2
424,124,156809,6,0,B|456:168|444:228,2,90,2|2|2
296,188,158091,1,2
224,204,158348,1,0
152,192,158604,1,2
88,160,158861,6,0,B|56:204|68:264,2,90,2|2|2
216,224,160143,1,8
288,240,160399,1,8
360,228,160655,1,4
424,196,160912,6,0,B|456:256|440:328,1,120,2|0
388,356,161681,2,0,B|288:356,2,90,2|2|4
296,248,162963,5,2
252,192,163220,1,2
184,172,163476,1,0
156,104,163732,2,0,B|168:56|224:20,2,90,2|2|4
68,216,165014,6,0,B|40:236|40:272,1,60,2|2
84,324,165527,1,0
156,324,165784,2,0,B|256:324,2,90,2|2|4
256,192,167066,12,4,168861
356,132,169373,6,0,B|423:142|454:203,2,120,2|2|2
304,184,170655,1,0
264,244,170912,2,0,B|212:272|144:244,1,120,2|2
40,148,171938,2,0,B|92:120|160:148,1,120,4|2
264,244,172963,5,4
404,216,173476,1,2
276,152,173989,1,2
416,124,174502,1,2
296,48,175014,6,0,B|172:48,2,120,2|2|2
364,28,176297,1,8
364,28,176553,1,10
440,148,177066,6,0,B|464:212|464:212|464:272,2,120,4|2|2
376,112,178348,1,0
312,144,178604,1,2
372,276,179117,6,0,B|340:340|268:320,1,120,2|2
240,180,180143,2,0,B|168:173|161:98,1,120,4|2
296,48,181168,5,2
296,48,181681,1,4
344,184,182194,1,2
344,184,182707,1,4
380,120,182963,6,0,B|412:96|448:100,2,60,2|2|0
307,120,183732,2,0,B|275:96|239:100,2,60,8|0|2
256,172,184502,1,2
184,172,184758,1,2
112,172,185014,1,2
72,232,185271,6,0,B|104:288|68:348,1,120,2|6
200,280,186297,6,0,B|200:348|276:372,1,120,2|2
328,328,187066,1,0
388,368,187322,2,0,B|455:346|455:278,1,120,2|2
380,156,188348,2,0,B|324:116|268:156,1,120,4|2
200,284,189373,5,4
60,248,189886,1,2
152,360,190399,1,2
136,216,190912,1,2
236,112,191425,6,0,B|112:76,2,120,2|2|2
304,140,192707,2,0,B|336:156|348:192,1,60,8|10
284,312,193476,6,0,B|332:332|368:304|404:320,2,120,4|2|2
220,284,194758,1,0
160,312,195014,1,2
68,192,195527,6,0,B|88:128|164:92,1,120,2|2
272,172,196553,2,0,B|392:172,1,120,4|2
484,60,197579,5,2
484,60,198091,1,4
339,60,198604,1,2
339,60,199117,1,4
268,60,199373,6,0,B|208:60,2,60,2|2|0
236,124,200143,2,0,B|184:184|216:252,1,120,2|2
256,288,200912,1,0
324,308,201168,1,2
448,232,201681,6,0,B|476:220|484:184,1,60,4|0
412,176,202194,2,0,B|416:136|396:116,1,60,2|0
344,164,202707,2,0,B|288:204|232:168,1,120,2|2
184,112,203476,1,0
124,72,203732,6,0,B|56:100|64:172,1,120,2|2
92,232,204502,1,0
148,280,204758,2,0,B|208:280,1,60,4|0
260,228,205271,2,0,B|328:228,1,60,2|2
376,276,205784,5,4
472,168,206297,1,2
388,52,206809,1,2
316,52,207066,1,0
244,52,207322,1,2
152,164,207835,6,0,B|80:164|64:96,2,120,2|2|2
220,144,209117,2,0,B|264:136|288:180,1,60,8|10
280,232,209630,6,0,B|280:300,1,60,0|4
340,332,210143,2,0,B|340:260,1,60,0|2
400,236,210655,1,0
456,188,210912,2,0,B|436:140|436:140|412:128|412:128|396:88,1,120,2|2
252,72,211938,6,0,B|128:72,1,120,2|2
76,116,212707,1,0
32,176,212963,2,0,B|0:236|12:296,1,120,4|2
131,291,213989,6,0,B|163:231|151:171,3,120,2|4|2|4
128,120,215784,2,0,B|116:92|132:56,2,60,2|2|0
256,192,216553,12,4,218091
