osu file format v9

[General]
AudioFilename: Papa_no_Iu_Koto_wo_Kikinasai_-_Coloring.mp3
AudioLeadIn: 0
PreviewTime: 57785
Countdown: 0
SampleSet: Soft
StackLeniency: 0.5
Mode: 0
LetterboxInBreaks: 0

[Editor]
Bookmarks: 6759,17016,49836,58041,74452,99067,131888,140093,160606
DistanceSpacing: 1
BeatDivisor: 4
GridSize: 4

[Metadata]
Title:Coloring
Artist:Horie Yui
Creator:CXu
Version:Insane
Source:Papa no Iu Koto wo Kikinasai!
Tags:kriers Colouring Ending Beren KinomiCandy

[Difficulty]
HPDrainRate:7
CircleSize:4
OverallDifficulty:7
ApproachRate:8
SliderMultiplier:3
SliderTickRate:1

[Events]
//Background and Video events
0,0,"moe.jpg"
//Break Periods
2,132138,139393
//Storyboard Layer 0 (Background)
//Storyboard Layer 1 (Fail)
//Storyboard Layer 2 (Pass)
//Storyboard Layer 3 (Foreground)
Sprite,Foreground,Centre,"SB\A.png",320,240 M,0,17066,17322,266,706,266,658 M,0,17322,19117,266,658 M,0,19117,19373,266,658,266,612 M,0,19373,21168,266,612 M,0,21168,21425,266,612,266,570 M,0,21425,25271,266,570 M,0,25271,25527,266,570,266,521 M,0,25527,29373,266,521 M,0,29373,29630,266,521,266,478 M,0,29630,33476,266,478 M,0,33476,33732,266,479,266,431 M,0,33732,37579,266,431 M,0,37579,37835,266,432,266,387 M,0,37835,41681,266,387 M,0,41681,41938,266,387,266,339 M,0,41938,45784,266,339 M,0,45784,46040,266,339,266,297 M,0,46040,49886,266,297 M,0,49886,50143,266,297,266,252 M,0,50143,53989,266,252 M,0,53989,54245,266,252,266,204 M,0,54245,57835,266,204 M,0,57835,58091,266,204,266,162
Sprite,Foreground,Centre,"SB\B.png",320,240 M,0,57835,58091,196,635,196,590 S,0,58091,,1 M,0,58091,59630,196,590 M,0,59630,59886,196,590,196,548 M,0,59886,61938,196,548 M,0,61938,62194,196,549,196,501 M,0,62194,63732,196,501 M,0,63732,63989,196,501,196,456 M,0,63989,65784,196,456 M,0,65784,66040,196,456,196,411 M,0,66040,67579,196,411 M,0,67579,67835,196,411,196,366 M,0,67835,70143,196,366 M,0,70143,70399,196,366,196,321 M,0,70399,71938,196,321 M,0,71938,72194,196,321,196,276 M,0,72194,74502,196,276 M,0,74502,74758,196,276,196,231
Sprite,Foreground,Centre,"SB\C.png",320,240 M,0,74502,74758,247,636,247,591 M,0,74758,76553,247,591 M,0,76553,76809,247,591,247,549 M,0,76809,78604,247,549 M,0,78604,78861,247,549,247,501 M,0,78861,80656,247,501 M,0,80656,80912,247,501,247,457 M,0,80912,82707,247,457 M,0,82707,82963,247,457,247,409 M,0,82963,86809,247,409 M,0,86809,87066,247,409,247,367 M,0,87066,90912,247,367 M,0,90912,91168,247,367,247,319 M,0,91168,95014,247,319 M,0,95014,95271,247,319,247,274 M,0,95271,98861,247,274 M,0,98861,99117,247,274,247,232
Sprite,Foreground,Centre,"SB\D.png",320,240 M,0,98861,99117,196,635,196,593 M,0,99117,100656,196,593 M,0,100656,100912,196,593,196,548 M,0,100912,102963,196,548 M,0,102963,103220,196,548,196,504 M,0,103220,104758,196,504 M,0,104758,105014,196,505,196,457 M,0,105014,106809,196,457 M,0,106809,107066,196,457,196,412 M,0,107066,108604,196,412 M,0,108604,108861,196,412,196,367 M,0,108861,111168,196,367 M,0,111168,111425,196,367,196,324 M,0,111425,112963,196,324 M,0,112963,113220,196,324,196,276 M,0,113220,115271,196,276 M,0,115271,115527,196,276,196,231
Sprite,Foreground,Centre,"SB\E.png",320,240 M,0,115271,115527,196,636,196,592 M,0,115527,117066,196,592 M,0,117066,117322,196,592,196,545 M,0,117322,119373,196,545 M,0,119373,119630,196,545,196,503 M,0,119630,121168,196,503 M,0,121168,121425,196,503,196,456 M,0,121425,123220,196,456 M,0,123220,123476,196,456,196,410 M,0,123476,125271,196,410 M,0,125271,125527,196,410,196,365 M,0,125527,127579,196,365 M,0,127579,127835,196,365,196,324 M,0,127835,129117,196,324 M,0,129117,129373,196,324,196,278 M,0,129373,131681,196,278 M,0,131681,131938,196,278,196,227
Sprite,Foreground,Centre,"SB\F.png",320,240 M,0,143732,143989,252,592,252,548 M,0,143989,148348,252,548 M,0,148348,148604,252,548,252,504 M,0,148604,152450,252,504 M,0,152450,152707,252,504,252,457 M,0,152707,156553,252,457 M,0,156553,156809,252,457,252,412 M,0,156809,160656,252,412 M,0,160656,160912,252,413,252,368 M,0,160912,164758,252,368 M,0,164758,165014,252,368,252,321 M,0,165014,168604,252,321 M,0,168604,168861,252,321,252,273
Sprite,Foreground,Centre,"SB\E.png",320,240 M,0,168604,168861,196,637,196,590 M,0,168861,170399,196,590 M,0,170399,170656,196,592,196,551 M,0,170656,172707,196,551 M,0,172707,172963,196,551,196,498 M,0,172963,174502,196,498 M,0,174502,174758,196,498,196,459 M,0,174758,176553,196,459 M,0,176553,176809,196,459,196,411 M,0,176809,178604,196,411 M,0,178604,178861,196,411,196,366 M,0,178861,180912,196,366 M,0,180912,181168,196,366,196,322 M,0,181168,182450,196,322 M,0,182450,182707,196,322,196,277 M,0,182707,185014,196,277 M,0,185014,185271,196,277,196,226
Sprite,Foreground,Centre,"SB\D.png",320,240 M,0,185014,185271,196,635,196,593 M,0,185271,186809,196,593 M,0,186809,187066,196,593,196,548 M,0,187066,189117,196,548 M,0,189117,189373,196,548,196,500 M,0,189373,190912,196,500 M,0,190912,191168,196,500,196,455 M,0,191168,192963,196,455 M,0,192963,193220,196,455,196,413 M,0,193220,195014,196,413 M,0,195014,195271,196,413,196,366 M,0,195271,197322,196,366 M,0,197322,197579,196,367,196,320 M,0,197579,199117,196,320 M,0,199117,199373,196,320,196,275 M,0,199373,201425,196,275 M,0,201425,201681,196,275,196,230
Sprite,Foreground,Centre,"SB\B.png",320,240 M,0,201425,201681,196,635,196,592 M,0,201681,203220,196,592 M,0,203220,203476,196,592,196,548 M,0,203476,205527,196,548 M,0,205527,205784,196,548,196,503 M,0,205784,207066,196,503 M,0,207066,207322,196,503,196,456 M,0,207322,209373,196,456 M,0,209373,209630,196,456,196,408 M,0,209630,211681,196,408 M,0,211681,211938,196,408,196,367 M,0,211938,213732,196,367 M,0,213732,213989,196,367,196,322 M,0,213989,215527,196,322 M,0,215527,215784,196,322,196,274 M,0,215784,217579,196,274 M,0,217579,218091,196,274,196,229
Sprite,Foreground,Centre,"SB\moe.png",320,240 S,0,17066,131938,0.8
Sprite,Foreground,Centre,"SB\G.png",320,240 M,0,131938,132450,320,164,320,189 F,0,131938,132450,0,1 M,0,132450,140143,320,189 M,0,140143,141168,320,189,-178,189
Sprite,Foreground,Centre,"SB\H.png",320,240 M,0,133989,134502,320,331,320,324 F,0,133989,134502,0,1 M,0,134502,140143,320,324 M,0,140143,141168,320,324,818,324
Sprite,Foreground,Centre,"SB\moe.png",320,240 S,0,143732,218091,0.8
//Storyboard Sound Samples
//Background Colour Transformations
3,100,163,162,255

[TimingPoints]
656,512.820512820513,4,2,1,50,1,0
49886,-100,4,2,1,60,0,0
58091,-100,4,2,1,70,0,1
69758,-100,4,2,2,70,0,1
70335,-100,4,2,1,70,0,1
74502,-100,4,2,1,70,0,0
74630,-100,4,2,2,50,0,0
80527,-100,4,2,1,60,0,0
99117,-100,4,2,1,70,0,1
114630,-100,4,2,2,60,0,1
115399,-100,4,2,1,70,0,0
115527,-100,4,2,1,70,0,1
131938,-100,4,2,1,70,0,0
140656,-100,4,2,1,65,0,0
141168,-100,4,2,1,60,0,0
141681,-100,4,2,1,55,0,0
142194,-100,4,2,1,50,0,0
142707,-100,4,2,1,45,0,0
143220,-100,4,2,1,70,0,0
143476,-100,4,2,1,50,0,0
144181,-100,4,2,2,50,0,0
144309,-100,4,2,1,50,0,0
144438,-100,4,2,1,70,0,0
145527,-100,4,2,2,50,0,0
146040,-100,4,2,1,70,0,0
147579,-100,4,2,1,50,0,0
148476,-100,4,2,1,70,0,0
149630,-100,4,2,1,60,0,0
150399,-100,4,2,1,70,0,0
151681,-100,4,2,1,50,0,0
152579,-100,4,2,1,70,0,0
153861,-100,4,2,2,60,0,0
154630,-100,4,2,1,70,0,0
155912,-100,4,2,2,60,0,0
156681,-100,4,2,1,70,0,0
157963,-100,4,2,2,60,0,0
158732,-100,4,2,1,70,0,0
160014,-100,4,2,1,60,0,0
167835,-100,4,2,1,45,0,0
168091,-100,4,2,1,50,0,0
168348,-100,4,2,1,55,0,0
168476,-100,4,2,1,60,0,0
168604,-100,4,2,1,65,0,0
168732,-100,4,2,1,70,0,0
168861,-100,4,2,1,70,0,1
184373,-100,4,2,2,60,0,1
185271,-200,4,2,2,50,0,0
185784,-100,4,2,1,70,0,1
201553,-100,4,2,1,70,0,0
201681,-100,4,2,1,70,0,1
213348,-100,4,2,2,70,0,1
213925,-100,4,2,1,70,0,1
218091,-100,4,2,1,70,0,0

[Colours]
Combo1 : 255,255,128
Combo2 : 128,255,128
Combo3 : 0,128,255
Combo4 : 255,128,128

[HitObjects]
76,328,17066,5,4
44,212,17322,2,0,B|20:140,1,75,2|0
72,148,17579,2,0,B|84:72,1,75,8|0
140,52,17835,1,2
372,52,18091,2,0,B|288:56|256:140,1,150,2|0
204,112,18476,2,0,B|260:172|236:264,1,150,2|0
204,300,18861,1,0
436,328,19117,5,2
376,144,19373,2,0,B|340:152|320:196,1,75,2|0
436,96,19630,2,0,B|472:88|492:44,1,75,8|0
364,68,19886,1,2
220,72,20143,6,0,B|75:100,1,150,0|2
292,312,20656,2,0,B|438:284,1,150,8|0
165,341,21168,1,2
32,240,21425,6,0,B|0:216|0:164,2,75,0|0|8
76,280,21809,2,0,B|128:240|128:240|136:216|136:216|188:180,1,150
196,260,22194,2,0,B|248:220|248:220|256:196|256:196|308:160,1,150,2|0
236,120,22579,2,0,B|80:96,1,150,2|0
87,97,22963,1,8
384,140,23220,1,2
292,56,23476,6,0,B|356:16|444:32,2,150,0|8|2
256,172,24245,1,2
148,120,24502,2,0,B|84:80|-4:96,2,150,0|8|2
156,240,25271,1,2
264,292,25527,6,0,B|408:352,1,150,0|8
402,349,25912,1,0
402,349,26040,1,2
448,92,26297,2,0,B|500:164|456:232,1,150,2|0
308,184,26681,2,0,B|256:112|300:44,1,150,2|0
375,44,27066,2,0,B|219:44,1,150,0|2
76,44,27579,5,2
32,84,27707,1,0
24,144,27835,1,8
40,200,27963,2,0,B|128:328,1,150
80,380,28348,2,0,B|116:304|204:296,1,150,2|2
252,316,28732,1,2
388,360,28989,1,0
448,368,29117,2,0,B|520:332|512:236,1,150,0|2
408,32,29630,6,0,B|330:7|261:40,1,150,0|8
336,92,30014,2,0,B|256:104|208:164,1,150,0|0
308,176,30399,2,0,B|238:216|215:289,1,150,2|0
252,336,30784,1,2
408,32,31168,1,0
192,68,31425,6,0,B|120:104|28:84,2,150,2|2|8
192,68,32066,2,0,B|320:168,1,150,2|0
368,116,32450,2,0,B|240:216,1,150,2|2
204,248,32835,1,0
228,304,32963,1,10
292,300,33091,1,2
304,240,33220,1,10
45,87,33476,1,4
192,28,33732,5,0
240,64,33861,1,0
256,120,33989,2,0,B|264:36|352:20,1,150,8|2
416,96,34373,1,0
417,96,34502,2,0,B|504:111|512:195,1,150,2|0
416,248,34886,1,0
416,248,35014,2,0,B|312:388,2,150,8|8|2
416,96,35784,5,2
256,108,36040,1,8
96,120,36297,1,2
55,252,36553,2,0,B|147:238|178:339,1,150,0|2
100,340,36938,2,0,B|98:250|190:236,1,150,0|0
248,232,37322,1,2
448,216,37579,1,2
320,72,37835,6,0,B|340:32|384:32,1,75
320,72,38091,2,0,B|168:32,1,150,8|2
44,116,38604,2,0,B|196:156,1,150,2|0
248,168,38989,1,0
304,180,39117,1,8
88,228,39373,1,8
264,328,39630,1,2
384,332,39886,6,0,B|456:284|440:200,1,150,0|2
253,61,40399,2,0,B|400:92,1,150,2|0
136,44,40912,6,0,B|48:56|32:144,1,150,2|8
64,192,41297,1,0
33,245,41425,2,0,B|48:328|136:340,1,150,2|4
408,316,41938,6,0,B|476:352,2,75,0|0|8
312,144,42450,1,2
260,116,42579,1,0
204,96,42707,2,0,B|124:68|56:120,1,150,2|0
100,172,43091,2,0,B|152:136|208:164|236:196,1,150,2|0
276,236,43476,2,0,B|302:266|358:294|410:258,1,150,8|2
376,128,43989,5,2
136,256,44245,2,0,B|72:296,1,75,8|0
336,260,44758,6,0,B|392:253|406:316|473:317,1,150,2|0
360,356,45143,2,0,B|336:320|256:320|200:340,1,150,2|0
136,360,45527,2,0,B|212:316|208:208,1,150,2|4
200,88,46040,6,0,B|142:69|142:69|127:39|127:39|70:20,2,150,0|8|2
256,248,46809,1,0
312,88,47066,2,0,B|369:69|369:69|384:39|384:39|441:20,2,150,0|8|2
256,248,47835,6,0,B|176:252|120:312,1,150,2|0
256,248,48220,2,0,B|336:252|392:312,1,150,2|0
389,308,48604,1,2
456,64,48861,2,0,B|372:72|352:172,1,150,2|0
248,40,49245,2,0,B|203:111|271:188,1,150,2|0
324,240,49630,1,2
156,336,49886,5,4
60,204,50143,2,0,B|28:128|96:60,1,150,0|2
24,32,50527,1,0
24,32,50655,2,0,B|168:108,1,150,0|2
280,192,51168,1,0
296,312,51425,2,0,B|388:308|404:216,1,150,2|0
280,192,51938,1,2
276,56,52194,6,0,B|192:52|160:136,1,150,0|2
72,40,52707,2,0,B|24:104|48:204,1,150,0|2
92,216,53091,1,0
144,244,53220,1,2
300,264,53476,1,8
248,292,53604,1,0
196,324,53732,1,2
196,160,53989,1,2
300,48,54245,6,0,B|360:0|464:8,2,150,0|2|0
364,204,55014,1,2
364,204,55143,1,0
364,204,55271,2,0,B|428:340,2,150,0|2|0
224,108,56040,2,0,B|156:64|80:80,1,150,2|8
148,180,56553,5,2
184,204,56681,1,2
220,232,56809,1,2
416,240,57066,1,2
384,272,57194,1,0
348,300,57322,1,2
308,316,57450,1,0
264,328,57579,1,2
220,332,57707,1,2
176,332,57835,1,2
132,332,57963,1,2
96,332,58091,6,0,B|8:332|0:220,1,150,4|0
124,52,58604,2,0,B|93:28|53:40,1,75,2|0
77,132,58861,2,0,B|108:156|148:144,1,75,0|0
225,96,59117,2,0,B|353:4,1,150,2|0
225,96,59502,2,0,B|217:48|165:24,1,75,2|0
197,132,59758,5,0
180,172,59886,1,2
185,216,60014,1,0
205,256,60143,1,2
352,184,60399,1,0
352,184,60527,2,0,B|424:208|448:292,1,150,2|0
436,364,60912,2,0,B|444:292|516:228,1,150,2|4
436,364,61425,1,0
507,235,61681,1,2
368,68,61938,1,0
312,88,62066,1,0
256,112,62194,5,4
80,192,62450,1,0
432,192,62707,1,2
256,272,62963,1,0
344,352,63220,2,0,B|424:332|444:244,1,150,2|0
168,352,63604,2,0,B|88:332|68:244,1,150,2|0
64,188,63989,5,2
84,132,64117,1,0
136,104,64245,2,0,B|304:88,1,150,2|0
324,24,64630,2,0,B|284:96|320:172,1,150,2|0
364,224,65014,1,2
164,348,65271,2,0,B|112:316|112:316|80:324|80:324|28:288,1,150,2|10
33,216,65655,1,0
33,141,65784,1,10
256,84,66040,6,0,B|288:56|288:4,2,75,0|0|4
33,141,66553,2,0,B|53:221|149:245,1,150,0|2
193,261,66938,1,0
253,277,67066,1,0
480,116,67322,2,0,B|404:81|338:143,1,150,2|0
341,139,67707,1,2
84,176,67963,6,0,B|16:136,2,75,0|2|0
84,176,68348,2,0,B|84:264|156:296,1,150,2|0
196,224,68732,2,0,B|345:205,1,150,2|0
405,270,69117,2,0,B|257:289,2,150,2|4|0
233,74,69886,2,0,B|212:33|167:29,1,75,2|0
205,152,70143,2,0,B|180:190|200:231,1,75,2|0
286,136,70399,6,0,B|367:117|400:33,1,150,4|0
225,247,70912,2,0,B|144:266|111:350,1,150,2|0
44,316,71297,1,0
76,248,71425,6,0,B|128:188|200:168,1,150,2|0
316,92,71809,2,0,B|312:132|272:148,1,75,2|2
240,80,72066,6,0,B|164:36,1,75,0|2
40,168,72322,2,0,B|116:124,1,75,0|4
412,192,72707,5,0
256,348,72963,2,0,B|200:296|120:292,1,150,2|0
256,348,73476,1,2
448,276,73732,2,0,B|492:196,1,75,8|0
412,192,73989,2,0,B|400:104,1,75,10|0
352,64,74245,1,2
284,32,74373,1,0
208,24,74502,1,4
76,96,74758,6,0,B|56:64|12:56,1,75,2|0
108,180,75014,2,0,B|100:268|172:304,1,150,2|0
244,328,75399,1,0
168,376,75527,2,0,B|144:288|216:244,1,150,2|0
291,207,75912,2,0,B|228:168,1,75,0|0
291,207,76553,6,0,B|312:128|412:132,1,150,0|2
464,140,76938,1,0
512,148,77066,1,2
284,48,77322,1,2
236,40,77450,1,0
188,32,77579,2,0,B|100:40|68:120,1,150,2|0
0,92,77963,2,0,B|88:100|120:180,1,150,2|0
188,144,78348,1,2
188,144,78476,1,0
92,312,78861,6,0,B|32:360,2,75,2|0|2
256,228,79373,1,0
256,228,79502,1,0
256,228,79630,2,0,B|308:184|404:184,1,150,2|0
380,112,80014,2,0,B|420:260,1,150,2|0
472,288,80399,1,0
364,340,80655,6,0,B|308:280|228:292,1,150,2|8
148,316,81040,1,2
68,344,81168,2,0,B|24:276|60:200,1,150,0|2
136,76,81681,1,2
220,192,81938,1,2
296,72,82194,1,2
384,192,82450,1,0
408,156,82579,1,2
432,120,82707,1,4
340,252,82963,6,0,B|312:280|324:320,1,75,0|0
396,300,83220,2,0,B|480:176,1,150,8|2
396,48,83604,1,0
396,48,83732,2,0,B|312:172,1,150,2|0
276,220,84117,1,0
240,268,84245,1,8
132,72,84502,1,8
48,336,84758,1,2
208,336,85014,6,0,B|248:344|288:320,1,75,2|0
240,268,85271,2,0,B|275:248|290:204,1,75,8|0
216,196,85527,2,0,B|240:112|168:48,2,150,2|0|2
276,208,86168,1,0
336,220,86297,1,8
136,176,86553,1,2
416,236,86809,1,2
404,44,87066,6,0,B|344:92,1,75
300,132,87322,1,8
160,36,87579,1,2
100,36,87707,1,0
40,36,87835,2,0,B|40:88|40:88|20:128|20:128|20:184,1,150,2|0
112,296,88220,2,0,B|112:244|112:244|92:204|92:204|92:148,1,150,2|0
151,150,88604,1,2
210,150,88732,1,0
270,150,88861,1,2
256,332,89117,5,0
404,344,89373,1,8
452,200,89630,1,2
60,184,90143,5,2
108,40,90399,1,8
256,52,90655,1,2
452,200,90912,5,4
256,152,91168,2,0,B|176:204,1,75
144,248,91425,2,0,B|228:248|280:312,1,150,8|2
328,364,91809,1,0
276,308,91938,2,0,B|268:224|328:168,1,150,2|0
392,96,92322,1,0
392,96,92450,2,0,B|236:96,1,150,8|8
468,96,92963,1,2
272,172,93220,6,0,B|342:188|338:240|413:253,1,150,2|8
397,249,93604,1,0
256,332,93989,6,0,B|168:332|144:248,1,150,2|0
32,48,94373,2,0,B|120:48|144:132,1,150,2|0
356,192,94758,2,0,B|196:192,1,150,2|4
48,192,95271,5,0
228,48,95527,1,8
444,44,95784,2,0,B|488:116|452:196,1,150,2|0
256,152,96297,6,0,B|212:224|248:304,1,150,0|8
384,360,96809,1,0
132,344,97066,6,0,B|40:304|40:216,1,150,2|0
40,188,97450,1,2
44,144,97579,1,0
64,104,97707,1,0
96,72,97835,1,2
235,248,98091,6,0,B|246:173,1,75,2|0
202,171,98348,2,0,B|251:114,1,75,2|0
215,86,98604,2,0,B|287:65,1,75,2|2
272,24,98861,2,0,B|343:46,1,75,2|2
414,167,99117,22,0,B|461:147|509:184|490:232|457:247,1,150,4|0
414,167,99630,2,0,B|404:116|346:97|317:140|323:175,1,150,2|0
459,246,100143,2,0,B|409:245|352:281|352:281|353:215|324:175,1,225,2|2
184,56,100784,5,0
140,68,100912,1,2
96,80,101040,1,0
52,92,101168,2,0,B|140:116|132:204,1,150,2|0
88,244,101553,1,2
256,336,101809,2,0,B|348:308,1,75,0|2
408,360,102066,1,0
408,360,102194,2,0,B|460:292|444:216,2,150,4|0|2
192,300,102963,2,0,B|132:256,1,75,0|0
44,192,103220,5,4
256,48,103476,1,0
44,192,103732,1,2
256,336,103989,1,0
256,48,104245,2,0,B|192:116|256:180,1,150,2|0
256,336,104630,2,0,B|320:268|256:204,1,150,2|0
200,180,105014,5,2
144,156,105143,1,0
88,132,105271,2,0,B|32:104|60:24|112:24,1,150,4|0
340,92,105655,2,0,B|188:44,1,150,2|0
256,204,106040,2,0,B|408:252,1,150,2|2
78,346,106553,1,10
104,256,106681,1,0
196,276,106809,1,10
472,328,107066,5,0
436,280,107194,1,0
400,232,107322,2,0,B|384:148|460:108,2,150,4|0|2
460,107,108091,1,0
228,40,108348,2,0,B|144:40|108:120,1,150,2|0
40,88,108732,2,0,B|180:148,1,150,2|0
256,180,109117,5,0
232,252,109245,1,0
280,312,109373,2,0,B|324:376|412:364,1,150,2|0
476,208,109758,2,0,B|432:144|344:156,1,150,2|0
276,196,110143,1,2
68,156,110399,6,0,B|128:112|104:16,1,150,4|0
140,228,110912,2,0,B|81:272|104:364,1,150,2|2
180,352,111297,5,0
256,336,111425,2,0,B|412:304,2,150,4|0|2
352,160,112194,1,0
96,40,112450,6,0,B|52:96|52:96|64:180,1,150,2|0
96,256,112835,2,0,B|152:208,1,75,2|0
240,300,113091,6,0,B|328:300,1,75,0|2
376,256,113348,1,0
436,300,113476,1,4
256,60,113732,1,0
76,300,113989,1,2
340,120,114245,1,0
148,368,114502,1,2
420,180,114758,6,0,B|492:144,1,75,2|0
389,293,115014,2,0,B|384:373,1,75,2|0
306,210,115271,2,0,B|238:165,1,75,2|0
192,44,115527,6,0,B|96:24|72:120,1,150,4|0
28,336,116040,2,0,B|64:352|116:312,1,75,2|0
212,244,116297,2,0,B|176:228|124:268,1,75
56,259,116553,2,0,B|192:324,1,150,2|0
340,348,116938,2,0,B|305:366|268:347,1,75,2|0
244,292,117194,5,0
268,236,117322,1,2
324,216,117450,1,0
384,212,117579,2,0,B|440:144|420:48,1,150,2|0
352,123,117963,2,0,B|320:47|228:27,1,150,2|0
164,31,118348,1,2
32,280,118604,2,0,B|101:387|225:356,1,225,4|0
297,167,119117,2,0,B|225:60|101:93,1,225,2|0
43,138,119630,5,4
152,316,119886,1,0
256,136,120143,1,2
360,316,120399,1,0
469,138,120655,1,2
188,192,120912,1,0
188,192,121040,2,0,B|256:252|324:192,1,150,2|0
352,140,121425,5,2
412,140,121553,1,0
444,192,121681,1,2
256,340,121938,2,0,B|315:293,1,75,0|2
140,352,122322,2,0,B|60:356|20:276,1,150
20,200,122707,1,2
235,40,122963,2,0,B|200:24|164:48,1,75,10|0
296,92,123220,2,0,B|331:108|367:84,1,75,10|0
224,116,123476,5,0
256,148,123604,1,0
272,192,123732,2,0,B|288:272|224:328,1,150,4|0
400,240,124245,2,0,B|384:316|302:346,1,150,2|0
348,168,124758,2,0,B|320:96|384:32,1,150,2|0
459,31,125143,2,0,B|303:31,1,150,2|0
249,31,125527,1,2
188,31,125655,1,0
128,31,125784,6,0,B|72:100|124:168,1,150,2|0
260,244,126168,2,0,B|312:177|256:108,1,150,2|0
128,32,126553,1,2
68,332,126809,2,0,B|136:380|208:332,1,150,4|0
256,296,127194,1,0
304,260,127322,2,0,B|375:212|443:260,1,150,2|0
256,296,127835,6,0,B|252:212|160:192,1,150,2|0
108,244,128220,1,0
108,244,128348,2,0,B|184:212|174:122,1,150,2|0
0,24,128861,1,2
256,84,129117,1,0
256,84,129245,2,0,B|111:50,1,150,2|0
44,84,129630,1,2
72,152,129758,1,0
140,124,129886,5,4
360,48,130143,1,0
72,152,130399,2,0,B|0:188,1,75,2|0
120,252,130655,2,0,B|84:332,1,75
212,332,130912,2,0,B|284:376|352:320,1,150,2|0
400,208,131297,2,0,B|328:164|260:220,1,150,2|0
220,260,131681,1,2
168,276,131809,1,0
120,252,131938,1,4
256,192,140143,12,2,143220
424,80,143732,5,2
307,55,143989,2,0,B|220:36|180:109,1,150,0|2
149,160,144373,1,0
118,211,144502,5,2
307,55,144886,1,2
309,300,145271,1,2
37,328,145784,6,2,B|112:328,1,75
397,328,146553,5,2
441,140,146938,1,2
281,28,147322,1,2
80,180,147835,6,0,B|12:260|104:236|24:314,2,150
184,44,148604,5,2
376,264,148989,1,2
80,180,149373,1,2
440,64,149886,5,2
440,64,150014,2,2,B|376:56|376:56|352:136,1,150,2|8
256,344,150655,5,2
84,256,151040,1,2
88,60,151425,1,2
360,100,151938,6,0,B|400:120|444:108,2,75,8|0|8
232,24,152450,1,0
76,132,152707,6,0,B|16:192|52:280,1,150,2|0
112,228,153091,2,0,B|133:309|228:322,1,150,2|0
212,244,153476,2,0,B|293:265|352:190,1,150,2|0
256,156,153989,5,2
239,115,154245,1,0
220,76,154502,1,2
311,87,154758,6,0,B|460:112,1,150,2|0
479,151,155143,2,0,B|331:127,1,150,2|0
347,167,155527,2,0,B|496:192,1,150,2|0
392,304,156040,5,2
256,236,156297,1,0
120,304,156553,1,2
48,152,156809,6,0,B|124:124|160:56,1,150,2|0
352,56,157194,2,0,B|388:124|464:152,1,150,2|0
328,296,157579,2,0,B|256:276|256:276|184:296,1,150,2|0
48,360,158091,5,2
60,212,158348,1,0
183,296,158604,1,2
256,296,158732,1,0
328,296,158861,6,0,B|440:192,1,150,2|0
328,296,159245,2,0,B|328:144,1,150,2|0
328,296,159630,2,0,B|216:192,1,150,2|0
128,116,160143,2,0,B|96:88|56:108,2,75,8|0|8
60,212,160655,1,4
108,320,160912,5,0
216,272,161168,1,2
320,332,161425,1,0
428,276,161681,2,0,B|480:208|436:128,1,150,2|0
368,156,162066,2,0,B|224:196,1,150,2|0
152,220,162450,1,2
36,256,162707,1,4
148,44,162963,5,0
88,148,163220,1,2
208,148,163476,1,0
268,44,163732,2,0,B|400:28|448:152,2,225,2|2|2
208,148,164758,1,4
320,196,165014,6,0,B|464:256,1,150,0|2
348,304,165527,2,0,B|188:324,2,150,0|2|0
408,296,166168,2,0,B|448:224|420:144,1,150,2|0
497,151,166553,2,0,B|349:151,1,150,2|4
244,40,167066,6,0,B|164:56|136:144,1,150,2|0
60,80,167450,2,0,B|33:157|96:225,1,150,2|0
148,268,167835,2,0,B|180:296,15,37.5,2|0|0|0|2|0|0|0|2|0|2|0|2|0|2|0
208,312,168861,6,0,B|284:344|352:308,1,150,4|0
380,76,169373,2,0,B|328:80|320:124,1,75,2|0
192,200,169630,2,0,B|224:232|272:216,1,75
188,88,169886,2,0,B|116:48|40:104,1,150,2|0
24,208,170271,2,0,B|64:216|96:184,1,75,2|0
188,88,170527,5,0
228,104,170655,1,2
256,136,170784,1,0
264,180,170912,2,0,B|412:124,1,150,2|0
476,104,171297,2,0,B|396:120|396:216,1,150,2|0
452,304,171681,2,0,B|384:272|300:284,1,150,2|4
24,328,172194,1,0
104,120,172450,1,2
320,40,172707,1,0
372,72,172835,1,0
408,120,172963,5,4
256,352,173220,1,0
104,120,173476,1,2
408,120,173732,1,0
150,256,173989,2,0,B|232:272|256:352,1,150,2|0
436,276,174373,2,0,B|354:260|330:180,1,150,2|0
268,184,174758,5,2
208,180,174886,1,0
148,184,175014,2,0,B|68:156|68:64,1,150,2|0
156,92,175399,2,0,B|24:192,2,150,2|2|0
256,36,176040,2,0,B|348:28|396:76,1,150,2|10
448,148,176425,1,0
396,220,176553,1,10
188,336,176809,5,0
136,304,176938,1,0
100,260,177066,1,4
256,36,177322,1,0
472,216,177579,2,0,B|328:288,1,150,2|0
112,52,178091,2,0,B|256:124,1,150,2|0
112,52,178476,2,0,B|137:129|89:197,1,150,2|0
57,245,178861,1,2
29,297,178989,1,0
4,352,179117,6,0,B|60:284|164:296,1,150,2|0
212,308,179502,2,0,B|376:332,1,150,2|0
436,344,179886,1,2
436,92,180143,2,0,B|408:52|368:24|320:56|308:76,1,150,4|0
256,148,180527,1,0
76,92,180655,2,0,B|104:52|144:24|192:56|204:76,1,150,2|0
348,280,181168,6,0,B|292:356|292:356|244:328,1,150,2|0
76,164,181681,1,2
35,229,181809,1,0
96,276,181938,1,0
503,97,182194,2,0,B|512:108|520:140|504:184|464:200|428:192,1,150,2|0
440,124,182579,2,0,B|420:88|378:88,1,75,2|0
288,92,182835,1,0
216,148,182963,1,2
144,204,183091,1,0
76,264,183220,5,4
201,65,183476,1,0
165,279,183732,1,2
114,50,183989,1,0
76,264,184245,1,2
266,128,184502,6,0,B|337:104,1,75,2|0
431,210,184758,2,0,B|347:201,1,75,2|0
252,256,185014,2,0,B|316:295,1,75,2|0
360,360,185271,6,0,B|432:359|403:292|487:296,1,150,2|6
256,364,186040,5,0
112,316,186297,2,0,B|68:240|108:160,1,150,2|0
36,136,186681,2,0,B|172:208,1,150,2|0
220,236,187066,5,2
276,256,187194,1,0
332,240,187322,2,0,B|332:80,1,150,2|0
472,156,187707,2,0,B|472:316,1,150,2|0
472,306,188091,1,2
332,240,188348,1,4
472,156,188604,1,0
332,90,188861,1,2
4,56,189117,2,0,B|52:60|64:104,1,75
64,180,189373,5,4
378,118,189630,1,0
125,265,189886,1,2
352,221,190143,1,0
193,342,190399,2,0,B|39:371,1,150,2|0
318,317,190784,2,0,B|471:287,1,150,2|0
488,216,191168,5,2
448,152,191297,1,0
400,96,191425,2,0,B|336:48|256:84,1,150,2|0
112,288,191809,2,0,B|176:336|256:300,2,150,2|2|0
72,92,192450,2,0,B|96:56|96:56|168:76|172:144,1,150,2|10
140,208,192835,1,0
112,288,192963,1,10
400,112,193220,6,0,B|436:84|484:88,2,75,0|0|4
256,332,193732,1,0
140,208,193989,2,0,B|56:180|72:92,2,150,2|0|2
344,264,194758,2,0,B|420:280,1,75,0|2
272,144,195143,5,0
256,100,195271,1,2
268,56,195399,1,0
300,24,195527,2,0,B|144:24,1,150,2|0
76,24,195912,2,0,B|28:88|64:172,1,150,2|0
112,224,196297,1,2
416,248,196553,6,0,B|320:272|269:239|269:239|263:300|185:360,1,300,4|2
108,352,197194,1,0
92,280,197322,1,2
160,244,197450,1,0
216,296,197579,6,0,B|272:344|356:336,1,150,2|0
472,192,198091,2,0,B|416:240|332:232,1,150,2|0
164,116,198604,2,0,B|80:92|40:180,1,150,2|0
24,248,198989,2,0,B|79:298,1,75,2|0
144,264,199245,1,0
208,304,199373,1,2
276,268,199502,1,0
340,308,199630,5,4
256,48,199886,1,0
171,307,200143,1,2
392,147,200399,1,0
119,147,200655,1,2
340,308,200912,1,2
296,304,201040,5,0
252,308,201168,1,2
208,304,201297,1,0
171,307,201425,1,2
128,304,201553,1,2
84,304,201681,6,0,B|64:313|41:295|50:273|84:280,1,75,4|0
285,192,201938,2,0,B|321:184|330:206|308:224|288:216,1,75,0|0
84,124,202194,2,0,B|64:133|41:115|50:93|84:100,1,75,2|0
284,12,202450,2,0,B|320:4|329:26|307:44|287:36,1,75,0|0
168,124,202707,2,0,B|232:174|310:146,1,150,2|0
372,104,203091,1,2
494,320,203348,6,0,B|476:248,1,75,0|2
436,184,203604,1,0
364,160,203732,2,0,B|216:116,1,150,4|0
32,152,204117,2,0,B|180:196,1,150,2|0
248,220,204502,1,2
496,96,204758,2,0,B|476:224|328:216,1,225,4|0
19,216,205271,2,0,B|39:344|187:336,1,225,2|0
256,336,205784,5,4
468,192,206040,1,0
256,48,206297,1,2
44,192,206553,1,0
408,128,206809,2,0,B|340:64|276:128,1,150,2|0
104,256,207194,2,0,B|172:320|236:256,1,150,2|0
276,212,207579,5,2
336,212,207707,1,0
396,212,207835,2,0,B|435:175|435:175|431:135|431:135|471:87,1,150,4|0
435,23,208220,2,0,B|375:95|375:95|299:99,1,150,2|0
248,96,208604,1,2
36,244,208861,2,0,B|32:336|124:364,1,150,2|10
188,360,209245,1,0
264,360,209373,1,10
376,192,209630,6,0,B|376:144|416:116,1,75
480,120,209886,2,0,B|480:36|384:8,1,150,4|0
148,144,210399,2,0,B|250:34,1,150,2|0
46,195,210912,2,0,B|118:240|108:334,1,150,2|0
37,294,211297,2,0,B|84:226|169:241,1,150,2|0
220,294,211681,1,2
294,294,211809,1,0
347,240,211938,6,0,B|420:192|392:108,1,150,2|0
328,144,212322,2,0,B|468:64,1,150,2|0
376,40,212707,2,0,B|368:124|456:156,1,150,2|4
392,324,213220,1,0
232,240,213476,2,0,B|204:212|140:216,1,75,2|0
261,77,213732,2,0,B|288:104|268:148,1,75,2|0
162,215,213989,6,0,B|28:292,2,150,4|0|2
162,215,214630,1,0
162,215,214758,1,0
474,159,215014,6,0,B|448:76|360:80,1,150,2|0
261,77,215399,2,0,B|184:104,1,75,2|0
108,140,215655,5,0
188,176,215784,1,2
108,216,215912,1,0
188,256,216040,1,4
474,159,216297,1,0
256,348,216553,5,2
256,36,216809,1,0
256,348,217066,1,2
256,192,217194,12,4,218091
