osu file format v9

[General]
AudioFilename: Papa_no_Iu_Koto_wo_Kikinasai_-_Coloring.mp3
AudioLeadIn: 0
PreviewTime: 57785
Countdown: 0
SampleSet: Soft
StackLeniency: 0.5
Mode: 0
LetterboxInBreaks: 0

[Editor]
Bookmarks: 6759,17016,49836,58041,69067,74452,131888,140093,160606,169323
DistanceSpacing: 0.8
BeatDivisor: 4
GridSize: 4

[Metadata]
Title:Coloring
Artist:Horie Yui
Creator:CXu
Version:Hardiers
Source:Papa no Iu Koto wo Kikinasai!
Tags:kriers Colouring Ending Beren KinomiCandy

[Difficulty]
HPDrainRate:6
CircleSize:4
OverallDifficulty:6
ApproachRate:7
SliderMultiplier:2
SliderTickRate:1

[Events]
//Background and Video events
0,0,"moe.jpg"
//Break Periods
2,132138,139243
//Storyboard Layer 0 (Background)
//Storyboard Layer 1 (Fail)
//Storyboard Layer 2 (Pass)
//Storyboard Layer 3 (Foreground)
Sprite,Foreground,Centre,"SB\A.png",320,240 M,0,17066,17322,266,706,266,658 M,0,17322,19117,266,658 M,0,19117,19373,266,658,266,612 M,0,19373,21168,266,612 M,0,21168,21425,266,612,266,570 M,0,21425,25271,266,570 M,0,25271,25527,266,570,266,521 M,0,25527,29373,266,521 M,0,29373,29630,266,521,266,478 M,0,29630,33476,266,478 M,0,33476,33732,266,479,266,431 M,0,33732,37579,266,431 M,0,37579,37835,266,432,266,387 M,0,37835,41681,266,387 M,0,41681,41938,266,387,266,339 M,0,41938,45784,266,339 M,0,45784,46040,266,339,266,297 M,0,46040,49886,266,297 M,0,49886,50143,266,297,266,252 M,0,50143,53989,266,252 M,0,53989,54245,266,252,266,204 M,0,54245,57835,266,204 M,0,57835,58091,266,204,266,162
Sprite,Foreground,Centre,"SB\B.png",320,240 M,0,57835,58091,196,635,196,590 S,0,58091,,1 M,0,58091,59630,196,590 M,0,59630,59886,196,590,196,548 M,0,59886,61938,196,548 M,0,61938,62194,196,549,196,501 M,0,62194,63732,196,501 M,0,63732,63989,196,501,196,456 M,0,63989,65784,196,456 M,0,65784,66040,196,456,196,411 M,0,66040,67579,196,411 M,0,67579,67835,196,411,196,366 M,0,67835,70143,196,366 M,0,70143,70399,196,366,196,321 M,0,70399,71938,196,321 M,0,71938,72194,196,321,196,276 M,0,72194,74502,196,276 M,0,74502,74758,196,276,196,231
Sprite,Foreground,Centre,"SB\C.png",320,240 M,0,74502,74758,247,636,247,591 M,0,74758,76553,247,591 M,0,76553,76809,247,591,247,549 M,0,76809,78604,247,549 M,0,78604,78861,247,549,247,501 M,0,78861,80656,247,501 M,0,80656,80912,247,501,247,457 M,0,80912,82707,247,457 M,0,82707,82963,247,457,247,409 M,0,82963,86809,247,409 M,0,86809,87066,247,409,247,367 M,0,87066,90912,247,367 M,0,90912,91168,247,367,247,319 M,0,91168,95014,247,319 M,0,95014,95271,247,319,247,274 M,0,95271,98861,247,274 M,0,98861,99117,247,274,247,232
Sprite,Foreground,Centre,"SB\D.png",320,240 M,0,98861,99117,196,635,196,593 M,0,99117,100656,196,593 M,0,100656,100912,196,593,196,548 M,0,100912,102963,196,548 M,0,102963,103220,196,548,196,504 M,0,103220,104758,196,504 M,0,104758,105014,196,505,196,457 M,0,105014,106809,196,457 M,0,106809,107066,196,457,196,412 M,0,107066,108604,196,412 M,0,108604,108861,196,412,196,367 M,0,108861,111168,196,367 M,0,111168,111425,196,367,196,324 M,0,111425,112963,196,324 M,0,112963,113220,196,324,196,276 M,0,113220,115271,196,276 M,0,115271,115527,196,276,196,231
Sprite,Foreground,Centre,"SB\E.png",320,240 M,0,115271,115527,196,636,196,592 M,0,115527,117066,196,592 M,0,117066,117322,196,592,196,545 M,0,117322,119373,196,545 M,0,119373,119630,196,545,196,503 M,0,119630,121168,196,503 M,0,121168,121425,196,503,196,456 M,0,121425,123220,196,456 M,0,123220,123476,196,456,196,410 M,0,123476,125271,196,410 M,0,125271,125527,196,410,196,365 M,0,125527,127579,196,365 M,0,127579,127835,196,365,196,324 M,0,127835,129117,196,324 M,0,129117,129373,196,324,196,278 M,0,129373,131681,196,278 M,0,131681,131938,196,278,196,227
Sprite,Foreground,Centre,"SB\F.png",320,240 M,0,143732,143989,252,592,252,548 M,0,143989,148348,252,548 M,0,148348,148604,252,548,252,504 M,0,148604,152450,252,504 M,0,152450,152707,252,504,252,457 M,0,152707,156553,252,457 M,0,156553,156809,252,457,252,412 M,0,156809,160656,252,412 M,0,160656,160912,252,413,252,368 M,0,160912,164758,252,368 M,0,164758,165014,252,368,252,321 M,0,165014,168604,252,321 M,0,168604,168861,252,321,252,273
Sprite,Foreground,Centre,"SB\E.png",320,240 M,0,168604,168861,196,637,196,590 M,0,168861,170399,196,590 M,0,170399,170656,196,592,196,551 M,0,170656,172707,196,551 M,0,172707,172963,196,551,196,498 M,0,172963,174502,196,498 M,0,174502,174758,196,498,196,459 M,0,174758,176553,196,459 M,0,176553,176809,196,459,196,411 M,0,176809,178604,196,411 M,0,178604,178861,196,411,196,366 M,0,178861,180912,196,366 M,0,180912,181168,196,366,196,322 M,0,181168,182450,196,322 M,0,182450,182707,196,322,196,277 M,0,182707,185014,196,277 M,0,185014,185271,196,277,196,226
Sprite,Foreground,Centre,"SB\D.png",320,240 M,0,185014,185271,196,635,196,593 M,0,185271,186809,196,593 M,0,186809,187066,196,593,196,548 M,0,187066,189117,196,548 M,0,189117,189373,196,548,196,500 M,0,189373,190912,196,500 M,0,190912,191168,196,500,196,455 M,0,191168,192963,196,455 M,0,192963,193220,196,455,196,413 M,0,193220,195014,196,413 M,0,195014,195271,196,413,196,366 M,0,195271,197322,196,366 M,0,197322,197579,196,367,196,320 M,0,197579,199117,196,320 M,0,199117,199373,196,320,196,275 M,0,199373,201425,196,275 M,0,201425,201681,196,275,196,230
Sprite,Foreground,Centre,"SB\B.png",320,240 M,0,201425,201681,196,635,196,592 M,0,201681,203220,196,592 M,0,203220,203476,196,592,196,548 M,0,203476,205527,196,548 M,0,205527,205784,196,548,196,503 M,0,205784,207066,196,503 M,0,207066,207322,196,503,196,456 M,0,207322,209373,196,456 M,0,209373,209630,196,456,196,408 M,0,209630,211681,196,408 M,0,211681,211938,196,408,196,367 M,0,211938,213732,196,367 M,0,213732,213989,196,367,196,322 M,0,213989,215527,196,322 M,0,215527,215784,196,322,196,274 M,0,215784,217579,196,274 M,0,217579,218091,196,274,196,229
Sprite,Foreground,Centre,"SB\moe.png",320,240 S,0,17066,131938,0.8
Sprite,Foreground,Centre,"SB\G.png",320,240 M,0,131938,132450,320,164,320,189 F,0,131938,132450,0,1 M,0,132450,140143,320,189 M,0,140143,141168,320,189,-178,189
Sprite,Foreground,Centre,"SB\H.png",320,240 M,0,133989,134502,320,331,320,324 F,0,133989,134502,0,1 M,0,134502,140143,320,324 M,0,140143,141168,320,324,818,324
Sprite,Foreground,Centre,"SB\moe.png",320,240 S,0,143732,218091,0.8
//Storyboard Sound Samples
//Background Colour Transformations
3,100,163,162,255

[TimingPoints]
656,512.820512820513,4,2,1,70,1,0
58091,-100,4,2,1,70,0,1
74502,-100,4,2,2,70,0,0
80656,-100,4,2,1,70,0,0
99117,-100,4,2,1,70,0,1
115399,-100,4,2,1,70,0,0
115527,-100,4,2,1,70,0,1
131938,-100,4,2,1,70,0,0
140143,-100,4,2,1,40,0,0
143220,-100,4,2,1,70,0,0
168091,-100,4,2,0,90,0,0
168861,-100,4,2,1,70,0,1
185271,-200,4,2,1,70,0,0
185784,-100,4,2,1,70,0,1
201553,-100,4,2,1,70,0,0
201681,-100,4,2,1,70,0,1
218091,-100,4,2,1,70,0,0

[Colours]
Combo1 : 255,255,128
Combo2 : 128,255,128
Combo3 : 0,128,255
Combo4 : 255,128,128

[HitObjects]
464,192,17066,1,2
440,268,17322,1,0
380,324,17579,2,0,B|272:272,1,100,8|2
132,304,18091,1,0
160,228,18348,1,0
216,172,18604,2,0,B|320:220,2,100,8|0|2
336,64,19373,5,2
296,76,19502,1,0
256,84,19630,2,0,B|204:84,2,50,8|0|2
96,88,20143,2,0,B|64:176|92:288,1,200,2|8
168,256,20912,1,0
224,312,21168,5,2
296,352,21425,2,0,B|332:304,1,50,2|0
348,284,21681,2,0,B|424:184,1,100,8|2
508,216,22194,2,0,B|436:312,1,100,2|0
424,328,22579,1,0
396,356,22707,1,8
260,272,22963,1,0
356,144,23220,6,0,B|424:60,2,100,2|2|8
260,272,23989,1,0
112,208,24245,2,0,B|44:292,2,100,2|2|8
204,76,25014,1,0
132,40,25271,5,4
76,96,25527,1,0
132,40,25784,2,0,B|80:16,2,50,8|0|2
80,192,26297,2,0,B|120:160|120:160|152:120,2,100,2|0|8
28,252,27066,1,0
28,332,27322,6,2,B|72:336|72:336|80:328|80:328|124:332,1,100
300,332,27835,2,0,B|256:336|256:336|248:328|248:328|204:332,1,100,8|2
164,264,28348,1,0
128,192,28604,1,2
144,112,28861,2,0,B|228:36,1,100,8|2
368,100,29373,6,0,B|292:176,1,100,2|0
372,200,29886,2,0,B|288:276,2,100,8|2|0
440,156,30656,1,0
444,236,30912,1,8
372,200,31168,1,0
216,240,31425,6,2,B|304:164,1,100
348,120,31938,1,8
412,72,32194,1,2
340,40,32450,2,0,B|312:40|312:40|272:56|272:56|244:56,1,100,2|0
164,56,32963,2,0,B|136:56|136:56|96:40|96:40|67:40,2,100,2|0|4
220,204,33732,5,0
244,172,33861,1,0
256,132,33989,2,0,B|256:68,3,50,8|0|0|0
296,88,34502,2,0,B|332:96|332:96|352:104|352:104|424:116,1,100,2|0
460,152,35014,2,0,B|476:96|444:56,2,100,8|8|2
408,216,35784,5,2
464,272,36040,2,0,B|500:372,1,100,8|2
344,324,36553,2,0,B|232:360,1,100,2|2
308,204,37066,2,0,B|280:104,2,100,8|0|2
236,236,37835,6,0,B|208:292,1,50,2|0
172,280,38091,2,0,B|120:292|120:292|56:280,2,100,8|2|2
120,216,38861,1,2
120,176,38989,2,0,B|120:124|120:124|108:88|108:88|108:24,1,150,2|8
48,176,39630,5,2
120,216,39886,1,2
192,180,40143,2,0,B|268:104,1,100,8|2
320,52,40655,1,0
480,68,40912,1,2
392,204,41168,2,0,B|316:280,1,100,8|2
321,274,41681,1,4
464,204,41938,6,0,B|472:260,1,50,2|0
464,284,42194,2,0,B|440:332|440:332|388:344,1,100,8|2
364,344,42579,1,0
336,344,42707,2,0,B|292:340|292:340|276:356|276:356|243:352,1,100,2|0
176,352,43220,2,0,B|128:324|80:352,2,100,8|8|2
228,288,43989,5,2
308,288,44245,1,2
324,252,44373,1,0
356,228,44502,1,0
396,228,44630,1,0
428,240,44758,2,0,B|472:208|472:208|472:160,1,100,2|0
404,120,45271,1,8
468,72,45527,1,2
392,40,45784,6,0,B|340:40|340:40|296:56|296:56,1,100,2|0
216,56,46297,1,8
136,56,46553,1,2
36,180,46809,2,2,B|88:180|88:180|132:196|132:196,1,100,0|0
212,196,47322,1,8
292,196,47579,1,2
452,196,47835,6,0,B|452:244|452:244|440:252|440:252|440:288,1,100,2|2
440,328,48220,2,0,B|388:340|340:328,1,100,2|2
300,328,48604,1,2
168,236,48861,2,0,B|176:280|176:280|212:336,1,100,2|2
68,236,49373,2,0,B|68:340,2,100,8|2|4
68,76,50143,5,0
68,156,50399,1,8
140,116,50655,1,0
444,76,51168,5,0
444,156,51425,1,8
372,116,51681,1,0
216,296,52194,5,0
296,296,52450,1,8
256,228,52707,1,0
256,148,52963,2,0,B|256:100|256:100|252:92|252:92|252:48,3,100,2|2|8|2
100,76,54245,5,0
56,144,54502,1,8
56,224,54758,1,0
256,192,55271,5,0
256,272,55527,1,8
256,352,55784,1,0
456,224,56297,5,0
456,144,56553,1,8
412,76,56809,1,0
336,56,57066,2,0,B|232:56,1,100,2|2
156,56,57579,1,8
116,124,57835,1,0
196,124,58091,6,2,B|180:172|180:172|132:208,1,100,4|2
168,276,58604,2,2,B|204:308|204:308|260:308,1,100,8|2
264,228,59117,2,0,B|284:180|284:180|280:124,1,100,2|0
316,132,59502,2,0,B|356:132|356:132|392:140|392:140|440:140,1,100,8|0
456,140,59886,2,0,B|460:168|460:168|456:200,1,50,2|0
456,228,60143,6,0,B|456:288|456:288|424:348,1,100,2|0
396,324,60527,2,0,B|377:288|377:288|377:228,1,100,2|0
376,188,60912,1,2
308,232,61168,2,0,B|212:180|116:232,1,200,2|8
256,300,62194,5,2
180,328,62450,1,0
104,300,62707,1,8
28,328,62963,1,2
28,248,63220,2,0,B|28:136,1,100,2|0
28,108,63604,1,2
176,40,63861,5,2
148,68,63989,2,0,B|112:112,2,50,0|2|4
168,168,64502,1,0
200,192,64630,2,0,B|240:216|240:216|264:272,1,100,2|0
304,272,65014,1,2
364,324,65271,2,0,B|412:344|460:324,1,100,2|10
480,292,65656,1,0
480,252,65784,1,10
472,92,66040,5,2
448,60,66168,1,0
412,44,66297,2,0,B|288:44,1,100,4|2
164,108,66809,2,2,B|284:108,1,100,8|2
344,108,67322,2,0,B|388:132|388:132|416:176,1,100,2|0
432,212,67707,1,8
436,292,67963,6,0,B|484:340,2,50,0|2|0
396,292,68348,2,0,B|348:308|296:292,1,100,2|0
300,252,68732,2,0,B|244:236|176:260,1,100,2|0
204,292,69117,1,2
124,292,69373,2,0,B|56:212|64:100,1,200,2|8
388,92,70399,6,0,B|456:172|448:280,1,200,2|8
288,276,71425,2,0,B|244:216|260:132,1,150,2|2
352,160,72066,2,0,B|368:184|372:204,1,50,2|0
380,244,72322,2,0,B|380:268|376:296,1,50,0|2
316,344,72707,5,0
300,264,72963,2,0,B|180:264,1,100,8|2
160,332,73476,2,0,B|52:332,2,100,2|2|8
124,260,74245,1,0
156,188,74502,5,0
76,188,74758,2,0,B|44:136,1,50,2|0
76,116,75014,2,0,B|44:64,2,50,2|0|0
120,48,75527,2,0,B|180:48|180:48|240:64|240:64|320:64,1,200,2|8
464,248,76809,6,0,B|464:312,1,50,2|0
448,336,77066,2,0,B|396:348|348:336,1,100,8|2
308,336,77450,1,0
268,336,77579,2,0,B|260:284|260:284|268:236,1,100,2|2
372,116,78091,2,0,B|380:168|380:168|368:244,1,100,8|0
364,256,78476,1,2
256,36,78861,6,0,B|206:36,1,50,2|0
168,36,79117,2,0,B|120:52|64:76,1,100,2|0
44,96,79502,1,0
76,124,79630,2,0,B|148:144|212:192,1,150,8|0
436,124,80656,6,0,B|380:128|344:164,1,100,2|0
316,188,81040,1,2
256,248,81297,1,0
256,288,81425,2,0,B|220:324|220:324|148:344,1,100,2|2
168,256,81938,1,2
96,220,82194,2,0,B|132:184|132:184|179:170,2,100,2|0|4
72,52,82963,5,2
104,72,83091,1,0
140,92,83220,2,0,B|224:144,1,100,8|2
260,168,83604,2,0,B|316:200,1,50,0|2
320,116,83989,1,0
384,72,84245,2,0,B|436:48|480:72,2,100,8|8|2
432,136,85014,5,2
364,180,85271,1,8
408,244,85527,1,2
476,200,85784,2,0,B|488:268|488:268|456:348,1,150,2|0
416,344,86297,2,0,B|288:344,1,100,8|2
236,344,86809,1,2
236,184,87066,6,0,B|272:244,1,50,2|0
232,256,87322,2,0,B|188:288,2,50,8|0|2
164,216,87835,2,0,B|56:216,1,100,0|0
24,216,88220,1,2
96,28,88861,5,2
96,108,89117,2,0,B|96:228,2,100,2|8|2
168,72,89886,1,2
248,72,90143,2,0,B|300:88|348:72,2,100,2|8|2
292,228,91168,6,0,B|276:248|276:276,1,50,2|0
296,312,91425,2,0,B|336:344|392:336,1,100,8|2
432,332,91809,1,0
468,316,91938,2,0,B|496:272|484:220,1,100,2|2
472,180,92322,1,0
456,144,92450,2,0,B|444:88|472:48,2,100,8|8|2
384,180,93220,5,2
316,132,93476,2,0,B|264:104|220:132,2,100,8|2|2
268,200,94245,1,2
256,240,94373,1,0
244,276,94502,2,0,B|212:320|212:320|176:348,2,100,10|2|2
324,260,95271,5,2
384,312,95527,1,8
464,332,95784,1,2
464,52,96297,5,2
384,72,96553,1,8
324,124,96809,1,2
468,192,97322,6,0,B|400:192,1,50,2|0
376,192,97579,2,0,B|256:192,1,100,8|2
236,192,97963,1,0
196,192,98091,1,2
116,192,98348,1,2
36,192,98604,2,0,B|32:224|36:240,3,50,8|0|2|0
52,280,99117,6,0,B|80:328|80:328|120:348,1,100,4|2
280,344,99630,2,0,B|320:324|320:324|348:276,1,100,8|2
200,208,100143,2,0,B|200:104,1,100,2|0
200,68,100527,1,2
40,76,100784,2,0,B|0:40,2,50,0|2|0
40,116,101168,2,0,B|12:168|40:212,1,100,2|0
68,240,101553,1,8
112,164,101809,2,0,B|168:164,1,50,0|2
244,164,102194,2,0,B|304:164|304:164|364:104|364:104|424:104,1,200,2|8
492,248,103220,6,0,B|460:284|460:284|412:264,1,100,2|0
336,236,103732,2,0,B|336:288|336:288|304:344,1,100,8|2
260,268,104245,1,2
204,328,104502,1,0
176,300,104630,2,0,B|176:248|176:248|200:192,1,100,2|0
220,172,105014,1,2
248,144,105143,1,0
276,116,105271,6,0,B|312:72|312:24,1,100,2|0
272,28,105655,2,0,B|228:44|228:44|176:32,1,100,2|0
136,36,106040,1,2
56,40,106297,2,0,B|52:80|52:80|64:92|64:92|60:140,1,100,2|10
56,176,106681,1,0
52,216,106809,1,10
80,292,107066,6,0,B|112:332,1,50,2|0
152,336,107322,2,0,B|256:336,1,100,4|2
428,336,107835,2,0,B|308:336,1,100,8|2
180,256,108348,2,0,B|232:236|256:192,1,100,2|0
276,160,108732,1,2
308,232,108989,1,0
348,232,109117,2,0,B|404:232,1,50,2|0
436,232,109373,6,0,B|444:180|444:180|432:120,1,100,2|0
432,92,109758,2,0,B|384:68|336:88,1,100,2|0
296,88,110143,1,2
216,88,110399,2,0,B|112:60|16:84,1,200,2|8
220,248,111425,6,0,B|124:272|20:244,2,200,2|8|2
84,164,112835,1,2
164,168,113091,1,0
164,168,113220,2,0,B|232:168,1,50,2|0
252,168,113476,2,0,B|360:168,1,100,2|0
432,168,113989,2,0,B|444:120|444:120|432:68,1,100,8|2
384,224,114502,2,0,B|432:252|480:224,3,100,2|8|8|8
356,328,115527,6,0,B|244:328,1,100,4|2
112,256,116040,2,0,B|240:256,1,100,8|2
284,112,116553,2,0,B|284:228,1,100,2|0
284,252,116938,1,2
196,120,117194,5,0
180,156,117322,1,2
140,168,117450,1,0
104,152,117579,2,0,B|84:96|108:56,1,100,2|0
144,56,117963,2,0,B|192:40|192:40|240:56,1,100,2|0
280,56,118348,1,8
272,136,118604,2,0,B|368:160|472:140,1,200,2|8
152,108,119630,6,0,B|244:208,1,100,2|0
144,208,120143,2,0,B|228:304,1,100,8|2
268,336,120655,2,0,B|316:312|364:336,1,100,2|0
404,336,121040,1,8
332,240,121297,6,0,B|272:240,2,50,2|0|2
372,240,121681,2,0,B|420:240|420:240|456:200,1,100,2|0
456,160,122066,2,0,B|436:112|456:64,1,100,2|2
456,62,122450,1,0
392,108,122707,2,0,B|272:108,1,100,2|0
252,108,123091,1,2
104,296,123476,6,0,B|104:240,1,50,2|0
104,208,123732,2,0,B|104:156|104:156|96:160|96:160|96:120,1,100,4|0
184,252,124245,2,0,B|220:215|220:215|212:212|212:212|240:184,1,100,8|2
356,296,124758,2,0,B|244:296,1,100,2|0
256,336,125143,1,2
416,336,125399,5,0
436,300,125527,2,0,B|452:280|456:256,1,50,2|0
456,216,125784,2,0,B|456:144|456:144|444:88|444:88|416:40|384:32,1,200,2|8
364,36,126425,1,0
324,36,126553,1,0
152,36,126809,2,0,B|200:56|248:36,2,100,2|0|8
308,320,127835,6,0,B|308:116,1,200,2|8
156,72,128861,2,0,B|156:184,1,100,2|0
156,212,129245,1,2
88,252,129502,2,0,B|64:304,1,50,2|0
100,316,129758,1,0
136,332,129886,2,0,B|184:348|236:332,1,100,2|0
316,332,130399,2,0,B|364:312|416:332,1,100,8|0
256,192,130912,12,4,131938
256,192,140143,12,2,143220
116,192,143732,5,2
168,268,143989,1,0
248,296,144245,2,0,B|308:272,1,50
332,268,144502,2,0,B|380:280|380:280|432:272,1,100,2|0
468,268,144886,1,2
400,172,145271,1,2
256,192,146553,5,2
316,296,146938,1,2
196,296,147322,1,2
72,196,147835,2,0,B|60:144|72:96,2,100
136,148,148604,5,2
256,44,148989,1,2
372,152,149373,1,2
440,96,149886,6,0,B|452:144|440:196,1,100,8|0
428,232,150271,1,8
312,268,150655,5,2
428,232,151040,1,2
312,268,151425,2,0,B|260:276|208:268,1,100,2|0
212,108,151938,2,0,B|259:100|311:108,2,100,8|8|0
76,196,152707,5,2
256,196,153091,1,2
436,196,153476,1,2
124,260,153989,5,0
56,304,154245,1,0
128,336,154502,1,0
192,296,154758,5,2
256,64,155143,1,2
324,296,155527,1,2
96,72,156040,5,0
160,120,156297,1,0
200,188,156553,1,0
120,192,156809,5,2
352,264,157194,1,2
412,32,157579,1,2
416,312,158091,5,0
352,264,158348,1,0
312,196,158604,1,0
392,192,158861,5,2
160,264,159245,1,2
100,32,159630,2,0,B|64:72|60:124,1,100,2|0
200,192,160143,2,0,B|184:140|144:112,2,100,8|2|4
256,248,160912,5,0
276,172,161168,2,0,B|328:156|356:116,1,100,2|0
424,72,161681,2,0,B|448:172|424:272,1,200,2|2
376,336,162450,1,0
296,336,162707,2,0,B|268:288|276:240,1,100,2|0
316,172,163220,1,2
284,100,163476,1,0
208,80,163732,5,2
108,144,164117,1,2
176,244,164502,2,0,B|172:296|200:340,1,100,2|4
40,320,165014,5,0
112,352,165271,1,2
104,272,165527,1,0
28,240,165784,2,0,B|40:188|28:140,1,100,2|0
40,60,166297,1,2
112,96,166553,1,0
184,60,166809,1,4
264,56,167066,6,0,B|316:56|316:56|352:88|352:88|408:88,1,150,2|2
296,132,167835,1,2
296,212,168091,2,0,B|372:188,1,50,2|0
384,196,168348,2,0,B|436:212,1,50,2|0
424,252,168604,1,2
416,292,168732,1,0
404,332,168861,6,0,B|356:344|356:344|308:332,1,100,4|2
108,332,169373,2,0,B|156:344|156:344|204:332,1,100,8|2
156,272,169886,2,0,B|140:220|156:172,1,100,2|0
172,136,170271,1,2
32,176,170527,5,0
52,140,170656,1,2
76,108,170784,1,0
108,84,170912,2,0,B|152:48|200:64,1,100,2|0
240,80,171297,2,0,B|328:152,1,100,2|0
348,168,171681,1,2
432,304,171938,2,0,B|456:200|432:104,1,200,2|8
364,252,172963,5,2
316,316,173220,1,0
252,268,173476,1,8
300,204,173732,1,0
232,348,173989,2,0,B|124:348,1,100,2|0
92,348,174373,1,8
60,272,174630,5,0
100,272,174758,2,0,B|184:272,1,50,2|0
188,272,175014,2,0,B|200:220|200:220|188:172,1,100,2|0
188,136,175399,2,0,B|176:88|176:88|188:40,1,100,2|2
188,40,175784,1,0
108,36,176040,2,0,B|52:52|40:104,1,100,2|0
56,140,176425,1,2
148,220,176809,5,2
184,240,176938,1,0
228,244,177066,2,0,B|284:224|296:172,1,100,4|2
392,48,177579,2,0,B|376:100|392:152,1,100,8|2
480,192,178091,6,0,B|480:328,1,100,2|0
480,332,178476,1,8
320,336,178732,1,0
352,312,178861,1,2
368,276,178989,1,0
376,236,179117,6,0,B|376:128,1,100,2|0
376,96,179502,2,0,B|324:80|268:92,1,100,2|0
236,92,179886,1,2
284,248,180143,2,0,B|180:264|80:248,1,200,2|8
188,124,181168,6,0,B|188:340,1,200,2|8
84,208,182194,2,0,B|56:132|88:60,1,150,2|2
168,60,182835,2,0,B|228:60,1,50,0|2
256,60,183091,1,0
296,60,183220,2,0,B|344:72|344:72|392:60,1,100,2|0
260,144,183732,2,0,B|208:132|208:132|160:144,1,100,8|2
212,212,184245,5,2
252,280,184502,1,8
212,348,184758,1,8
292,348,185014,1,8
176,280,185271,6,0,B|148:296|144:316,2,50,0|0|4
112,232,186040,1,2
68,164,186297,2,0,B|60:108|88:64,1,100,2|0
112,36,186681,1,8
220,152,186938,5,0
248,180,187066,2,0,B|300:236,1,50,2|0
312,244,187322,2,0,B|360:224|388:176,1,100,2|0
412,152,187707,2,0,B|460:180|480:232,1,100,2|0
492,264,188091,1,2
488,104,188348,2,0,B|416:32|304:40,1,200,2|8
24,104,189373,6,0,B|56:60|108:52,1,100,2|0
256,108,189886,2,0,B|224:152|172:160,1,100,8|2
96,148,190399,2,0,B|64:192|67:241,1,100,2|0
72,280,190784,1,8
180,232,191040,5,0
176,272,191168,2,0,B|168:308|144:332,2,50,2|0|2
256,272,191681,1,0
288,292,191809,2,0,B|336:316|384:288,1,100,2|0
420,272,192194,1,2
332,220,192450,2,0,B|332:112,1,100,2|0
332,80,192835,1,2
436,160,193220,5,2
456,124,193348,1,0
460,84,193476,2,0,B|432:40|384:20,1,100,4|2
284,24,193989,2,0,B|236:44|208:88,1,100,8|2
212,168,194502,2,0,B|224:216|224:216|212:264,1,100,2|0
212,304,194886,1,8
52,328,195143,5,0
80,300,195271,1,2
100,264,195399,1,0
108,224,195527,2,0,B|120:172|108:120,1,100,2|0
100,84,195912,2,0,B|152:72|152:72|200:80,1,100,2|0
240,80,196297,1,2
320,80,196553,2,0,B|424:60|424:60|488:140,1,200,2|8
320,304,197579,6,0,B|424:324|424:324|482:250,1,200,2|8
244,36,198604,2,0,B|316:56|316:56|368:112,1,150,2|2
356,192,199245,1,0
316,192,199373,2,0,B|288:200|268:216,1,50,2|0
248,244,199630,2,0,B|232:300|208:336,1,100,2|2
76,244,200143,2,0,B|92:300|116:336,1,100,8|2
160,268,200655,5,2
132,192,200912,1,0
56,168,201168,1,2
52,88,201425,1,0
124,56,201681,6,0,B|168:56|168:56|184:60|184:60|232:60,1,100,4|2
400,56,202194,2,0,B|356:56|356:56|340:60|340:60|292:60,1,100,8|2
428,140,202707,2,0,B|384:140|384:140|368:144|368:144|320:144,1,100,2|0
288,144,203091,1,8
208,144,203348,5,0
172,164,203476,2,0,B|164:192|164:192|164:228,1,50,2|0
192,240,203732,2,0,B|232:264|288:260,1,100,2|0
328,260,204117,2,0,B|384:260|424:240,1,100,2|0
460,224,204502,1,2
456,304,204758,2,0,B|368:344|260:332,1,200,2|8
56,80,205784,6,0,B|96:52|156:56,1,100,2|0
184,212,206297,2,0,B|176:152|124:132,1,100,8|2
256,36,206809,2,0,B|260:92|312:112,1,100,2|0
348,128,207194,1,8
284,176,207450,1,0
312,204,207579,2,0,B|320:232|320:232|312:252,1,50,2|0
296,288,207835,6,0,B|256:320|200:312,1,100,2|0
160,312,208220,2,0,B|105:319|65:287,1,100,2|0
44,256,208604,1,2
116,224,208861,2,0,B|160:200|188:152,1,100,2|10
212,124,209245,1,0
224,84,209373,1,10
396,224,209630,5,2
364,200,209758,1,0
336,172,209886,2,0,B|296:140|288:80,1,100,4|2
128,64,210399,2,0,B|84:92|80:156,1,100,8|2
80,232,210912,2,0,B|83:288|127:316,1,100,2|0
164,336,211297,1,8
176,256,211553,5,0
212,272,211681,1,2
236,304,211809,1,0
252,340,211938,2,0,B|304:324|356:340,1,100,2|0
392,340,212322,2,0,B|436:316|436:316|444:264,1,100,2|0
448,228,212707,1,2
372,256,212963,2,0,B|384:140|452:76,1,200,2|8
60,76,213989,6,0,B|128:140|140:256,1,200,2|8
264,356,215014,2,0,B|296:280|264:208,1,150,2|2
208,148,215656,2,0,B|132:148,2,50,0|2|0
208,108,216040,2,0,B|256:84|304:108,1,100,2|0
304,276,216553,2,0,B|256:300|204:276,1,100,2|0
132,256,217066,5,2
80,192,217322,1,8
80,112,217579,1,2
128,48,217835,1,0
208,36,218091,1,4
