osu file format v9

[General]
AudioFilename: Yui Horie - Clean wind is blowing.mp3
AudioLeadIn: 0
PreviewTime: 16200
Countdown: 0
SampleSet: Soft
StackLeniency: 0.7
Mode: 0
LetterboxInBreaks: 1

[Editor]
DistanceSpacing: 0.8
BeatDivisor: 4
GridSize: 8

[Metadata]
Title:Clean wind is blowing
Artist:Horie Yui
Creator:cococanro
Version:Normal
Source:Darling
Tags:

[Difficulty]
HPDrainRate:4
CircleSize:4
OverallDifficulty:3
ApproachRate:5
SliderMultiplier:1.5
SliderTickRate:0.5

[Events]
//Background and Video events
0,0,"void(0).jpg"
//Break Periods
2,83600,93400
2,150800,162200
//Storyboard Layer 0 (Background)
//Storyboard Layer 1 (Fail)
//Storyboard Layer 2 (Pass)
//Storyboard Layer 3 (Foreground)
//Storyboard Sound Samples
//Background Colour Transformations
3,100,163,162,255

[TimingPoints]
200,400,4,1,0,100,1,0
16200,-100,4,2,0,70,0,0
41400,-100,4,2,0,5,0,0
41800,-100,4,2,0,70,0,0
56200,-100,4,2,2,70,0,1
59400,-100,4,2,2,40,0,1
59600,-100,4,2,2,70,0,1
72200,-100,4,2,2,40,0,1
72400,-100,4,2,2,70,0,1
83400,-100,4,2,0,70,0,0
95800,-100,4,2,0,5,0,0
96200,-100,4,2,0,70,0,0
108600,-100,4,2,0,5,0,0
109000,-100,4,2,0,70,0,0
123400,-100,4,2,2,70,0,1
126600,-100,4,2,2,40,0,1
126800,-100,4,2,2,70,0,1
139400,-100,4,2,2,40,0,1
139600,-100,4,2,2,70,0,1
150600,-100,4,2,0,70,0,0
163400,-133.333333333333,4,2,0,50,0,0
173000,-133.333333333333,4,2,2,60,0,0
176200,-100,4,2,2,70,0,1
179400,-100,4,2,2,40,0,1
179600,-100,4,2,2,70,0,1
190600,-133.333333333333,4,2,1,60,0,1
197800,-133.333333333333,4,2,1,60,0,0

[Colours]
Combo1 : 0,128,255
Combo2 : 255,255,26
Combo3 : 255,138,21
Combo4 : 30,251,63

[HitObjects]
160,128,16200,1,0
224,80,16600,1,0
288,32,17000,2,0,B|296:104|352:128|408:112,1,150,8|0
456,168,17800,5,0
416,240,18200,1,0
368,304,18600,1,8
232,312,19400,6,0,B|272:288|288:208|240:160,1,150
208,120,20200,2,0,B|152:56,2,75,8|0|0
144,184,21000,1,0
56,192,21400,1,0
24,272,21800,1,8
48,352,22200,1,0
128,320,22600,6,0,B|160:272|248:264|280:328,1,150
336,352,23400,2,0,B|416:216,1,150,8|0
456,144,24200,1,0
416,96,24600,1,0
376,48,25000,1,8
256,80,25800,6,0,B|296:96|304:144,2,75
184,120,26600,1,8
112,88,27000,1,0
256,192,27400,12,0,29000
184,96,29400,5,0
128,176,29800,2,0,B|184:184|208:248|176:304,1,150,8|0
168,360,30400,2,0,B|392:336,1,225
472,328,31400,1,8
376,192,32200,5,0
416,120,32600,1,0
384,48,33000,1,8
312,16,33400,2,0,B|280:56|216:64|160:32,2,150
320,96,34600,2,0,B|288:168,2,75,8|0|0
192,96,35400,5,0
120,48,35800,1,0
40,80,36200,2,0,B|80:128|64:192|32:224,1,150,8|0
37,218,36800,1,0
104,304,37400,1,0
184,336,37800,6,0,B|192:280|248:240|312:256,1,150,8|0
368,208,38600,2,0,B|424:56,1,150
344,48,39400,2,0,B|312:72|272:64,2,75,8|0|0
256,192,40000,12,0,41400
360,144,41800,6,0,B|400:160|400:208,3,75,0|8|0|0
384,256,42600,2,0,B|344:328,2,75,8|0|0
232,312,43400,6,0,B|168:264|144:184,1,150
72,208,44200,2,0,B|96:56,1,150,8|0
95,59,44800,1,0
224,128,45400,5,0
312,96,45800,2,0,B|368:88|416:120|416:192,1,150,8|0
432,264,46600,2,0,B|376:272|328:240|328:168,3,150,0|0|8|0
248,144,48200,6,0,B|88:184,1,150
40,232,49000,2,0,B|56:272|104:264,2,75,8|0|0
160,320,49800,5,0
240,296,50200,1,0
320,272,50600,1,8
400,296,51000,2,0,B|440:272|456:200|408:152,1,150
376,96,51800,5,0
328,32,52200,2,0,B|280:48|248:112|256:184|320:224,1,225,8|0
360,256,53000,5,0
208,192,53800,5,0
64,128,54600,5,0
32,256,55400,5,0
112,232,55800,1,0
96,312,56200,2,0,B|160:368|256:368,1,150,4|0
320,352,57000,1,8
304,264,57400,1,0
384,296,57800,6,0,B|440:264|432:184|392:160,1,150
328,144,58600,2,0,B|240:16,1,150,8|0
200,96,59400,2,0,B|176:64|136:56,2,75,8|8|0
128,144,60200,6,0,B|128:200|168:240|224:232,1,150,8|0
280,288,61000,2,0,B|120:352,1,150
64,376,61800,1,8
48,288,62200,1,0
32,200,62600,6,0,B|96:144|80:56,1,150
160,96,63400,1,8
232,64,63800,1,0
304,32,64200,2,0,B|440:120,1,150
480,184,65000,6,0,B|424:176|384:216|384:272,1,150,8|0
328,328,65800,1,0
264,288,66200,1,0
264,288,66400,2,0,B|280:232|264:192,2,75,0|8|0
184,248,67400,6,0,B|176:304|120:336|64:312,1,150
96,232,68200,2,0,B|104:176|160:144|216:168,1,150
264,112,69000,6,0,B|136:32,1,150,4|0
72,80,69800,1,8
48,160,70200,1,0
72,240,70600,2,0,B|120:240|160:296|144:352,1,150
216,376,71400,6,0,B|384:352,1,150,8|0
408,288,72200,2,0,B|448:280|480:312,2,75,8|8|0
360,216,73000,1,8
408,144,73400,1,0
384,64,73800,6,0,B|336:104|272:96|232:64,1,150
160,96,74600,2,0,B|128:128|120:192|152:240,1,150,8|0
200,304,75400,6,0,B|240:264|304:264|352:304,2,150,0|0|8
128,352,76600,1,0
64,288,77000,1,0
56,200,77400,1,0
80,120,77800,1,8
136,56,78200,1,0
160,136,78600,6,0,B|320:112,1,150
392,104,79400,2,0,B|408:144|448:152,2,75,8|8|0
376,200,80200,5,8
416,280,80600,1,0
368,352,81000,2,0,B|320:360|272:320|272:256,1,150
256,192,81800,12,0,83400
256,192,94600,12,0,95800
376,144,96200,6,0,B|424:160|440:240|400:288,1,150
344,328,97000,1,8
256,312,97400,1,0
256,312,97600,1,0
144,240,98200,5,0
160,176,98600,1,8
176,112,99000,1,0
224,72,99400,2,0,B|248:128|312:144|368:112,1,150
424,96,100200,1,8
408,168,100600,5,0
408,168,100800,2,0,B|424:232|352:320|256:304,1,225
184,296,101800,2,0,B|216:376,2,75,8|0|0
112,240,102600,5,0
136,160,103000,1,0
96,88,103400,1,8
24,48,103800,1,0
24,48,104000,2,0,B|8:128|48:208|112:240,1,225
216,240,105000,5,8
296,208,105400,1,0
376,176,105800,1,0
448,224,106200,1,0
448,304,106600,2,0,B|416:352|352:360|304:336,1,150,8|0
256,192,107200,12,0,108600
152,208,109000,6,0,B|224:168,3,75,0|8|0|0
272,144,109800,2,0,B|264:96|224:80,2,75,8|0|0
368,80,110600,6,0,B|440:240,1,150
456,296,111400,2,0,B|448:352|392:384|336:368,1,150,8|0
344,370,112000,1,0
224,312,112600,1,0
168,280,113000,1,8
112,248,113400,1,0
56,216,113800,5,0
72,136,114200,1,0
120,72,114600,1,8
192,48,115000,1,0
264,72,115400,6,0,B|280:128|336:152|408:128,1,150
392,56,116200,2,0,B|432:48|456:88,2,75,8|0|0
448,168,117000,2,0,B|336:272,1,150
280,320,117800,5,8
208,280,118200,1,0
192,200,118600,1,0
176,120,119000,1,0
160,40,119400,2,0,B|104:40|48:80|48:160|72:208,1,225,8|0
96,264,120200,5,0
200,288,121000,5,0
304,312,121800,5,0
392,248,122600,5,0
448,200,123000,1,0
440,128,123400,2,0,B|264:72,1,150,4|0
216,56,124200,1,8
152,104,124600,1,0
72,88,125000,6,0,B|88:128|88:192|48:232,1,150
32,304,125800,1,8
104,344,126200,1,0
160,280,126600,2,0,B|184:240|224:248,2,75,8|8|0
232,328,127400,6,0,B|392:304,1,150,8|0
432,240,128200,1,0
376,176,128600,1,0
320,112,129000,1,8
296,192,129400,1,0
272,272,129800,6,0,B|248:224|184:208|120:240,1,150
64,264,130600,2,0,B|0:104,1,150,8|0
72,72,131400,1,0
152,104,131800,1,0
224,64,132200,1,8
224,144,132600,1,0
296,184,133000,6,0,B|352:168|392:128|384:64,1,150
456,48,133800,2,0,B|480:120,2,75,8|8|0
424,176,134600,1,0
472,248,135000,1,0
408,304,135400,2,0,B|248:336,1,150
176,304,136200,6,0,B|224:264|224:192|184:144,1,150,4|0
152,96,137000,1,8
80,48,137400,1,0
32,120,137800,6,0,B|0:160|16:240|64:264,1,150
64,336,138600,1,8
136,288,139000,1,0
224,288,139400,2,0,B|264:288|288:320,2,75,8|8|0
280,216,140200,6,0,B|312:256|376:256|416:216,1,150,8|0
464,152,141000,1,0
416,80,141400,1,0
336,48,141800,1,8
272,104,142200,1,0
192,80,142600,6,0,B|120:240,1,150
184,296,143400,6,0,B|256:136,1,150,8|0
304,232,144200,6,0,B|232:392,1,150
160,376,145000,6,0,B|160:312|104:280|48:288,1,150,8|0
24,216,145800,2,0,B|8:136,2,75,0|8|0
112,168,146600,6,0,B|112:112|152:96,2,75,0|8|0
224,72,147400,1,8
296,120,147800,1,0
368,168,148200,1,8
440,216,148600,1,0
368,248,149000,6,0,B|200:312,1,150
160,248,149800,2,0,B|300:194,1,150
296,120,150600,1,4
112,128,163400,6,0,B|136:192|200:184,1,112.499996647239
256,176,164200,1,2
312,200,164600,1,0
368,224,165000,6,0,B|456:136,1,112.499996647239
488,104,165800,1,2
424,96,166200,2,0,B|360:80|360:16,2,112.499996647239
384,152,167400,5,2
320,136,167800,1,0
256,120,168200,2,0,B|280:184|224:232,1,112.499996647239
168,264,169000,6,0,B|144:200|200:152,1,112.499996647239,2|0
192,96,169800,2,0,B|80:64,1,112.499996647239
48,120,170600,1,2
48,184,171000,1,0
88,232,171400,6,0,B|144:264|128:336,3,112.499996647239,0|0|2|0
216,360,173000,1,8
280,296,173400,2,0,B|304:352|376:352,1,112.499996647239
440,304,174200,1,0
256,192,174600,12,0,175800
288,192,176200,6,0,B|120:208,1,150,4|0
136,120,177000,1,8
72,56,177400,1,0
16,128,177800,6,0,B|-8:176|8:240|56:264,2,150,0|0|8
88,72,179000,1,0
104,152,179400,2,0,B|160:208,2,75,8|8|0
184,120,180200,6,0,B|208:160|280:176|320:144,1,150,8|0
408,128,181000,2,0,B|368:280,1,150
288,288,181800,1,8
240,360,182200,1,0
160,312,182600,6,0,B|112:320|56:272|72:208,1,150
64,136,183400,2,0,B|112:128|168:176|152:240,1,150,8|0
160,312,184200,6,0,B|112:320|56:272|72:208,1,150
64,136,185000,2,0,B|112:128|168:176|152:240,1,150,8|0
232,264,185800,5,8
312,248,186200,1,8
392,232,186600,2,0,B|448:280,2,75,8|0|0
392,152,187400,1,8
360,80,187800,1,0
312,144,188200,1,8
240,112,188600,5,0
216,40,189000,2,0,B|192:80|128:104|72:72,1,150
48,152,189800,1,0
48,152,190200,1,0
112,216,190600,6,0,B|152:208|200:232|200:288,1,112.499996647239,2|0
256,328,191400,1,2
256,328,191800,1,0
313,269,192200,6,0,B|312:232|360:208|400:216,1,112.499996647239,2|0
456,160,193000,2,0,B|416:56,1,112.499996647239,2|0
336,80,193800,6,0,B|328:120|288:144|248:128,1,112.499996647239,2|2
176,104,194400,2,0,B|184:64|224:40|264:56,1,112.499996647239,2|2
256,192,195200,12,0,197800
