osu file format v9

[General]
AudioFilename: Yui Horie - Clean wind is blowing.mp3
AudioLeadIn: 0
PreviewTime: 16200
Countdown: 0
SampleSet: Soft
StackLeniency: 0.7
Mode: 0
LetterboxInBreaks: 1

[Editor]
DistanceSpacing: 0.8
BeatDivisor: 4
GridSize: 8

[Metadata]
Title:Clean wind is blowing
Artist:Horie Yui
Creator:cococanro
Version:Easy
Source:Darling
Tags:

[Difficulty]
HPDrainRate:3
CircleSize:3
OverallDifficulty:2
ApproachRate:2
SliderMultiplier:1.2
SliderTickRate:0.5

[Events]
//Background and Video events
0,0,"void(0).jpg"
//Break Periods
2,83600,93040
2,150800,161840
//Storyboard Layer 0 (Background)
//Storyboard Layer 1 (Fail)
//Storyboard Layer 2 (Pass)
//Storyboard Layer 3 (Foreground)
//Storyboard Sound Samples
//Background Colour Transformations
3,100,163,162,255

[TimingPoints]
200,400,4,1,0,100,1,0
16200,-100,4,2,0,60,0,0
56200,-100,4,2,2,60,0,1
83400,-100,4,2,0,60,0,0
96200,-100,4,2,0,60,0,0
123400,-100,4,2,2,60,0,1
150600,-100,4,2,0,60,0,0
163400,-133.333333333333,4,2,0,40,0,0
173000,-133.333333333333,4,2,2,60,0,0
176200,-100,4,2,2,60,0,1
190600,-133.333333333333,4,2,1,50,0,1
197800,-133.333333333333,4,2,1,50,0,0

[Colours]
Combo1 : 0,128,255
Combo2 : 255,255,26
Combo3 : 255,138,21
Combo4 : 30,251,63

[HitObjects]
80,136,16200,1,0
120,216,17000,2,0,B|208:192|288:280|256:368,1,240
352,336,18600,1,8
432,280,19400,5,0
432,192,20200,1,0
376,120,21000,1,0
296,72,21800,2,0,B|296:160|184:208|112:136,1,240,8|0
40,200,23400,5,0
96,280,24200,2,0,B|336:352,1,240,0|8
320,256,25800,1,0
400,192,26600,1,0
256,192,27400,12,0,29000
160,112,29800,6,0,B|184:40|312:16|368:104,2,240,0|0|8
72,160,32200,5,0
112,248,33000,1,0
208,200,33800,1,0
232,296,34600,2,0,B|312:248|408:280|440:352,1,240,8|0
480,264,36200,5,0
440,176,37000,1,0
472,88,37800,1,8
376,56,38600,2,0,B|128:96,2,240
256,192,40400,12,0,42600
96,144,43400,6,0,B|32:192|48:320|144:352,1,240
216,320,45000,6,0,B|248:256|376:256|416:336,1,240,0|8
464,256,46600,1,0
464,160,47400,1,0
416,80,48200,1,0
360,16,49000,6,0,B|320:48|320:120|352:144,2,120,8|0|0
248,120,50600,2,0,B|224:200|96:224|48:160,1,240
136,80,52200,6,0,B|192:312,1,240,8|2
280,320,53800,5,2
368,328,54600,5,2
360,240,55400,6,0,B|392:264|448:256|464:200,2,120,0|0|4
304,176,57000,1,8
224,144,57800,6,0,B|216:56|104:24|32:88,1,240,0|8
64,168,59400,1,0
40,256,60200,1,8
104,320,61000,6,0,B|352:376,2,240,0|8|0
160,248,63400,5,8
248,256,64200,1,0
304,184,65000,1,8
304,96,65800,2,0,B|336:64|400:80|416:128,2,120,0|0|8
216,64,67400,6,0,B|208:144|104:200|24:168,1,240
88,256,69000,1,4
184,256,69800,1,8
248,184,70600,6,0,B|320:152|432:208|424:304,2,240,0|8|0
288,96,73000,1,8
360,40,73800,6,0,B|480:56|480:208|480:208|480:240,2,240,0|8|0
272,56,76200,1,8
184,80,77000,1,0
96,104,77800,1,8
48,184,78600,6,0,B|88:200|104:240|80:288,2,120,0|0|8
160,200,80200,2,0,B|160:280|240:344|336:312,1,240
256,192,81800,12,0,83400
256,192,94600,12,0,96200
440,128,97000,5,0
360,88,97800,2,0,B|288:96|232:208|296:296,1,240,0|8
320,360,99400,6,0,B|80:336,2,240
384,288,101800,2,0,B|392:336|416:360|472:360,2,120,8|0|0
416,208,103400,5,0
376,128,104200,1,0
296,88,105000,2,0,B|256:160|144:168|80:104,1,240,8|0
24,176,106600,5,0
96,232,107400,1,0
104,320,108200,1,8
256,192,109000,12,0,110600
320,232,111400,6,0,B|288:160|320:48|424:48,1,240
456,128,113000,6,0,B|488:200|456:312|352:312,1,240,8|0
272,288,114600,1,0
184,256,115400,1,0
96,288,116200,1,8
8,328,117000,6,0,B|48:88,1,240
136,64,118600,2,0,B|136:128|200:160,2,120,0|0|8
232,80,120200,5,2
312,128,121000,5,2
344,216,121800,5,2
328,304,122600,6,0,B|456:344,2,120,0|0|4
264,240,124200,2,0,B|224:312|112:336|48:280,1,240,8|0
16,184,125800,2,0,B|56:112|168:88|232:144,1,240,8|0
240,48,127400,1,8
304,112,128200,2,0,B|376:96|464:152|456:256,1,240,0|8
440,344,129800,5,0
376,280,130600,1,8
296,240,131400,1,0
208,232,132200,1,8
120,264,133000,6,0,B|160:280|176:320|160:368,2,120,0|0|8
64,344,134600,2,0,B|8:288|16:168|104:144,1,240,0|8
64,64,136200,6,0,B|304:88,2,240,4|8|4
104,144,138600,1,8
192,176,139400,5,0
272,120,140200,2,0,B|328:56|448:64|488:160,1,240,8|0
440,224,141800,1,8
488,296,142600,5,0
408,344,143400,2,0,B|392:256|264:224|208:312,2,240,8|0|8
456,256,145800,6,0,B|512:152,2,120,0|0|8
384,200,147400,1,0
296,176,148200,1,8
256,192,149000,12,4,150600
200,240,163400,6,0,B|208:304|128:352|64:320,1,179.999994635582
112,240,165000,6,0,B|104:176|184:128|248:160,1,179.999994635582,0|0
280,224,166600,2,0,B|296:280|352:296,2,89.999997317791
368,208,168200,6,0,B|464:48,1,179.999994635582,0|2
384,16,169800,6,0,B|360:64|280:88|224:40,1,179.999994635582,0|2
144,40,171400,2,0,B|80:56|48:128|80:192,1,179.999994635582,2|0
256,192,173000,12,4,176200
416,200,177000,6,0,B|344:184|264:280|312:368,1,240,8|0
201,365,178600,6,0,B|248:280|168:184|96:200,1,240,8|0
40,136,180200,2,0,B|104:32,2,120,8|0|0
136,128,181800,6,0,B|208:168|312:128|328:24,1,240,8|0
408,88,183400,6,0,B|344:128|352:248|456:272,2,240,8|0|8
320,48,185800,5,0
248,104,186600,1,8
208,184,187400,1,0
296,176,188200,1,8
344,248,189000,2,0,B|336:328|232:376|144:320,1,240
184,200,190600,6,0,B|152:136|224:72|288:120,1,179.999994635582,2|2
336,176,192200,2,0,B|368:240|296:304|232:256,1,179.999994635582,0|2
152,272,193800,6,0,B|112:240|64:264,3,89.999997317791,2|2|2|2
256,192,195400,12,0,197800
