osu file format v7

[General]
AudioFilename: Yui Horie - Baby, I love you!.mp3
AudioLeadIn: 0
PreviewTime: 60467
Countdown: 0
SampleSet: Normal
StackLeniency: 0.7
Mode: 0
LetterboxInBreaks: 1

[Editor]
Bookmarks: 136035
DistanceSpacing: 1.10000002384186
BeatDivisor: 4
GridSize: 16

[Metadata]
Title:Baby, I Love You!
Artist:Horie Yui
Creator:orioncomet
Version:Hard
Source:
Tags:simplistiC

[Difficulty]
HPDrainRate:5
CircleSize:4
OverallDifficulty:7
SliderMultiplier:1.8
SliderTickRate:1

[Events]
//Background and Video events
0,0,"up7347.jpg"
//Break Periods
2,75291,78285
2,122590,136272
//Storyboard Layer 0 (Background)
//Storyboard Layer 1 (Fail)
//Storyboard Layer 2 (Pass)
//Storyboard Layer 3 (Foreground)
Sprite,Foreground,Centre,"SB\02\01.png",320,240 S,0,20515,,0.6928 M,0,20515,22334,59,109,195,110 F,0,20515,22334,0,1 M,0,22334,,195,110 M,0,22334,23244,195,110 F,0,22334,23244,1 M,0,23244,24608,195,110,-6,110 F,0,23244,24608,1,0
Sprite,Foreground,Centre,"SB\02\02.png",320,240 M,0,23699,25063,254,-19,250,127 F,0,23699,25063,0,1 S,0,24154,,0.6096001 F,0,25063,,1 M,0,25063,25973,250,127,250,128 F,0,25063,25973,1 M,0,25973,27792,250,128,250,-30 F,0,25973,27792,1,0.1392001
Sprite,Foreground,Centre,"SB\02\03.png",320,240 F,0,27224,28474,0,1 S,0,27337,,0.5328001 M,0,27337,29156,275,133 F,0,28474,29156,1 M,0,29156,30521,275,133,-101,133 F,0,29156,30521,1,0
Sprite,Foreground,Centre,"SB\02\04.png",320,240 S,0,30066,,0.4943999 F,0,30066,30976,0,1 M,0,30066,32113,261,285,254,135 F,0,30976,32113,1 M,0,32113,,254,135 F,0,32113,33705,1,0
Sprite,Foreground,Centre,"SB\02\05.png",320,240 M,0,33250,34273,538,170,245,167 F,0,33250,34273,0,1 S,0,33705,,0.5328 M,0,34273,,245,167 F,0,34273,35979,1,0
Sprite,Foreground,Centre,"SB\02\07.png",320,240 S,0,75092,,0.5391999 F,0,75092,76229,0,1 M,0,75092,77366,192,240 F,0,76229,77366,1 M,0,77366,78275,192,240,191,134 F,0,77366,78275,1,0
Sprite,Foreground,Centre,"SB\02\09.png",320,240 F,0,121482,122391,0,1 F,0,122391,123301,1 S,0,122619,,0.4687997 M,0,122619,123756,245,287 F,0,123301,124211,1,0
Sprite,Foreground,Centre,"SB\02\08.png",320,240 F,0,121595,122391,0,1 S,0,122391,,0.5391998 M,0,122391,123301,162,245 F,0,122391,123301,1 F,0,123301,124211,1,0
Sprite,Foreground,Centre,"SB\02\name1.png",320,240 M,0,123756,125461,442,244,199,244 F,0,123756,125461,0,0.9373282 S,0,124211,,0.7375998 M,0,125461,127849,199,244 F,0,125461,127849,0.9373282,1 M,0,127849,129668,199,244,-2,244 F,0,127849,129668,1,0
Sprite,Foreground,Centre,"SB\02\06.png",320,240 S,0,124211,,0.3344002 M,0,124211,125575,16,341,371,341 F,0,124211,125575,0,0.8432 F,0,125575,126939,0.8432,1 F,0,126939,127849,1,0
Sprite,Foreground,Centre,"SB\02\name2.png",320,240 S,0,129668,,0.7376 M,0,129668,131487,80,233,183,232 F,0,129668,131487,0,1 M,0,131487,133761,183,232 F,0,131487,133761,1 M,0,133761,136035,183,232,479,233 F,0,133761,136035,1,0
Sprite,Foreground,Centre,"SB\03\ploy.png",320,240 S,0,183790,,0.5008 F,0,183790,185154,0,1 M,0,183790,189247,165,376 F,0,185154,187883,1 F,0,187883,189247,1,0
//Storyboard Sound Samples
//Background Colour Transformations
3,100,0,0,0

[TimingPoints]
5962,454.80386583286,4,1,1,60,1,0
81914,-100,4,2,1,70,0,0
82141,-100,4,1,1,60,0,0
104540,-100,4,1,2,60,0,0
104768,-100,4,1,1,60,0,0
105450,-100,4,1,2,60,0,0
105677,-100,4,1,1,60,0,0
139560,-200,4,1,1,60,0,0
140242,-100,4,1,1,60,0,0
140470,-100,4,1,1,40,0,0
140811,-100,4,1,1,30,0,0
141038,-100,4,1,1,25,0,0
141266,-100,4,1,1,20,0,0
141720,-100,4,1,1,15,0,0
142175,-100,4,1,1,10,0,0
143085,-100,4,2,1,30,0,0
143994,-100,4,1,1,5,0,0
144449,-100,4,2,1,30,0,0
147633,-100,4,1,1,15,0,0
148088,-100,4,2,1,30,0,0
151840,-200,4,2,1,30,0,0
152977,-100,4,1,1,15,0,0
153204,-100,4,1,1,60,0,0
153432,-100,4,1,1,35,0,0
154000,-100,4,1,1,45,0,0
154569,-100,4,1,1,55,0,0
155365,-100,4,1,1,60,0,0
188224,-100,4,1,2,60,0,0
188452,-100,4,1,1,60,0,0
193682,-100,4,1,2,60,0,0
193909,-100,4,1,1,60,0,0

[Colours]
Combo1 : 243,243,243
Combo2 : 253,138,201
Combo3 : 114,205,250
Combo4 : 255,163,70

[HitObjects]
48,336,5961,1,4
224,336,6416,2,0,B|176:352|128:336,1,90,0|0
256,48,7099,1,0
464,336,7553,2,0,B|496:176|336:128,1,270,0|4
48,112,8690,6,0,B|144:96|240:112,2,180
96,288,10055,1,0
32,224,10282,1,0
256,336,10737,1,0
256,32,11192,2,0,B|144:32|144:80|272:80,2,180
336,80,12329,2,0,B|448:80|448:128|320:128,1,180
32,192,13238,6,0,B|32:112|152:112|144:208,2,180,0|0|0
480,192,14603,2,0,B|480:352|248:352|256:168,1,360,0|4
176,32,15967,1,0
352,32,16422,1,0
256,192,16877,2,0,B|240:224|176:224|160:176|176:128|240:128,1,180
256,352,17786,5,0
192,288,18014,1,0
256,224,18241,1,0
192,160,18469,2,0,B|160:64,1,90
256,48,18923,5,0
272,56,19037,1,0
344,104,19265,1,0
360,112,19378,1,0
360,200,19606,1,0
360,224,19719,1,0
360,248,19833,1,0
360,272,19947,1,0
360,296,20060,2,0,B|360:328,8,22.5,0|0|0|0|0|0|0|0|4
384,176,21425,5,4
304,128,21652,1,0
256,48,21880,1,0
208,128,22107,1,0
128,176,22334,2,0,B|128:320|0:320|0:160,2,270
288,32,24154,6,0,B|432:32|432:128,1,180
288,112,24836,2,0,B|48:112|48:208,1,270
288,352,25973,2,0,B|496:352,1,180
464,256,26655,2,0,B|416:256,2,45
256,48,27337,5,0
256,144,27565,1,0
256,240,27792,2,0,B|176:304|64:224,2,180
336,208,28929,2,0,B|336:112,1,90
336,118,29384,1,0
304,32,29611,6,0,B|112:32,1,180
32,32,30294,2,0,B|32:96|96:128|192:128|272:112,1,270
256,352,31431,2,0,B|160:304,1,90
96,256,31885,2,0,B|256:120|432:264,2,360
48,48,34159,5,0
144,48,34387,1,0
176,64,34500,1,0
208,48,34614,1,0
240,64,34728,1,0
272,48,34842,1,0
304,64,34955,1,0
336,48,35069,1,0
256,368,35524,1,0
256,32,35979,6,0,B|112:16|64:48,1,180,0|8
80,128,36661,1,0
80,224,36888,2,0,B|240:240|272:208,2,180,0|8|0
32,320,38025,2,0,B|112:368,1,90,0|8
192,320,38480,5,0
240,320,38594,1,0
192,240,38821,1,0
192,192,38935,2,0,B|96:192,1,90,0|8
112,96,39390,1,0
176,32,39617,6,0,B|288:16|320:112,1,180,0|8
384,48,40299,1,0
448,112,40527,1,0
256,352,40981,1,8
256,256,41209,1,0
256,32,41664,5,0
208,112,41891,1,8
304,112,42118,1,0
256,192,42346,2,0,B|256:384,1,180,0|8
256,192,43255,6,0,B|64:192,2,180,0|8|0
256,192,44620,1,8
208,112,44847,2,0,B|384:128|304:96|480:112,1,270,0|8
368,192,45871,1,0
416,192,45984,5,0
32,192,46439,2,0,B|224:192,1,180,0|0
480,192,47121,2,0,B|256:192,1,180,0|0
256,192,47803,5,0
48,192,48258,1,2
256,192,48713,1,2
480,192,49168,6,0,B|480:0,2,180,2|4|8
256,352,50532,2,0,B|64:352,1,180,0|4
80,160,51328,1,0
128,160,51442,1,8
368,160,51669,6,0,B|272:160,2,90,0|0|0
320,240,52351,2,0,B|192:240|208:128,1,180,0|4
208,96,53261,5,8
480,192,53716,1,0
256,352,54171,1,0
256,48,54626,1,4
64,160,54967,1,0
32,192,55080,1,8
160,192,55308,5,0
256,192,55535,2,0,B|256:384,1,180
336,320,56217,1,0
432,320,56445,1,4
432,64,56900,5,0
336,32,57127,1,0
240,64,57354,1,8
240,336,57809,1,0
128,272,58037,1,0
96,144,58264,1,8
336,48,58719,5,0
432,48,58946,2,0,B|352:128,1,90,0|8
368,160,59287,1,0
368,208,59401,1,0
464,208,59628,2,0,B|464:304|384:304|336:288,1,180,0|8
256,288,60311,2,0,B|256:320,4,22.5,0|0|0|0|4
256,32,60993,5,8
256,128,61220,1,0
32,240,61675,1,0
128,240,61902,2,0,B|240:240|240:352,2,180,8|0|8
384,32,63267,6,0,B|320:32|320:80,1,90,0|0
320,208,63722,2,0,B|256:208|256:144,1,90,8|0
176,48,64176,2,0,B|128:64|80:48,1,90,0|0
48,176,64631,1,8
176,176,64859,2,0,B|256:272|160:352,1,180
256,48,65768,5,0
304,128,65996,2,0,B|400:176,1,90,0|0
384,272,66450,1,8
288,240,66678,1,0
192,208,66905,2,0,B|80:208|80:96,1,180,0|8
192,272,67815,6,0,B|80:272|80:384,1,180,4|8
176,384,68497,1,0
480,272,68952,1,0
384,272,69179,1,8
288,272,69407,2,0,B|112:272|112:320|320:320,1,270,0|8
288,48,70544,6,0,B|240:80|160:32|96:48,1,180,0|8
32,96,71226,1,0
112,144,71453,1,0
256,352,71908,1,8
400,144,72363,5,0
480,192,72590,1,0
400,240,72818,1,8
320,288,73045,2,0,B|192:288|192:176,1,180
96,64,73727,5,8
240,64,73955,1,0
240,64,74182,2,0,B|320:128,1,90
304,256,74637,2,0,B|224:304|128:256,1,180,8|4
256,192,79185,12,0,81914
32,192,82369,5,2
480,192,82823,1,0
256,192,83278,5,8
304,112,83506,1,0
208,112,83733,2,0,B|16:112,2,180,0|0|8
160,192,84870,2,0,B|416:192,1,225
385,192,85552,1,0
288,288,85893,1,0
240,288,86007,1,0
240,288,86234,2,0,B|176:288|176:352,1,90,0|8
256,32,86917,6,0,B|192:32|192:96,2,90,0|0|8
256,128,87599,1,0
352,128,87826,1,0
32,192,88281,2,0,B|96:192|96:304|176:288,2,180,8|0|8
144,48,89532,1,0
192,48,89645,2,0,B|256:48|256:112,1,90
255,98,90100,1,8
480,240,90555,6,0,B|400:288|304:240,1,180,0|8
256,320,91237,1,0
256,320,91465,1,4
256,32,91919,2,0,B|160:32,1,90,8|0
480,144,92602,2,0,B|480:240,1,90,0|8
160,192,93170,5,0
160,192,93284,2,0,B|240:192|224:96|320:80,1,180,0|8
288,352,94193,1,0
192,352,94421,1,0
256,96,94876,2,0,B|112:96|112:224|272:224,1,270
352,224,95785,5,0
256,224,96013,1,2
352,224,96240,1,0
448,224,96467,2,0,B|448:128|368:128,1,135,2|0
336,128,96922,1,4
128,48,97263,5,0
176,48,97377,1,8
224,128,97604,1,0
128,128,97832,2,0,B|16:128|16:256,1,180,0|8
256,336,98741,5,4
256,240,98969,1,0
176,288,99196,2,0,B|136:192|176:112,1,180,8|0
256,64,99878,1,0
336,112,100106,1,8
256,288,100447,5,0
256,336,100561,2,0,B|128:336|128:224,1,180,4|8
256,48,101470,1,0
448,232,101925,1,8
176,48,102380,6,0,B|336:48|336:144,1,180,0|8
256,176,103062,1,0
160,176,103290,1,0
208,256,103517,1,0
112,256,103744,2,0,B|112:304,2,45,8|0|0
208,256,104199,6,0,B|224:176|304:176|384:208|416:112,1,270
352,48,105109,2,0,B|256:0|208:128|32:64,1,315
47,69,106018,1,2
48,176,106246,1,0
144,208,106473,1,2
464,64,106928,5,2
352,128,107155,1,0
352,256,107383,1,2
224,256,107610,2,0,B|224:288,4,22.5,0|0|0|0|4
48,48,108292,5,8
128,96,108520,1,0
464,336,108975,1,0
384,288,109202,1,8
384,192,109429,2,0,B|320:192|304:112|368:64|424:72|464:120|448:160|424:184,1,270,0|8
160,320,110566,6,0,B|64:320,2,90,0|0|8
160,176,111362,1,0
160,224,111476,2,0,B|64:224,1,90
240,224,111931,6,0,B|240:112|352:112,2,180,8|0|8
240,320,113068,2,0,B|128:320,1,90
192,240,113523,2,0,B|288:240,1,90,0|8
240,160,113977,2,0,B|144:160|144:160|128:224|48:224|16:144|96:96,1,270,0|8
256,32,115001,5,0
256,80,115114,2,0,B|256:288,1,180,4|8
336,320,115797,2,0,B|336:208,1,90
416,256,116251,1,0
416,256,116479,2,0,B|416:88|480:88|480:264,1,270,8|0
448,336,117388,1,8
160,336,117843,5,0
96,272,118071,1,0
160,208,118298,2,0,B|64:32,1,180,8|0
256,208,119208,1,8
464,48,119662,5,0
464,160,119890,1,0
352,160,120117,1,8
352,272,120345,2,0,B|224:384|96:256,1,270,0|8
112,144,121254,5,0
192,96,121482,1,0
192,144,121595,2,0,B|240:144,2,45
192,192,121936,2,0,B|192:288|320:288,1,180,0|4
256,48,137172,5,4
160,48,137400,2,0,B|32:48|32:144,1,180
64,224,138082,1,0
144,176,138309,1,0
224,224,138537,1,0
144,272,138764,5,0
128,304,138878,1,0
144,336,138992,1,0
176,352,139105,1,0
208,352,139219,1,0
240,352,139333,1,0
272,352,139446,1,0
304,352,139560,1,0
336,352,139674,2,0,B|432:352,1,90,0|4
256,272,140583,5,2
176,192,141038,1,2
256,112,141493,1,2
336,192,141948,1,2
112,192,142403,6,0,B|160:200|208:192,1,90
256,48,142857,1,0
416,192,143312,1,0
256,336,143767,2,0,B|256:192,1,135
256,201,144222,1,0
480,144,144677,6,0,B|480:32|368:32,1,180
144,352,145586,2,0,B|32:352|32:240,1,180
480,256,146496,2,0,B|480:368|352:368,2,180
256,192,147747,5,0
256,240,147860,1,0
256,64,148315,2,0,B|96:160,1,180
256,64,149225,2,0,B|320:240,1,180
256,64,150134,2,0,B|448:64,1,180
144,256,151044,5,0
272,256,151385,1,0
224,256,151499,1,0
224,80,151954,2,0,B|208:128|256:160|320:144|336:80|288:64,1,180
448,176,153318,5,4
448,272,153545,1,0
432,272,153659,1,0
352,272,153886,1,0
336,272,154000,1,0
256,272,154228,1,0
240,272,154341,1,0
224,272,154455,1,0
208,272,154569,1,0
192,272,154682,2,0,B|192:304,8,22.5,0|0|0|0|0|0|0|0|4
48,192,155592,5,8
96,112,155819,2,0,B|96:32|216:32|208:128,1,180
208,208,156502,2,0,B|208:288|88:288|96:192,2,180,8|0|8
320,48,157866,6,0,B|277:53|224:80,1,90
320,208,158321,2,0,B|274:198|224:160,1,90,8|0
80,208,158776,2,0,B|128:208|176:160,1,90
240,304,159230,1,8
240,304,159458,2,0,B|144:352|48:288,1,180
256,40,160367,5,0
256,128,160595,2,0,B|176:80,1,90,0|0
112,144,161050,1,8
112,144,161277,1,0
176,208,161504,2,0,B|176:272|176:272|112:272|112:336|176:336,1,180,0|8
480,208,162414,6,0,B|496:320|384:336,1,180,4|8
304,336,163096,1,0
304,80,163551,1,0
304,176,163778,1,8
240,240,164006,2,0,B|64:272|16:128,1,270,0|8
256,32,165143,6,0,B|160:32,2,90,0|0|8
256,128,165825,1,0
256,32,166052,1,0
256,368,166507,1,8
256,32,166962,5,0
160,32,167189,1,0
256,32,167417,1,8
352,32,167644,6,0,B|400:-32|464:0|480:48|464:112|432:96|352:144,1,270,0|8
352,144,168440,1,0
336,160,168554,1,0
320,176,168668,1,0
304,192,168781,1,10
288,208,168895,1,0
272,224,169009,1,8
208,272,169236,1,10
192,288,169350,2,0,B|192:320,6,22.5,0|0|0|0|0|0|4
128,32,170146,6,0,B|16:32,2,90,8|0|0
224,32,170828,1,0
176,112,171055,2,0,B|80:112|80:192|192:192,1,180,8|0
480,192,171965,1,8
256,336,172420,6,0,B|464:336,1,180,0|8
432,240,173102,2,0,B|336:240,1,90
32,240,173784,1,8
32,240,174012,1,0
272,240,174466,5,0
272,240,174694,2,0,B|160:240|96:176,1,180,8|0
128,96,175376,1,0
224,96,175603,1,8
288,160,175831,1,0
224,224,176058,2,0,B|224:312|128:312|128:216,1,180,0|8
160,32,176740,5,0
256,32,176968,2,0,B|256:48|256:48|272:80|272:80|240:64|240:64|272:96|272:96|240:96|240:96|256:112|256:112|256:128,1,180,4|8
280,192,177650,2,0,B|328:128|392:192|392:240|360:288|296:320|264:336,1,270,0|8
232,192,178560,2,0,B|184:128|120:192|120:240|152:288|216:320|248:336,1,270,0|8
480,368,179697,6,0,B|384:368,1,90
384,272,180151,1,8
480,272,180379,1,0
480,176,180606,2,0,B|384:176,1,90
464,128,181061,2,0,B|368:128,1,90,8|0
320,48,181516,5,0
272,128,181743,2,0,B|272:240,1,90,0|8
176,224,182198,2,0,B|208:288|176:336|112:336|48:304|64:224|128:208,1,270,0|8
176,144,183108,2,0,B|176:88|112:88,2,90
272,144,183790,2,0,B|272:112,7,22.5
272,144,184245,6,0,B|368:144|368:272,2,180,4|8|0
272,144,185382,1,0
176,144,185609,1,8
224,224,185836,1,0
224,320,186064,2,0,B|128:320|128:192,1,180,0|8
224,192,186746,2,0,B|320:192|320:304|480:304,1,270,0|8
464,128,187883,6,0,B|304:128|304:32|480:32,2,270,0|0|8
256,320,189702,2,0,B|176:368|80:320,1,180,0|8
96,240,190384,1,0
144,240,190498,1,0
192,240,190612,2,0,B|288:240|288:160|176:160,1,180,0|8
144,80,191294,5,0
240,80,191521,2,0,B|352:80|352:192,2,180,0|8|0
192,160,192658,1,0
96,160,192886,1,8
192,160,193113,1,0
288,160,193341,2,0,B|272:80|336:48|416:64|432:128|432:176|384:240|304:240,1,360,0|4
32,352,194705,6,0,B|240:352,1,180,8|0
208,256,195387,1,0
288,304,195615,1,8
368,352,195842,2,0,B|368:64,1,270,0|8
32,192,196979,6,0,B|240:192,1,180,0|8
208,288,197661,2,0,B|208:352,2,45
416,96,198344,5,8
304,32,198571,1,0
176,32,198798,1,4
240,288,199253,6,0,B|128:288|128:176,1,180,8|0
224,176,199935,1,0
320,176,200163,1,8
464,288,200618,6,0,B|464:32|288:32|160:32,1,450
176,128,201982,2,0,B|288:128,1,90,0|0
320,256,202437,5,2
128,256,202664,1,4
