osu file format v9

[General]
AudioFilename: Horie Yui & Yuzuki Ryoka - Emerald Radiation.mp3
AudioLeadIn: 0
PreviewTime: 24373
Countdown: 0
SampleSet: Normal
StackLeniency: 0.6
Mode: 0
LetterboxInBreaks: 0

[Editor]
DistanceSpacing: 1.1
BeatDivisor: 4
GridSize: 4

[Metadata]
Title:Emerald Radiation
Artist:Horie Yui & Yuzuki Ryoka
Creator:quintitem
Version:Violet
Source:Kaitou Tenshi Twin Angel 3
Tags:Pachislo ave;new feat. Tesla & Nine

[Difficulty]
HPDrainRate:7
CircleSize:5
OverallDifficulty:6
ApproachRate:8
SliderMultiplier:1.5
SliderTickRate:2

[Events]
//Background and Video events
0,0,"Nine_and_Tesla_2.jpg"
//Break Periods
2,122399,131883
2,202399,208405
//Storyboard Layer 0 (Background)
//Storyboard Layer 1 (Fail)
//Storyboard Layer 2 (Pass)
//Storyboard Layer 3 (Foreground)
Sprite,Foreground,CentreLeft,"StoryBoard\title.png",320,240 M,0,3938,4807,91,385,91,375 F,0,3938,4807,0,1 M,0,8286,9155,91,375,91,385 F,0,8286,9155,1,0
Sprite,Foreground,CentreLeft,"StoryBoard\aa.png",320,240 M,0,10894,,91,415 F,0,10894,11112,0,1 F,0,17199,17416,1,0
Sprite,Foreground,CentreLeft,"StoryBoard\ab.png",320,240 M,0,15677,,305,415 F,0,15677,15894,0,1 F,0,17199,17416,1,0
Sprite,Foreground,CentreLeft,"StoryBoard\ac.png",320,240 M,0,17851,,91,415 F,0,17851,18068,0,1 F,0,24155,24373,1,0
Sprite,Foreground,CentreLeft,"StoryBoard\ad.png",320,240 M,0,21329,,257,414 F,0,21329,21546,0,1 F,0,24155,24373,1,0
Sprite,Foreground,CentreLeft,"StoryBoard\ba.png",320,240 M,0,24590,,91,415 F,0,24590,24807,0,1 F,0,30677,30894,1,0
Sprite,Foreground,CentreLeft,"StoryBoard\bb.png",320,240 M,0,28068,,357,414 F,0,28068,28286,0,1 F,0,30677,30894,1,0
Sprite,Foreground,CentreLeft,"StoryBoard\bc.png",320,240 M,0,31112,,91,415 F,0,31112,31329,0,1 F,0,38068,38286,1,0
Sprite,Foreground,CentreLeft,"StoryBoard\bd.png",320,240 M,0,31764,,137,415 F,0,31764,31981,0,1 F,0,38068,38286,1,0
Sprite,Foreground,CentreLeft,"StoryBoard\be.png",320,240 M,0,35242,,441,415 F,0,35242,35459,0,1 F,0,38068,38286,1,0
Sprite,Foreground,CentreLeft,"StoryBoard\bf.png",320,240 M,0,38503,,91,415 F,0,38503,38720,0,1 F,0,45025,45242,1,0
Sprite,Foreground,CentreLeft,"StoryBoard\bg.png",320,240 M,0,41981,,335,415 F,0,41981,42199,0,1 F,0,45025,45242,1,0
Sprite,Foreground,CentreLeft,"StoryBoard\bh.png",320,240 M,0,45677,,91,415 F,0,45677,45894,0,1 F,0,55025,55242,1,0
Sprite,Foreground,CentreLeft,"StoryBoard\bi.png",320,240 M,0,48938,,301,415 F,0,48938,49155,0,1 F,0,55025,55242,1,0
Sprite,Foreground,CentreLeft,"StoryBoard\bj.png",320,240 M,0,54155,,485,415 F,0,54155,54373,0,1 F,0,55025,55242,1,0
Sprite,Foreground,CentreLeft,"StoryBoard\ca.png",320,240 M,0,56112,,91,415 F,0,56112,56329,0,1 F,0,61546,61764,1,0
Sprite,Foreground,CentreLeft,"StoryBoard\cb.png",320,240 M,0,58068,,213,415 F,0,58068,58286,0,1 F,0,61546,61764,1,0
Sprite,Foreground,CentreLeft,"StoryBoard\cc.png",320,240 M,0,63068,,91,415 F,0,63068,63286,0,1 F,0,68503,68720,1,0
Sprite,Foreground,CentreLeft,"StoryBoard\cd.png",320,240 M,0,66546,,371,415 F,0,66546,66764,0,1 F,0,68503,68720,1,0
Sprite,Foreground,CentreLeft,"StoryBoard\ce.png",320,240 M,0,69155,,91,415 F,0,69155,69373,0,1 F,0,75242,75459,1,0
Sprite,Foreground,CentreLeft,"StoryBoard\ce.png",320,240 M,0,70894,,178,415 F,0,70894,71112,0,1 F,0,75242,75459,1,0
Sprite,Foreground,CentreLeft,"StoryBoard\cg.png",320,240 M,0,72633,,265,415 F,0,72633,72851,0,1 F,0,75242,75459,1,0
Sprite,Foreground,CentreLeft,"StoryBoard\ch.png",320,240 M,0,75894,,91,415 F,0,75894,76112,0,1 F,0,83286,83503,1,0
Sprite,Foreground,CentreLeft,"StoryBoard\ci.png",320,240 M,0,77851,,204,415 F,0,77851,78068,0,1 F,0,83286,83503,1,0
Sprite,Foreground,CentreLeft,"StoryBoard\cj.png",320,240 M,0,79590,,317,415 F,0,79590,79807,0,1 F,0,83286,83503,1,0
Sprite,Foreground,CentreLeft,"StoryBoard\ck.png",320,240 M,0,83938,,91,415 F,0,83938,84155,0,1 F,0,88503,88720,1,0
Sprite,Foreground,CentreLeft,"StoryBoard\da.png",320,240 M,0,90677,,91,415 F,0,90677,90894,0,1 F,0,96764,96981,1,0
Sprite,Foreground,CentreLeft,"StoryBoard\db.png",320,240 M,0,94155,,308,415 F,0,94155,94373,0,1 F,0,96764,96981,1,0
Sprite,Foreground,CentreLeft,"StoryBoard\bc.png",320,240 M,0,97199,,91,415 F,0,97199,97416,0,1 F,0,104155,104373,1,0
Sprite,Foreground,CentreLeft,"StoryBoard\dd.png",320,240 M,0,97851,,137,415 F,0,97851,98068,0,1 F,0,104155,104373,1,0
Sprite,Foreground,CentreLeft,"StoryBoard\de.png",320,240 M,0,101329,,440,415 F,0,101329,101546,0,1 F,0,104155,104373,1,0
Sprite,Foreground,CentreLeft,"StoryBoard\df.png",320,240 M,0,104590,,91,415 F,0,104590,104807,0,1 F,0,111112,111329,1,0
Sprite,Foreground,CentreLeft,"StoryBoard\dg.png",320,240 M,0,108068,,355,415 F,0,108068,108286,0,1 F,0,111112,111329,1,0
Sprite,Foreground,CentreLeft,"StoryBoard\dh.png",320,240 M,0,111764,,91,415 F,0,111764,111981,0,1 F,0,121112,121329,1,0
Sprite,Foreground,CentreLeft,"StoryBoard\di.png",320,240 M,0,115242,,299,415 F,0,115242,115459,0,1 F,0,121112,121329,1,0
Sprite,Foreground,CentreLeft,"StoryBoard\dj.png",320,240 M,0,120242,,511,415 F,0,120242,120459,0,1 F,0,121112,121329,1,0
Sprite,Foreground,CentreLeft,"StoryBoard\ea.png",320,240 M,0,122199,,91,415 F,0,122199,122416,0,1 F,0,128503,128720,1,0
Sprite,Foreground,CentreLeft,"StoryBoard\eb.png",320,240 M,0,124155,,248,415 F,0,124155,124373,0,1 F,0,128503,128720,1,0
Sprite,Foreground,CentreLeft,"StoryBoard\ec.png",320,240 M,0,129155,,91,415 F,0,129155,129373,0,1 F,0,134590,134807,1,0
Sprite,Foreground,CentreLeft,"StoryBoard\ed.png",320,240 M,0,133068,,394,414 F,0,133068,133286,0,1 F,0,134590,134807,1,0
Sprite,Foreground,CentreLeft,"StoryBoard\ee.png",320,240 M,0,135242,,91,415 F,0,135242,135459,0,1 F,0,141329,141546,1,0
Sprite,Foreground,CentreLeft,"StoryBoard\ce.png",320,240 M,0,136981,,178,415 F,0,136981,137199,0,1 F,0,141329,141546,1,0
Sprite,Foreground,CentreLeft,"StoryBoard\eg.png",320,240 M,0,138720,,265,415 F,0,138720,138938,0,1 F,0,141329,141546,1,0
Sprite,Foreground,CentreLeft,"StoryBoard\eh.png",320,240 M,0,141981,,91,415 F,0,141981,142199,0,1 F,0,149373,149590,1,0
Sprite,Foreground,CentreLeft,"StoryBoard\ei.png",320,240 M,0,143938,,230,416 F,0,143938,144155,0,1 F,0,149373,149590,1,0
Sprite,Foreground,CentreLeft,"StoryBoard\ej.png",320,240 M,0,145677,,320,415 F,0,145677,145894,0,1 F,0,149373,149590,1,0
Sprite,Foreground,CentreLeft,"StoryBoard\ck.png",320,240 M,0,150025,,91,415 F,0,150025,150242,0,1 F,0,154590,154807,1,0
Sprite,Foreground,CentreLeft,"StoryBoard\ba.png",320,240 M,0,156764,,91,415 F,0,156764,156981,0,1 F,0,162851,163068,1,0
Sprite,Foreground,CentreLeft,"StoryBoard\bb.png",320,240 M,0,160242,,357,414 F,0,160242,160460,0,1 F,0,162851,163068,1,0
Sprite,Foreground,CentreLeft,"StoryBoard\bc.png",320,240 M,0,163286,,91,415 F,0,163286,163503,0,1 F,0,170242,170460,1,0
Sprite,Foreground,CentreLeft,"StoryBoard\bd.png",320,240 M,0,163938,,137,415 F,0,163938,164155,0,1 F,0,170242,170460,1,0
Sprite,Foreground,CentreLeft,"StoryBoard\be.png",320,240 M,0,167416,,441,415 F,0,167416,167633,0,1 F,0,170242,170460,1,0
Sprite,Foreground,CentreLeft,"StoryBoard\bf.png",320,240 M,0,170677,,91,415 F,0,170677,170894,0,1 F,0,177199,177416,1,0
Sprite,Foreground,CentreLeft,"StoryBoard\bg.png",320,240 M,0,174155,,335,415 F,0,174155,174373,0,1 F,0,177199,177416,1,0
Sprite,Foreground,CentreLeft,"StoryBoard\bh.png",320,240 M,0,177851,,91,415 F,0,177851,178068,0,1 F,0,187199,187416,1,0
Sprite,Foreground,CentreLeft,"StoryBoard\bi.png",320,240 M,0,181112,,301,415 F,0,181112,181329,0,1 F,0,187199,187416,1,0
Sprite,Foreground,CentreLeft,"StoryBoard\bj.png",320,240 M,0,186329,,485,415 F,0,186329,186547,0,1 F,0,187199,187416,1,0
Sprite,Foreground,CentreLeft,"StoryBoard\ga.png",320,240 M,0,188068,,91,415 F,0,188068,188286,0,1 F,0,194590,194807,1,0
Sprite,Foreground,CentreLeft,"StoryBoard\gb.png",320,240 M,0,191764,,330,415 F,0,191764,191981,0,1 F,0,194590,194807,1,0
Sprite,Foreground,CentreLeft,"StoryBoard\gc.png",320,240 M,0,195242,,91,415 F,0,195242,195459,0,1 F,0,201546,201764,1,0
Sprite,Foreground,CentreLeft,"StoryBoard\gd.png",320,240 M,0,198503,,253,415 F,0,198503,198720,0,1 F,0,201546,201764,1,0
Sprite,Foreground,CentreLeft,"StoryBoard\aa.png",320,240 M,0,209155,,91,415 F,0,209155,209373,0,1 F,0,215460,215677,1,0
Sprite,Foreground,CentreLeft,"StoryBoard\ab.png",320,240 M,0,213938,,305,415 F,0,213938,214155,0,1 F,0,215460,215677,1,0
Sprite,Foreground,CentreLeft,"StoryBoard\ac.png",320,240 M,0,216112,,91,415 F,0,216112,216329,0,1 F,0,222416,222634,1,0
Sprite,Foreground,CentreLeft,"StoryBoard\ad.png",320,240 M,0,219590,,257,414 F,0,219590,219807,0,1 F,0,222416,222634,1,0
Sprite,Foreground,CentreLeft,"StoryBoard\da.png",320,240 M,0,222851,,91,415 F,0,222851,223068,0,1 F,0,228938,229155,1,0
Sprite,Foreground,CentreLeft,"StoryBoard\db.png",320,240 M,0,226329,,308,415 F,0,226329,226547,0,1 F,0,228938,229155,1,0
Sprite,Foreground,CentreLeft,"StoryBoard\bc.png",320,240 M,0,229373,,91,415 F,0,229373,229590,0,1 F,0,236329,236547,1,0
Sprite,Foreground,CentreLeft,"StoryBoard\dd.png",320,240 M,0,230025,,137,415 F,0,230025,230242,0,1 F,0,236329,236547,1,0
Sprite,Foreground,CentreLeft,"StoryBoard\de.png",320,240 M,0,233503,,440,415 F,0,233503,233720,0,1 F,0,236329,236547,1,0
Sprite,Foreground,CentreLeft,"StoryBoard\df.png",320,240 M,0,236764,,91,415 F,0,236764,236981,0,1 F,0,243286,243503,1,0
Sprite,Foreground,CentreLeft,"StoryBoard\dg.png",320,240 M,0,240242,,355,415 F,0,240242,240460,0,1 F,0,243286,243503,1,0
Sprite,Foreground,CentreLeft,"StoryBoard\dh.png",320,240 M,0,243938,,91,415 F,0,243938,244155,0,1 F,0,253286,253503,1,0
Sprite,Foreground,CentreLeft,"StoryBoard\di.png",320,240 M,0,247416,,299,415 F,0,247416,247633,0,1 F,0,253286,253503,1,0
Sprite,Foreground,CentreLeft,"StoryBoard\dj.png",320,240 M,0,252416,,511,415 F,0,252416,252633,0,1 F,0,253286,253503,1,0
Sprite,Foreground,CentreLeft,"StoryBoard\ga.png",320,240 M,0,254155,,91,415 F,0,254155,254373,0,1 F,0,260677,260894,1,0
Sprite,Foreground,CentreLeft,"StoryBoard\gb.png",320,240 M,0,257851,,330,415 F,0,257851,258068,0,1 F,0,260677,260894,1,0
Sprite,Foreground,CentreLeft,"StoryBoard\gc.png",320,240 M,0,261329,,91,415 F,0,261329,261546,0,1 F,0,267633,267851,1,0
Sprite,Foreground,CentreLeft,"StoryBoard\gd.png",320,240 M,0,264590,,253,415 F,0,264590,264807,0,1 F,0,267633,267851,1,0
Sprite,Foreground,CentreLeft,"StoryBoard\ja.png",320,240 M,0,268286,,91,415 F,0,268286,268503,0,1 F,0,271546,271764,1,0
//Storyboard Sound Samples
//Background Colour Transformations
3,100,163,162,255

[TimingPoints]
460,434.782608695652,4,1,1,80,1,0
10459,-133.333333333333,4,1,1,5,0,0
10677,-133.333333333333,4,1,1,55,0,0
17851,-133.333333333333,4,1,1,45,0,0
17959,-133.333333333333,4,1,1,55,0,0
23177,-100,4,1,1,60,0,0
24807,-100,4,1,1,60,0,1
24916,-100,4,1,1,70,0,0
55459,-100,4,1,1,55,0,0
70025,-100,4,1,1,60,0,0
87633,-100,4,1,1,80,0,0
88720,-100,4,1,1,60,0,0
90894,-100,4,1,1,60,0,1
91003,-100,4,1,1,70,0,0
121546,-100,4,1,1,55,0,0
130894,-100,4,1,1,70,0,0
134807,-100,4,1,1,55,0,0
136112,-100,4,1,1,60,0,0
153720,-100,4,1,1,80,0,0
154807,-100,4,1,1,60,0,0
156981,-100,4,1,1,60,0,1
157090,-100,4,1,1,70,0,0
186438,-100,4,1,1,80,0,0
187633,-100,4,1,1,60,0,0
195242,-100,4,1,1,65,0,0
200677,-100,4,1,1,80,0,0
202199,-100,4,1,1,65,0,0
208720,-133.333333333333,4,1,1,55,0,0
216003,-133.333333333333,4,1,1,45,0,0
216220,-133.333333333333,4,1,1,60,0,0
221438,-100,4,1,1,65,0,0
223503,-100,4,1,1,60,0,1
223612,-100,4,1,1,70,0,0
252525,-100,4,1,1,80,0,0
253720,-100,4,1,1,60,0,0
261329,-100,4,1,1,65,0,0
273503,-100,4,1,1,5,0,0

[Colours]
Combo1 : 222,199,63
Combo2 : 52,194,137
Combo3 : 158,113,179
Combo4 : 114,114,114

[HitObjects]
256,192,9155,12,0,10459
112,128,10894,6,0,B|112:40,2,84.3749974854291,6|2|2
64,180,11764,2,0,B|64:308,1,112.499996647239,0|2
208,268,12633,6,0,B|208:356,2,84.3749974854291,2|2|2
256,216,13503,2,0,B|256:88,1,112.499996647239,0|2
392,156,14373,6,0,B|391:109|445:99,2,84.3749974854291,2|2|2
392,228,15242,1,2
392,228,15677,1,2
392,228,16112,6,0,B|391:274|445:284,2,84.3749974854291,2|2|2
392,156,16981,1,2
256,100,17416,6,0,B|256:32,2,56.2499983236194,0|0|6
152,128,18177,1,2
96,220,18503,1,2
96,220,18720,6,0,B|25:209|25:126,2,112.499996647239,0|10|2
204,248,19916,1,2
276,328,20242,1,2
276,328,20459,6,0,B|408:328,2,112.499996647239,0|10|2
304,260,21546,2,0,B|368:260,2,56.2499983236194,0|10|0
276,192,22199,1,2
304,124,22416,2,0,B|364:124,2,56.2499983236194,0|10|0
276,56,23068,5,2
276,56,23286,2,0,B|276:12,2,37.5,0|0|8
216,96,23720,2,0,B|216:136,2,37.5
156,56,24155,1,0
96,96,24373,1,8
96,96,24481,1,0
96,96,24590,1,0
96,96,24699,1,0
96,96,24807,6,0,B|96:252,1,150,4|8
64,312,25459,2,0,B|100:344|144:304,1,75
172,248,25894,2,0,B|208:216|252:256,1,75,0|8
276,312,26329,2,0,B|312:344|356:304,1,75,2|0
380,248,26764,1,2
380,248,26981,2,0,B|380:88,1,150,10|0
444,60,27633,1,2
380,20,27851,1,8
316,60,28068,6,0,B|316:100,2,37.5,2|0|2
168,40,28720,1,8
168,40,28938,2,0,B|76:60,1,75
136,120,29373,2,0,B|76:180,1,75,0|8
144,216,29807,2,0,B|128:296,1,75,2|0
56,292,30242,1,2
56,292,30459,2,0,B|204:292,1,150,10|0
256,352,31112,1,2
320,304,31329,1,8
320,304,31438,1,0
320,304,31546,1,0
320,304,31655,1,0
320,304,31764,6,0,B|390:301|390:221,1,112.5,2|0
392,196,32199,2,0,B|392:116,1,75,8|0
324,88,32633,2,0,B|321:18|241:18,1,112.5
216,16,33068,2,0,B|136:16,1,75,8|0
112,84,33503,2,0,B|42:87|42:167,1,112.5,2|0
40,192,33938,2,0,B|40:272,1,75,8|0
112,296,34373,2,0,B|115:366|195:366,1,112.5
220,368,34807,2,0,B|300:368,1,75,8|0
300,292,35242,6,0,B|456:292,1,150,2|8
484,224,35894,1,2
412,92,36329,2,0,B|412:40|464:40,2,75,0|8|0
352,136,36981,2,0,B|352:188|404:188,2,75,0|0|8
292,92,37633,2,0,B|292:44,2,37.5
228,136,38068,6,0,B|228:184,6,37.5,0|0|8|0|0|0|4
104,52,39155,1,8
104,52,39373,2,0,B|104:136,1,75
28,128,39807,2,0,B|28:228,1,75,0|8
104,208,40242,2,0,B|104:288,1,75,2|0
28,284,40677,1,2
28,284,40894,2,0,B|200:284,1,150,10|0
232,336,41546,1,2
284,284,41764,1,8
336,336,41981,5,2
336,336,42090,1,0
336,336,42199,2,0,B|428:324|428:225,1,150,2|8
488,192,42851,1,0
428,148,43068,1,0
368,192,43286,2,0,B|288:192,1,75,0|8
320,120,43720,2,0,B|232:120,1,75,2|0
252,44,44155,1,2
252,44,44373,1,10
252,44,44590,2,0,B|168:44,2,75,2|0|2
328,56,45242,1,8
328,56,45351,1,0
328,56,45459,1,0
328,56,45568,1,0
328,56,45677,6,0,B|397:55|400:125,1,112.5,2|0
420,156,46112,2,0,B|468:156|468:104,2,75,8|0|2
392,264,46873,2,0,B|368:304,1,37.5,0|8
308,336,47199,1,0
244,296,47416,2,0,B|175:297|172:227,1,112.5,2|0
152,196,47851,2,0,B|104:196|104:248,2,75,8|0|2
188,128,48503,1,2
256,92,48720,6,0,B|256:16,2,75,10|0|0
328,120,49373,2,0,B|381:66,2,75,0|8|0
372,180,50025,2,0,B|452:180,2,75,0|0|8
328,240,50677,2,0,B|168:240,1,150,2|0
200,312,51329,2,0,B|36:312,1,150,10|0
20,244,51981,1,2
52,176,52199,2,0,B|52:140,4,37.5,8|0|0|0|6
200,160,53068,2,0,B|200:8,2,150,8|0|8
256,208,54155,5,0
312,160,54373,1,2
372,208,54590,1,2
428,160,54807,1,10
484,208,55025,2,0,B|484:296|392:308,1,150,2|2
324,332,55677,2,0,B|324:380,2,37.5,8|0|0
252,308,56112,6,0,B|204:308|204:368,2,75,6|0|8
252,232,56764,2,0,B|252:144|160:132,1,150
116,192,57416,1,8
116,192,57633,2,0,B|25:180|25:92,1,150
88,48,58286,1,8
88,48,58503,1,0
148,96,58720,1,0
148,96,58938,1,0
204,48,59155,1,8
204,48,59373,1,0
260,96,59590,6,0,B|416:96,1,150,2|8
476,132,60242,2,0,B|460:208,1,75
384,204,60677,2,0,B|344:272,1,75,0|8
272,272,61112,1,0
272,272,61329,2,0,B|440:272,2,150,0|8|0
216,324,62416,1,0
164,272,62633,1,8
112,324,62851,6,0,B|112:368,2,37.5,0|0|2
56,272,63286,2,0,B|8:272|8:324,2,75,0|8|0
56,120,64155,2,0,B|56:74|8:74,2,75,0|8|0
208,120,65025,2,0,B|207:74|255:74,2,75,0|8|0
256,176,65677,1,0
256,176,65894,1,0
208,236,66112,1,8
208,236,66329,1,0
256,296,66546,6,0,B|412:296,1,150,2|8
484,168,67416,2,0,B|368:168,1,112.5
344,140,67851,2,0,B|344:88|396:88,2,75,8|0|0
212,68,68720,1,8
80,140,69155,5,2
28,192,69373,1,0
80,244,69590,1,10
28,300,69807,1,2
28,300,69916,1,0
28,300,70025,2,0,B|188:300,1,150,6|8
432,244,70894,5,2
484,192,71112,1,0
432,140,71329,1,10
484,84,71546,1,2
484,84,71655,1,0
484,84,71764,2,0,B|324:84,1,150,2|8
84,84,72633,6,0,B|84:32|20:32,2,75,2|0|10
84,160,73286,2,0,B|44:160,2,37.5,2|0|2
212,252,73938,5,10
212,252,74155,2,0,B|184:216|216:180,1,75,2|0
173,318,74590,2,0,B|155:360|108:350,1,75,2|8
250,318,75025,2,0,B|410:318,1,150,2|2
460,272,75677,1,10
400,228,75894,5,0
464,188,76112,1,2
464,112,76329,1,0
400,76,76546,1,10
400,152,76764,2,0,B|360:152,2,37.5,2|0|2
256,32,77416,1,8
72,168,77851,5,2
32,232,78068,1,0
72,296,78286,1,10
112,232,78503,2,0,B|152:232,2,37.5,2|0|2
256,352,79155,1,8
256,32,79590,5,2
344,100,79916,2,0,B|360:140,1,37.5,2|8
408,192,80242,2,0,B|448:192,2,37.5,2|0|2
288,280,80894,2,0,B|288:356,2,75,8|0|0
176,256,81655,2,0,B|148:220,1,37.5,0|8
88,192,81981,1,2
88,192,82199,2,0,B|40:192|40:252,2,75,2|2|10
180,76,83068,2,0,B|180:28|132:28,2,75,2|2|8
244,112,83720,5,0
244,112,83829,1,0
244,112,83938,2,0,B|408:112,1,150,2|8
436,176,84590,2,0,B|420:260,1,75,2|0
496,252,85025,1,0
488,252,85133,1,0
480,252,85242,2,0,B|328:252,1,150,10|0
296,184,85894,2,0,B|208:184,1,75,2|8
252,252,86329,2,0,B|164:252,1,75,2|0
208,320,86764,2,0,B|124:320,1,75,2|8
100,252,87199,2,0,B|64:252,2,37.5,2|0|4
256,192,87633,12,8,88720
108,108,89155,6,0,B|108:24,2,75,2|2|10
184,116,89807,2,0,B|184:240,1,112.5,2|2
184,256,90242,2,0,B|184:308|244:308,1,75,2|8
304,312,90677,5,0
304,312,90786,1,0
304,312,90894,2,0,B|464:312,1,150,4|8
476,240,91546,2,0,B|476:156,1,75
408,32,91981,2,0,B|408:112,1,75,0|8
340,240,92416,2,0,B|340:156,1,75,2|0
272,32,92851,1,2
272,32,93068,2,0,B|180:44|180:143,1,150,10|0
244,168,93720,1,2
180,208,93938,1,8
116,168,94155,5,2
116,168,94264,1,0
116,168,94373,2,0,B|116:336,1,150,2|8
184,348,95025,2,0,B|272:348,1,75
416,276,95460,2,0,B|332:276,1,75,0|8
184,204,95894,2,0,B|276:204,1,75,2|0
416,152,96329,1,2
416,152,96546,2,0,B|416:63|324:51,1,150,10|0
256,84,97199,2,0,B|256:132,2,37.5,2|0|8
188,52,97633,1,0
120,84,97851,5,2
40,164,98177,2,0,B|48:216,1,37.5,0|8
56,276,98503,2,0,B|144:276,1,75
216,348,99046,2,0,B|260:332,1,37.5,0|8
324,316,99373,2,0,B|408:316,1,75,0|2
480,236,99916,2,0,B|472:180,1,37.5,0|8
464,124,100242,2,0,B|376:124,1,75
316,40,100786,2,0,B|284:60,1,37.5,0|8
224,108,101112,6,0,B|224:152,2,37.5,0|0|2
80,60,101764,1,8
80,60,101981,2,0,B|80:212,1,150,2|0
140,256,102633,1,8
80,300,102851,2,0,B|28:300|28:240,2,75
140,344,103503,1,8
200,300,103720,2,0,B|200:252,2,37.5
260,344,104155,2,0,B|304:344,2,37.5,0|0|8
280,272,104590,5,0
280,272,104699,1,0
280,272,104807,2,0,B|369:260|369:171,1,150,4|8
428,128,105460,1,0
428,128,105677,1,0
428,128,105894,2,0,B|428:72|368:72,1,75,0|8
328,28,106329,2,0,B|276:28|276:92,1,75,2|0
224,124,106764,1,2
168,72,106981,1,10
80,192,107416,2,0,B|0:192,2,75,0|2|8
124,256,108068,5,2
124,256,108177,1,0
124,256,108286,2,0,B|292:256,1,150,2|8
336,300,108938,1,0
336,300,109155,1,0
336,300,109373,2,0,B|392:368,1,75,0|8
420,296,109807,2,0,B|500:296,1,75,2|0
420,216,110242,2,0,B|504:216,1,75,2|10
336,192,110677,2,0,B|392:124,1,75,2|0
404,64,111112,2,0,B|404:12,2,37.5,2|0|8
328,64,111546,6,0,B|328:16,2,37.5,0|0|2
216,52,112090,2,0,B|184:76,1,37.5,0|8
132,124,112416,1,0
80,72,112633,1,2
28,172,112960,2,0,B|56:216,1,37.5,0|8
96,260,113286,1,0
48,316,113503,1,2
152,356,113829,2,0,B|200:332,1,37.5,0|8
252,300,114155,1,0
316,340,114373,2,0,B|400:340,2,75,2|2|10
316,264,115025,5,0
316,264,115133,1,0
316,264,115242,1,0
372,212,115460,1,0
316,164,115677,1,8
372,112,115894,1,0
316,64,116112,1,0
372,16,116329,2,0,B|420:16|420:72,2,75,0|8|2
224,32,117199,1,0
224,32,117416,1,10
92,104,117851,2,0,B|92:24,2,75,0|2|8
18,117,118503,5,0
18,117,118612,1,0
18,117,118720,2,0,B|18:269,1,150,6|8
494,267,119590,2,0,B|494:115,1,150,0|8
396,76,120242,6,0,B|320:104,1,75,0|2
116,308,120677,2,0,B|192:280,1,75,2|10
256,116,121112,2,0,B|256:268,1,150,2|2
312,316,121764,1,8
324,316,121873,1,0
336,316,121981,1,0
348,316,122090,1,0
360,316,122199,1,4
256,192,132633,12,8,134807
108,88,135242,6,0,B|20:88,2,75,2|0|10
172,36,135894,1,2
172,36,136003,1,0
172,36,136112,2,0,B|265:44|268:143,1,150,6|8
404,296,136981,6,0,B|492:296,2,75,2|0|10
340,348,137633,1,2
340,348,137742,1,0
340,348,137851,2,0,B|246:339|243:240,1,150,2|8
404,88,138720,5,2
340,32,138938,1,0
280,88,139155,1,10
220,32,139373,1,2
220,32,139481,1,0
220,32,139590,6,0,B|56:32,1,150,2|10
28,104,140242,2,0,B|84:172,1,75,2|0
28,280,140677,2,0,B|84:212,1,75,2|8
70,352,141112,2,0,B|220:352,1,150,2|2
284,300,141764,1,10
348,352,141981,6,0,B|400:296,1,75,0|2
376,216,142416,2,0,B|468:196,1,75,0|10
448,116,142851,1,2
448,116,142960,1,0
448,116,143068,2,0,B|448:276,2,150,2|8|2
408,44,144155,5,0
324,44,144373,1,10
284,116,144590,1,2
284,116,144699,1,0
284,116,144807,2,0,B|128:116,2,150,2|8|2
260,236,146003,6,0,B|240:288,1,37.5,2|8
208,344,146329,1,2
208,344,146438,1,0
208,344,146546,2,0,B|114:335|111:236,1,150,2|8
52,192,147199,1,0
52,192,147416,2,0,B|53:125|124:120,1,112.5
152,96,147851,2,0,B|152:48|104:48,2,75,8|2|2
232,120,148503,1,2
312,96,148720,2,0,B|484:96,1,150,10|2
420,168,149373,1,2
496,204,149590,1,8
464,280,149807,6,0,B|464:324,2,37.5,0|0|2
300,312,150460,2,0,B|300:232,2,75,8|2|0
220,292,151112,2,0,B|220:344,2,37.5,0|0|10
100,180,151764,1,0
100,180,151981,6,0,B|100:100,1,75,2|8
256,32,152416,2,0,B|256:116,1,75,2|0
412,180,152851,1,2
412,180,153068,2,0,B|412:220,4,37.5,8|0|2|0|4
256,192,153720,12,8,154807
256,96,155242,5,2
160,192,155460,1,2
256,288,155677,1,10
352,192,155894,1,2
352,192,156220,2,0,B|304:192,1,37.5,2|2
92,36,156764,6,0,B|48:36,2,37.5,0|0|4
256,36,157416,1,8
256,36,157633,6,0,B|303:25|318:79,1,75
321,256,158068,2,0,B|306:301|251:288,1,75,0|8
97,203,158503,2,0,B|64:167|103:126,1,75,2|0
12,132,158938,1,2
12,132,159155,2,0,B|180:132,1,150,10|0
228,184,159807,1,2
228,184,160025,1,8
228,184,160242,6,0,B|228:236,2,37.5,2|0|2
372,104,160894,1,8
372,104,161112,6,0,B|372:20,1,75
480,232,161546,2,0,B|480:136,1,75,0|8
372,356,161981,2,0,B|372:268,1,75,2|0
300,240,162416,1,2
228,280,162633,2,0,B|76:280,1,150,10|0
116,204,163286,1,2
104,204,163394,1,0
92,204,163503,2,0,B|4:204,2,75,8|0|2
152,84,164264,5,0
152,84,164373,2,0,B|152:32|96:32,2,75,8|0|0
360,84,165133,1,0
360,84,165242,2,0,B|360:32|416:32,2,75,8|0|2
360,300,166003,1,0
360,300,166112,2,0,B|360:352|416:352,2,75,8|0|0
152,300,166873,1,0
152,300,166981,1,8
92,244,167199,6,0,B|48:244,2,37.5,0|0|2
188,108,167851,1,8
256,152,168068,1,2
256,152,168503,2,0,B|256:232,2,75,0|8|0
328,108,169155,2,0,B|328:28,2,75,0|0|8
396,152,169807,2,0,B|396:200,2,37.5
468,108,170242,1,0
468,116,170351,1,0
468,124,170460,1,8
468,132,170568,1,0
468,140,170677,1,0
468,148,170786,1,0
468,156,170894,6,0,B|468:332,1,150,4|8
384,312,171546,6,0,B|384:364|324:364,1,75
212,244,171981,2,0,B|212:192|272:192,1,75,0|8
316,252,172416,6,0,B|316:304|256:304,1,75,2|0
144,184,172851,2,0,B|144:132|204:132,1,75,2|10
484,80,173503,2,0,B|484:28|432:28,2,75,0|2|8
484,164,174155,2,0,B|484:204,2,37.5,2|0|2
256,60,174807,6,0,B|256:140,2,75,8|0|0
388,192,175460,2,0,B|300:192,1,75,0|8
124,192,175894,2,0,B|212:192,1,75,2|0
256,324,176329,2,0,B|256:236,2,75,2|10|2
180,360,176981,1,0
104,324,177199,1,2
104,324,177307,1,0
104,324,177416,1,8
28,356,177633,1,0
28,356,177742,1,0
28,356,177851,6,0,B|28:240,1,112.5,2|0
28,216,178286,2,0,B|28:168|92:164,2,75,8|0|2
148,236,179046,1,0
148,236,179155,1,8
220,192,179373,1,0
288,236,179590,1,2
404,192,179916,1,0
404,192,180025,1,8
460,132,180242,1,0
404,72,180460,1,2
348,132,180677,1,2
292,72,180894,1,10
208,64,181112,6,0,B|208:24,2,37.5,0|0|0
90,132,181546,1,0
90,268,181764,1,8
208,336,181981,1,0
325,268,182199,1,0
326,132,182416,2,0,B|398:90,1,75,0|8
392,12,182851,6,0,B|392:188,1,150,2|0
460,212,183503,2,0,B|389:272|315:206,1,150,10|0
252,172,184155,1,2
180,212,184373,1,8
100,192,184590,6,0,B|60:192,2,37.5,0|0|6
256,28,185242,1,8
412,192,185677,1,0
256,356,186112,1,8
176,328,186329,5,0
32,264,186546,1,2
49,109,186764,1,2
201,76,186981,1,10
279,212,187199,2,0,B|350:272|424:206,1,150,2|2
496,212,187851,2,0,B|496:172,3,37.5,8|0|0|0
496,156,188286,6,0,B|493:86|413:86,1,112.5,6|2
396,84,188720,2,0,B|316:84,1,75,8|2
276,16,189155,2,0,B|216:87|282:161,1,150,2|8
356,168,189807,1,0
356,168,189916,1,0
356,168,190025,2,0,B|356:288,1,112.5,2|2
356,308,190460,2,0,B|356:356|420:356,2,75,8|2|2
104,120,191329,5,8
104,120,191546,1,0
104,120,191764,2,0,B|228:120,1,112.5,2|2
248,100,192199,2,0,B|248:20,2,75,8|2|2
320,144,192851,1,0
320,228,193068,1,8
248,272,193286,1,0
248,188,193503,2,0,B|128:188,1,112.5,2|2
96,188,193938,2,0,B|52:188|52:128,2,75,8|2|2
144,344,194807,5,8
144,344,195025,2,0,B|92:344,2,37.5,0|0|2
268,340,195568,2,0,B|288:296,1,37.5,2|8
328,236,195894,1,2
328,236,196112,2,0,B|476:236,1,150,2|8
460,156,196764,2,0,B|512:156,2,37.5,0|0|2
336,152,197307,2,0,B|316:108,1,37.5,2|8
276,48,197633,1,2
276,48,197851,2,0,B|128:48,1,150,2|8
76,116,198503,6,0,B|32:116,2,37.5,0|0|2
96,236,199046,2,0,B|128:280,1,37.5,0|8
176,328,199373,1,0
176,328,199590,1,2
260,236,199916,2,0,B|292:192,1,37.5,0|8
340,144,200242,1,0
340,144,200460,1,2
256,192,200677,12,4,202199
116,136,209155,6,0,B|117:89|63:79,2,84.3749974854291,6|2|2
116,216,210025,2,0,B|115:280|186:291,1,112.499996647239,0|10
396,248,210894,6,0,B|395:295|449:305,2,84.3749974854291,2|2|2
396,168,211764,2,0,B|396:103|325:92,1,112.499996647239,0|10
120,32,212633,5,2
36,112,212960,2,0,B|64:148,1,28.1249991618097,2|8
116,200,213286,1,2
116,200,213503,2,0,B|240:200,1,112.499996647239,2|10
392,352,214373,5,2
476,272,214699,1,2
396,184,215025,1,2
396,184,215242,2,0,B|272:184,1,112.499996647239,10|8
232,244,215894,1,0
180,184,216112,5,6
180,184,216438,2,0,B|152:152,1,28.1249991618097,2|8
108,104,216764,1,2
108,104,216981,2,0,B|37:115|37:198,1,112.499996647239,0|10
332,200,217851,5,2
332,200,218177,2,0,B|360:232,1,28.1249991618097,2|8
404,280,218503,1,2
404,280,218720,2,0,B|475:269|475:186,1,112.499996647239,0|10
364,88,219590,5,2
324,20,219807,1,0
244,20,220025,1,10
204,88,220242,1,0
284,88,220460,2,0,B|284:160,2,56.2499983236194,2|0|10
364,88,221112,1,0
364,88,221329,1,2
364,88,221546,2,0,B|404:88,2,37.5,0|0|8
384,164,221981,2,0,B|432:164,2,37.5
404,240,222416,2,0,B|452:240,6,37.5,0|0|8|0|0|0|0
220,344,223503,5,12
220,344,223720,2,0,B|220:264,1,75
28,228,224155,2,0,B|28:148,1,75,0|8
220,115,224590,2,0,B|220:40,1,75,2|0
300,24,225025,5,2
380,40,225242,2,0,B|472:52|472:151,1,150,10|0
408,192,225894,1,2
472,244,226112,1,8
408,292,226329,5,2
408,292,226438,1,0
408,292,226546,2,0,B|252:292,1,150,2|8
200,348,227199,1,0
140,292,227416,1,0
80,348,227633,6,0,B|36:348|36:288,1,75,0|8
80,36,228068,2,0,B|36:36|36:96,1,75,2|0
36,192,228503,1,2
36,192,228720,2,0,B|196:192,1,150,10|0
256,236,229373,6,0,B|256:272,6,37.5,2|0|8|0|0|0|2
372,192,230351,2,0,B|400:152,1,37.5,0|8
444,96,230677,1,0
392,32,230894,1,0
268,32,231220,2,0,B|228:68,1,37.5,0|8
172,104,231546,1,0
108,56,231764,1,2
108,56,232090,2,0,B|76:96,1,37.5,0|8
32,148,232416,1,0
84,212,232633,1,0
84,212,232960,2,0,B|116:252,1,37.5,0|8
128,320,233286,5,0
140,320,233394,1,0
152,320,233503,2,0,B|312:320,1,150,2|8
380,344,234155,2,0,B|472:332|472:233,1,150,2|0
408,192,234807,1,8
472,140,235025,2,0,B|472:88|416:88,2,75
408,192,235677,1,8
332,164,235894,2,0,B|332:120,2,37.5
272,220,236329,1,0
272,220,236438,1,0
272,220,236546,1,8
196,192,236764,6,0,B|148:192,2,37.5,0|0|4
256,40,237416,1,8
256,40,237633,1,0
256,40,237851,1,0
256,40,238068,6,0,B|256:116,1,75,0|8
256,344,238503,2,0,B|256:268,1,75,2|0
256,192,238938,1,2
256,192,239155,1,10
256,192,239590,2,0,B|256:144|304:144,2,75,0|2|8
184,232,240242,6,0,B|184:272,2,37.5,2|0|2
36,156,240894,1,8
36,156,241112,1,0
36,156,241329,1,0
36,156,241546,6,0,B|36:76,1,75,0|8
256,32,241981,2,0,B|256:108,1,75,2|0
476,156,242416,2,0,B|476:76,2,75,2|10|2
456,236,243068,5,0
400,296,243286,2,0,B|428:336,2,37.5,2|0|8
320,316,243720,2,0,B|320:360,2,37.5,0|0|2
180,224,244264,6,0,B|148:188,1,37.5,0|8
96,140,244590,1,0
156,84,244807,2,0,B|276:84,1,112.5,2|0
308,84,245242,2,0,B|372:132,1,75,8|0
448,140,245677,2,0,B|448:260,1,112.5,2|0
448,292,246112,2,0,B|400:356,1,75,8|0
336,304,246546,2,0,B|336:248|280:248,2,75,2|2|10
256,332,247199,6,0,B|256:372,2,37.5,0|0|0
184,292,247633,1,0
184,212,247851,1,8
256,172,248068,1,0
256,252,248286,1,0
328,212,248503,2,0,B|392:168,2,75,0|8|2
328,212,249373,1,0
328,296,249590,2,0,B|328:136,1,150,10|0
392,92,250242,1,2
328,40,250460,1,8
264,92,250677,5,0
264,92,250786,1,0
264,92,250894,2,0,B|108:92,1,150,6|8
248,292,251764,2,0,B|404:292,1,150,0|8
396,376,252416,5,0
468,336,252633,1,2
468,252,252851,1,2
396,212,253068,1,10
396,212,253286,2,0,B|396:60,1,150,2|2
312,52,253938,6,0,B|312:8,4,37.5,8|0|0|0|6
232,148,254699,2,0,B|204:192,1,37.5,2|8
296,180,255025,1,2
296,180,255242,2,0,B|140:180,1,150,2|8
64,200,255894,2,0,B|64:156,2,37.5,0|0|2
144,296,256438,2,0,B|172:340,1,37.5,2|8
80,328,256764,1,2
80,328,256981,2,0,B|236:328,1,150,2|8
292,276,257633,1,0
356,328,257851,5,2
456,256,258177,2,0,B|476:212,1,37.5,2|8
480,140,258503,2,0,B|480:64,2,75,2|2|0
412,184,259155,1,8
412,184,259373,1,0
412,184,259590,1,2
288,164,259916,2,0,B|244:136,1,37.5,2|8
256,228,260242,1,2
256,228,260460,2,0,B|256:72,1,150,2|8
184,36,261112,5,0
184,36,261220,1,0
184,36,261329,2,0,B|114:39|114:119,1,112.5,2|2
92,144,261764,2,0,B|44:144|44:88,2,75,8|2|2
140,300,262633,1,8
208,344,262851,1,0
208,344,262960,1,0
208,344,263068,2,0,B|278:341|278:261,1,112.5,2|2
300,236,263503,2,0,B|348:236|348:292,2,75,8|2|2
256,76,264373,1,8
336,60,264590,6,0,B|336:20,2,37.5,0|0|2
452,100,265133,2,0,B|484:144,1,37.5,0|8
480,212,265460,2,0,B|480:288,1,75,0|2
364,328,266003,2,0,B|320:360,1,37.5,0|8
252,356,266329,2,0,B|176:356,1,75,0|2
132,288,266764,2,0,B|84:288|84:348,2,75,0|8|0
176,220,267416,6,0,B|176:176,8,37.5,2|0|0|0|8|0|0|0|6
256,204,268503,2,0,B|344:204,1,75,0|8
300,128,268938,2,0,B|384:128,1,75,2|0
432,68,269373,1,0
488,128,269590,1,14
256,192,269807,12,0,273503
