osu file format v9

[General]
AudioFilename: Horie Yui & Yuzuki Ryoka - Emerald Radiation.mp3
AudioLeadIn: 0
PreviewTime: 24373
Countdown: 0
SampleSet: Normal
StackLeniency: 0.6
Mode: 0
LetterboxInBreaks: 0

[Editor]
DistanceSpacing: 1.1
BeatDivisor: 4
GridSize: 4

[Metadata]
Title:Emerald Radiation
Artist:Horie Yui & Yuzuki Ryoka
Creator:quintitem
Version:Normal
Source:Kaitou Tenshi Twin Angel 3
Tags:Pachislo ave;new feat. Tesla & Nine

[Difficulty]
HPDrainRate:4
CircleSize:3
OverallDifficulty:2
ApproachRate:4
SliderMultiplier:1.3
SliderTickRate:2

[Events]
//Background and Video events
0,0,"Nine_and_Tesla_2.jpg"
//Break Periods
2,122398,133922
//Storyboard Layer 0 (Background)
//Storyboard Layer 1 (Fail)
//Storyboard Layer 2 (Pass)
//Storyboard Layer 3 (Foreground)
Sprite,Foreground,CentreLeft,"StoryBoard\title.png",320,240 M,0,3938,4807,91,385,91,375 F,0,3938,4807,0,1 M,0,8286,9155,91,375,91,385 F,0,8286,9155,1,0
Sprite,Foreground,CentreLeft,"StoryBoard\aa.png",320,240 M,0,10894,,91,415 F,0,10894,11112,0,1 F,0,17199,17416,1,0
Sprite,Foreground,CentreLeft,"StoryBoard\ab.png",320,240 M,0,15677,,305,415 F,0,15677,15894,0,1 F,0,17199,17416,1,0
Sprite,Foreground,CentreLeft,"StoryBoard\ac.png",320,240 M,0,17851,,91,415 F,0,17851,18068,0,1 F,0,24155,24373,1,0
Sprite,Foreground,CentreLeft,"StoryBoard\ad.png",320,240 M,0,21329,,257,414 F,0,21329,21546,0,1 F,0,24155,24373,1,0
Sprite,Foreground,CentreLeft,"StoryBoard\ba.png",320,240 M,0,24590,,91,415 F,0,24590,24807,0,1 F,0,30677,30894,1,0
Sprite,Foreground,CentreLeft,"StoryBoard\bb.png",320,240 M,0,28068,,357,414 F,0,28068,28286,0,1 F,0,30677,30894,1,0
Sprite,Foreground,CentreLeft,"StoryBoard\bc.png",320,240 M,0,31112,,91,415 F,0,31112,31329,0,1 F,0,38068,38286,1,0
Sprite,Foreground,CentreLeft,"StoryBoard\bd.png",320,240 M,0,31764,,137,415 F,0,31764,31981,0,1 F,0,38068,38286,1,0
Sprite,Foreground,CentreLeft,"StoryBoard\be.png",320,240 M,0,35242,,441,415 F,0,35242,35459,0,1 F,0,38068,38286,1,0
Sprite,Foreground,CentreLeft,"StoryBoard\bf.png",320,240 M,0,38503,,91,415 F,0,38503,38720,0,1 F,0,45025,45242,1,0
Sprite,Foreground,CentreLeft,"StoryBoard\bg.png",320,240 M,0,41981,,335,415 F,0,41981,42199,0,1 F,0,45025,45242,1,0
Sprite,Foreground,CentreLeft,"StoryBoard\bh.png",320,240 M,0,45677,,91,415 F,0,45677,45894,0,1 F,0,55025,55242,1,0
Sprite,Foreground,CentreLeft,"StoryBoard\bi.png",320,240 M,0,48938,,301,415 F,0,48938,49155,0,1 F,0,55025,55242,1,0
Sprite,Foreground,CentreLeft,"StoryBoard\bj.png",320,240 M,0,54155,,485,415 F,0,54155,54373,0,1 F,0,55025,55242,1,0
Sprite,Foreground,CentreLeft,"StoryBoard\ca.png",320,240 M,0,56112,,91,415 F,0,56112,56329,0,1 F,0,61546,61764,1,0
Sprite,Foreground,CentreLeft,"StoryBoard\cb.png",320,240 M,0,58068,,213,415 F,0,58068,58286,0,1 F,0,61546,61764,1,0
Sprite,Foreground,CentreLeft,"StoryBoard\cc.png",320,240 M,0,63068,,91,415 F,0,63068,63286,0,1 F,0,68503,68720,1,0
Sprite,Foreground,CentreLeft,"StoryBoard\cd.png",320,240 M,0,66546,,371,415 F,0,66546,66764,0,1 F,0,68503,68720,1,0
Sprite,Foreground,CentreLeft,"StoryBoard\ce.png",320,240 M,0,69155,,91,415 F,0,69155,69373,0,1 F,0,75242,75459,1,0
Sprite,Foreground,CentreLeft,"StoryBoard\ce.png",320,240 M,0,70894,,178,415 F,0,70894,71112,0,1 F,0,75242,75459,1,0
Sprite,Foreground,CentreLeft,"StoryBoard\cg.png",320,240 M,0,72633,,265,415 F,0,72633,72851,0,1 F,0,75242,75459,1,0
Sprite,Foreground,CentreLeft,"StoryBoard\ch.png",320,240 M,0,75894,,91,415 F,0,75894,76112,0,1 F,0,83286,83503,1,0
Sprite,Foreground,CentreLeft,"StoryBoard\ci.png",320,240 M,0,77851,,204,415 F,0,77851,78068,0,1 F,0,83286,83503,1,0
Sprite,Foreground,CentreLeft,"StoryBoard\cj.png",320,240 M,0,79590,,317,415 F,0,79590,79807,0,1 F,0,83286,83503,1,0
Sprite,Foreground,CentreLeft,"StoryBoard\ck.png",320,240 M,0,83938,,91,415 F,0,83938,84155,0,1 F,0,88503,88720,1,0
Sprite,Foreground,CentreLeft,"StoryBoard\da.png",320,240 M,0,90677,,91,415 F,0,90677,90894,0,1 F,0,96764,96981,1,0
Sprite,Foreground,CentreLeft,"StoryBoard\db.png",320,240 M,0,94155,,308,415 F,0,94155,94373,0,1 F,0,96764,96981,1,0
Sprite,Foreground,CentreLeft,"StoryBoard\bc.png",320,240 M,0,97199,,91,415 F,0,97199,97416,0,1 F,0,104155,104373,1,0
Sprite,Foreground,CentreLeft,"StoryBoard\dd.png",320,240 M,0,97851,,137,415 F,0,97851,98068,0,1 F,0,104155,104373,1,0
Sprite,Foreground,CentreLeft,"StoryBoard\de.png",320,240 M,0,101329,,440,415 F,0,101329,101546,0,1 F,0,104155,104373,1,0
Sprite,Foreground,CentreLeft,"StoryBoard\df.png",320,240 M,0,104590,,91,415 F,0,104590,104807,0,1 F,0,111112,111329,1,0
Sprite,Foreground,CentreLeft,"StoryBoard\dg.png",320,240 M,0,108068,,355,415 F,0,108068,108286,0,1 F,0,111112,111329,1,0
Sprite,Foreground,CentreLeft,"StoryBoard\dh.png",320,240 M,0,111764,,91,415 F,0,111764,111981,0,1 F,0,121112,121329,1,0
Sprite,Foreground,CentreLeft,"StoryBoard\di.png",320,240 M,0,115242,,299,415 F,0,115242,115459,0,1 F,0,121112,121329,1,0
Sprite,Foreground,CentreLeft,"StoryBoard\dj.png",320,240 M,0,120242,,511,415 F,0,120242,120459,0,1 F,0,121112,121329,1,0
Sprite,Foreground,CentreLeft,"StoryBoard\ea.png",320,240 M,0,122199,,91,415 F,0,122199,122416,0,1 F,0,128503,128720,1,0
Sprite,Foreground,CentreLeft,"StoryBoard\eb.png",320,240 M,0,124155,,248,415 F,0,124155,124373,0,1 F,0,128503,128720,1,0
Sprite,Foreground,CentreLeft,"StoryBoard\ec.png",320,240 M,0,129155,,91,415 F,0,129155,129373,0,1 F,0,134590,134807,1,0
Sprite,Foreground,CentreLeft,"StoryBoard\ed.png",320,240 M,0,133068,,394,414 F,0,133068,133286,0,1 F,0,134590,134807,1,0
Sprite,Foreground,CentreLeft,"StoryBoard\ee.png",320,240 M,0,135242,,91,415 F,0,135242,135459,0,1 F,0,141329,141546,1,0
Sprite,Foreground,CentreLeft,"StoryBoard\ce.png",320,240 M,0,136981,,178,415 F,0,136981,137199,0,1 F,0,141329,141546,1,0
Sprite,Foreground,CentreLeft,"StoryBoard\eg.png",320,240 M,0,138720,,265,415 F,0,138720,138938,0,1 F,0,141329,141546,1,0
Sprite,Foreground,CentreLeft,"StoryBoard\eh.png",320,240 M,0,141981,,91,415 F,0,141981,142199,0,1 F,0,149373,149590,1,0
Sprite,Foreground,CentreLeft,"StoryBoard\ei.png",320,240 M,0,143938,,230,416 F,0,143938,144155,0,1 F,0,149373,149590,1,0
Sprite,Foreground,CentreLeft,"StoryBoard\ej.png",320,240 M,0,145677,,320,415 F,0,145677,145894,0,1 F,0,149373,149590,1,0
Sprite,Foreground,CentreLeft,"StoryBoard\ck.png",320,240 M,0,150025,,91,415 F,0,150025,150242,0,1 F,0,154590,154807,1,0
Sprite,Foreground,CentreLeft,"StoryBoard\ba.png",320,240 M,0,156764,,91,415 F,0,156764,156981,0,1 F,0,162851,163068,1,0
Sprite,Foreground,CentreLeft,"StoryBoard\bb.png",320,240 M,0,160242,,357,414 F,0,160242,160460,0,1 F,0,162851,163068,1,0
Sprite,Foreground,CentreLeft,"StoryBoard\bc.png",320,240 M,0,163286,,91,415 F,0,163286,163503,0,1 F,0,170242,170460,1,0
Sprite,Foreground,CentreLeft,"StoryBoard\bd.png",320,240 M,0,163938,,137,415 F,0,163938,164155,0,1 F,0,170242,170460,1,0
Sprite,Foreground,CentreLeft,"StoryBoard\be.png",320,240 M,0,167416,,441,415 F,0,167416,167633,0,1 F,0,170242,170460,1,0
Sprite,Foreground,CentreLeft,"StoryBoard\bf.png",320,240 M,0,170677,,91,415 F,0,170677,170894,0,1 F,0,177199,177416,1,0
Sprite,Foreground,CentreLeft,"StoryBoard\bg.png",320,240 M,0,174155,,335,415 F,0,174155,174373,0,1 F,0,177199,177416,1,0
Sprite,Foreground,CentreLeft,"StoryBoard\bh.png",320,240 M,0,177851,,91,415 F,0,177851,178068,0,1 F,0,187199,187416,1,0
Sprite,Foreground,CentreLeft,"StoryBoard\bi.png",320,240 M,0,181112,,301,415 F,0,181112,181329,0,1 F,0,187199,187416,1,0
Sprite,Foreground,CentreLeft,"StoryBoard\bj.png",320,240 M,0,186329,,485,415 F,0,186329,186547,0,1 F,0,187199,187416,1,0
Sprite,Foreground,CentreLeft,"StoryBoard\ga.png",320,240 M,0,188068,,91,415 F,0,188068,188286,0,1 F,0,194590,194807,1,0
Sprite,Foreground,CentreLeft,"StoryBoard\gb.png",320,240 M,0,191764,,330,415 F,0,191764,191981,0,1 F,0,194590,194807,1,0
Sprite,Foreground,CentreLeft,"StoryBoard\gc.png",320,240 M,0,195242,,91,415 F,0,195242,195459,0,1 F,0,201546,201764,1,0
Sprite,Foreground,CentreLeft,"StoryBoard\gd.png",320,240 M,0,198503,,253,415 F,0,198503,198720,0,1 F,0,201546,201764,1,0
//Storyboard Sound Samples
//Background Colour Transformations
3,100,163,162,255

[TimingPoints]
460,434.782608695652,4,1,1,55,1,0
1329,-133.333333333333,4,1,1,55,0,0
17416,-133.333333333333,4,1,1,45,0,0
18177,-133.333333333333,4,1,1,55,0,0
24373,-100,4,1,1,60,0,0
24807,-100,4,1,1,60,0,1
24916,-100,4,1,1,70,0,0
55459,-100,4,1,1,55,0,0
70025,-100,4,1,1,60,0,0
87416,-100,4,1,1,80,0,0
89155,-100,4,1,1,60,0,0
90894,-100,4,1,1,60,0,1
91003,-100,4,1,1,70,0,0
121329,-100,4,1,1,55,0,0
136003,-100,4,1,1,60,0,0
153503,-100,4,1,1,80,0,0
155242,-100,4,1,1,60,0,0
156981,-100,4,1,1,60,0,1
157090,-100,4,1,1,70,0,0
186438,-100,4,1,1,80,0,0
187416,-100,4,1,1,60,0,0
194807,-100,4,1,1,65,0,0
198720,-100,4,1,1,80,0,0
202199,-100,4,1,1,65,0,0

[Colours]
Combo1 : 222,199,63
Combo2 : 52,194,137
Combo3 : 158,113,179
Combo4 : 114,114,114

[HitObjects]
72,116,10894,2,0,B|72:24,2,73.1249978207052,6|2|2
440,116,12633,2,0,B|440:24,2,73.1249978207052,2|2|2
132,316,14373,6,0,B|44:316,2,73.1249978207052,2|2|2
160,248,15242,1,2
380,316,16112,2,0,B|468:316,2,73.1249978207052,2|2|2
352,248,16981,1,2
256,40,17851,6,0,B|340:40,2,73.1249978207052,6|2|2
256,344,19590,2,0,B|172:344,2,73.1249978207052,2|2|2
256,192,21329,12,2,23068
388,316,24807,6,0,B|464:302|467:228,1,130,4|0
468,160,25459,2,0,B|468:24,2,130,0|0|2
328,140,26764,1,2
328,140,26981,2,0,B|120:140,2,195,2|2|2
256,264,28720,5,0
256,264,28938,2,0,B|384:264,2,130,0|0|2
132,192,30242,1,2
132,192,30459,2,0,B|19:214|11:331,2,195,2|2|2
256,120,32199,6,0,B|253:46|174:32,2,130
256,264,33503,2,0,B|253:337|174:351,2,130,2|0|0
348,156,34807,2,0,B|348:24,2,130,0|2|0
336,228,35894,2,0,B|257:242|254:327,2,130,2|0|0
404,200,36981,2,0,B|482:185|485:100,2,130
284,120,38286,6,0,B|284:48,2,65,0|0|4
140,120,39155,1,0
140,120,39373,2,0,B|61:134|58:219,1,130
200,236,40242,2,0,B|278:250|281:335,1,130,2|2
348,344,40894,2,0,B|460:321|468:204,2,195,2|2|2
256,232,42633,5,0
256,232,42851,2,0,B|256:100,1,130
124,44,43720,2,0,B|124:176,1,130,2|2
72,224,44373,1,2
124,272,44590,2,0,B|125:345|204:359,2,130,2|2|0
176,224,45677,6,0,B|308:224,2,130,2|0|2
256,104,46981,2,0,B|124:104,2,130,0|2|0
396,128,48286,2,0,B|436:132|436:176,2,65,2|2|2
328,256,49155,6,0,B|329:330|408:344,2,130,0|0|0
256,244,50242,2,0,B|178:258|176:332,2,130,0|2|0
300,188,51329,2,0,B|377:175|379:101,2,130,2|0|0
200,292,52633,6,0,B|52:292,2,130,6|0|0
172,152,53938,2,0,B|92:152,2,65,0|0|2
276,52,54807,1,2
276,52,55025,2,0,B|420:52,1,130,2|2
348,260,56112,6,0,B|480:260,2,130,6|0|0
208,232,57416,2,0,B|208:364,2,130
164,96,58720,2,0,B|32:96,2,130,0|0|2
300,48,60025,5,0
300,48,60242,2,0,B|377:61|379:135,2,130,0|0|0
256,104,61329,2,0,B|256:236,1,130
120,192,62199,2,0,B|120:328,1,130
260,340,63068,6,0,B|337:327|339:253,2,130,2|0|0
168,228,64373,2,0,B|91:215|89:141,2,130,0|0|0
256,116,65677,2,0,B|258:41|335:28,2,130,0|0|2
344,228,66981,6,0,B|346:303|423:316,2,130,0|0|0
448,128,68286,2,0,B|445:53|369:40,2,130,0|0|2
320,192,69590,6,0,B|320:268,2,65,2|2|6
240,72,70459,1,0
108,124,70894,1,2
88,264,71329,2,0,B|16:264,2,65,2|2|2
220,324,72199,1,0
300,204,72633,1,2
428,264,73068,2,0,B|428:348,2,65,2|2|2
412,120,73938,5,2
412,120,74155,2,0,B|414:45|491:32,2,130,2|2|2
312,224,75460,1,2
312,224,75677,2,0,B|172:224,1,130,2|2
52,164,76546,1,2
52,164,76764,1,2
52,164,76981,6,0,B|52:32,2,130,2|0|2
120,292,78286,1,2
120,292,78503,1,2
120,292,78720,2,0,B|268:292,1,130,2|0
384,236,79590,6,0,B|461:249|463:323,2,130,2|0|2
296,124,80894,2,0,B|298:49|375:36,2,130,0|0|0
200,232,82199,2,0,B|200:304,2,65,2|2|2
92,140,83068,2,0,B|16:140,2,65,2|2|0
192,40,83938,6,0,B|336:40,1,130,2|0
360,100,84590,2,0,B|472:123|480:240,2,195,2|2|2
256,196,86329,2,0,B|256:332,2,130,2|2|2
256,192,87416,12,2,89155
116,52,90894,6,0,B|116:188,1,130,4|0
184,208,91546,2,0,B|184:340,1,130
328,340,92416,2,0,B|328:204,1,130,2|2
368,152,93068,2,0,B|481:174|489:291,2,195,2|2|2
256,64,94807,5,0
256,64,95025,2,0,B|179:77|176:151,1,130
56,228,95894,2,0,B|59:302|138:316,1,130,2|2
208,320,96546,2,0,B|412:320,2,195,2|2|2
256,184,98286,6,0,B|256:52,1,130
396,32,99155,2,0,B|396:168,1,130,0|2
456,292,100025,2,0,B|394:340|337:293,1,130
200,336,100894,2,0,B|138:287|81:334,1,130,0|2
56,196,101764,5,0
56,196,101981,1,2
140,80,102416,2,0,B|280:80,1,130
328,124,103068,2,0,B|404:110|407:36,2,130
396,252,104373,1,0
396,252,104590,1,0
396,252,104807,6,0,B|260:252,1,130,4|0
208,292,105460,1,0
104,192,105894,2,0,B|25:205|24:278,2,130,0|2|2
172,168,106981,2,0,B|164:57|51:35,2,195,2|2|2
304,112,108720,5,0
304,112,108938,1,0
440,152,109373,2,0,B|440:8,2,130,0|2|2
480,212,110460,1,2
440,272,110677,2,0,B|439:345|360:359,2,130,2|2|0
404,212,111764,6,0,B|325:198|324:125,1,130,2|0
208,40,112633,2,0,B|129:53|128:126,1,130,2|0
40,240,113503,2,0,B|41:312|119:326,1,130,2|0
256,280,114373,1,2
256,280,114590,1,2
256,280,114807,2,0,B|396:280,1,130,2|0
456,156,115677,6,0,B|316:156,1,130
264,192,116329,2,0,B|186:178|184:104,1,130,0|2
40,120,117199,1,0
40,120,117416,2,0,B|41:46|119:33,2,130,2|0|0
40,264,118720,6,0,B|41:337|119:350,1,130,6|0
256,300,119590,2,0,B|388:300,1,130
444,260,120242,1,0
388,216,120460,2,0,B|388:84,1,130,2|2
332,40,121112,1,2
188,40,121546,2,0,B|75:61|68:172,1,195,2|4
256,40,135242,5,2
144,128,135677,1,2
144,128,135894,1,2
144,128,136112,2,0,B|144:268,1,130,6|0
256,344,136981,1,2
368,256,137416,1,2
368,256,137633,1,2
368,256,137851,2,0,B|368:116,1,130,2|0
256,40,138720,5,2
116,72,139155,1,2
116,72,139373,1,2
116,72,139590,1,2
40,192,140025,1,2
40,192,140242,1,2
116,312,140677,1,2
256,344,141112,1,2
396,312,141546,1,2
396,312,141764,1,2
472,192,142199,6,0,B|469:117|392:104,1,130,2|2
336,60,142851,1,2
280,104,143068,2,0,B|140:104,1,130,2|0
40,192,143938,2,0,B|42:266|119:279,1,130,2|2
176,324,144590,1,2
232,280,144807,2,0,B|372:280,1,130,2|0
352,136,145677,6,0,B|488:136,2,130,2|0|2
212,156,146981,2,0,B|212:24,2,130
72,192,148286,1,2
72,192,148503,1,2
72,192,148720,1,2
136,320,149155,1,2
136,320,149373,1,2
136,320,149590,2,0,B|280:320,1,130,0|2
408,292,150460,5,0
408,292,150677,2,0,B|408:96,2,195,2|2|2
272,244,152416,1,2
156,160,152851,1,2
272,76,153286,1,2
256,192,153503,12,2,155242
256,192,156981,5,4
176,72,157416,1,0
176,72,157633,1,0
40,120,158068,1,0
40,264,158503,1,2
176,312,158938,1,2
176,312,159155,2,0,B|376:312,2,195,2|2|2
256,192,160894,5,0
256,192,161112,1,0
184,68,161546,1,0
328,68,161981,1,2
396,192,162416,1,2
396,192,162633,2,0,B|388:302|276:324,2,195,2|2|2
268,128,164373,6,0,B|264:53|188:39,1,130
116,164,165242,2,0,B|39:178|36:252,1,130,0|2
160,328,166112,2,0,B|304:328,1,130
332,192,166981,2,0,B|464:192,1,130,0|2
400,64,167851,5,0
400,64,168068,1,2
256,48,168503,1,0
112,64,168938,1,0
112,64,169155,2,0,B|36:78|33:152,2,130
172,192,170460,1,0
172,192,170677,1,0
172,192,170894,5,4
256,308,171329,1,0
256,308,171546,2,0,B|412:308,3,130,0|0|2|2
448,276,173068,2,0,B|448:72,2,195,2|2|2
332,192,174807,5,0
332,192,175025,2,0,B|188:192,2,130,0|0|2
268,64,176329,1,2
268,64,176546,1,2
268,64,176764,2,0,B|404:64,2,130,2|2|0
196,64,177851,6,0,B|118:77|117:151,2,130,2|0|2
256,192,179155,2,0,B|333:205|334:279,2,130,0|2|0
128,256,180460,2,0,B|128:332,2,65,2|2|2
28,152,181329,6,0,B|28:20,2,130
88,192,182416,1,0
216,132,182851,1,2
344,192,183286,1,0
344,192,183503,2,0,B|421:178|422:104,2,130,2|0|0
216,252,184807,6,0,B|217:325|295:339,2,130,6|0|0
84,192,186112,1,0
84,192,186329,1,0
84,192,186546,1,2
184,88,186981,1,2
184,88,187199,1,2
324,72,187633,1,2
384,284,188286,6,0,B|488:284,2,97.5,6|2|2
332,236,189155,1,2
128,284,190025,6,0,B|24:284,2,97.5,2|2|2
180,236,190894,1,2
128,100,191764,6,0,B|24:100,2,97.5,2|2|2
180,148,192633,1,2
384,100,193503,6,0,B|488:100,2,97.5,2|2|2
332,148,194373,1,2
416,344,195242,6,0,B|475:339|478:265,2,97.5,2|2|2
348,316,196112,1,2
96,40,196981,6,0,B|36:44|33:118,2,97.5,2|2|2
164,68,197851,1,2
256,192,198720,12,4,202199
