osu file format v9

[General]
AudioFilename: Horie Yui & Yuzuki Ryoka - Emerald Radiation.mp3
AudioLeadIn: 0
PreviewTime: 24373
Countdown: 0
SampleSet: Normal
StackLeniency: 0.6
Mode: 0
LetterboxInBreaks: 0

[Editor]
DistanceSpacing: 1.1
BeatDivisor: 4
GridSize: 4

[Metadata]
Title:Emerald Radiation
Artist:Horie Yui & Yuzuki Ryoka
Creator:quintitem
Version:Hard
Source:Kaitou Tenshi Twin Angel 3
Tags:Pachislo ave;new feat. Tesla & Nine

[Difficulty]
HPDrainRate:5
CircleSize:4
OverallDifficulty:4
ApproachRate:6
SliderMultiplier:1.5
SliderTickRate:2

[Events]
//Background and Video events
0,0,"Nine_and_Tesla_2.jpg"
//Break Periods
2,122398,131583
2,202399,208105
//Storyboard Layer 0 (Background)
//Storyboard Layer 1 (Fail)
//Storyboard Layer 2 (Pass)
//Storyboard Layer 3 (Foreground)
Sprite,Foreground,CentreLeft,"StoryBoard\title.png",320,240 M,0,3938,4807,91,385,91,375 F,0,3938,4807,0,1 M,0,8286,9155,91,375,91,385 F,0,8286,9155,1,0
Sprite,Foreground,CentreLeft,"StoryBoard\aa.png",320,240 M,0,10894,,91,415 F,0,10894,11112,0,1 F,0,17199,17416,1,0
Sprite,Foreground,CentreLeft,"StoryBoard\ab.png",320,240 M,0,15677,,305,415 F,0,15677,15894,0,1 F,0,17199,17416,1,0
Sprite,Foreground,CentreLeft,"StoryBoard\ac.png",320,240 M,0,17851,,91,415 F,0,17851,18068,0,1 F,0,24155,24373,1,0
Sprite,Foreground,CentreLeft,"StoryBoard\ad.png",320,240 M,0,21329,,257,414 F,0,21329,21546,0,1 F,0,24155,24373,1,0
Sprite,Foreground,CentreLeft,"StoryBoard\ba.png",320,240 M,0,24590,,91,415 F,0,24590,24807,0,1 F,0,30677,30894,1,0
Sprite,Foreground,CentreLeft,"StoryBoard\bb.png",320,240 M,0,28068,,357,414 F,0,28068,28286,0,1 F,0,30677,30894,1,0
Sprite,Foreground,CentreLeft,"StoryBoard\bc.png",320,240 M,0,31112,,91,415 F,0,31112,31329,0,1 F,0,38068,38286,1,0
Sprite,Foreground,CentreLeft,"StoryBoard\bd.png",320,240 M,0,31764,,137,415 F,0,31764,31981,0,1 F,0,38068,38286,1,0
Sprite,Foreground,CentreLeft,"StoryBoard\be.png",320,240 M,0,35242,,441,415 F,0,35242,35459,0,1 F,0,38068,38286,1,0
Sprite,Foreground,CentreLeft,"StoryBoard\bf.png",320,240 M,0,38503,,91,415 F,0,38503,38720,0,1 F,0,45025,45242,1,0
Sprite,Foreground,CentreLeft,"StoryBoard\bg.png",320,240 M,0,41981,,335,415 F,0,41981,42199,0,1 F,0,45025,45242,1,0
Sprite,Foreground,CentreLeft,"StoryBoard\bh.png",320,240 M,0,45677,,91,415 F,0,45677,45894,0,1 F,0,55025,55242,1,0
Sprite,Foreground,CentreLeft,"StoryBoard\bi.png",320,240 M,0,48938,,301,415 F,0,48938,49155,0,1 F,0,55025,55242,1,0
Sprite,Foreground,CentreLeft,"StoryBoard\bj.png",320,240 M,0,54155,,485,415 F,0,54155,54373,0,1 F,0,55025,55242,1,0
Sprite,Foreground,CentreLeft,"StoryBoard\ca.png",320,240 M,0,56112,,91,415 F,0,56112,56329,0,1 F,0,61546,61764,1,0
Sprite,Foreground,CentreLeft,"StoryBoard\cb.png",320,240 M,0,58068,,213,415 F,0,58068,58286,0,1 F,0,61546,61764,1,0
Sprite,Foreground,CentreLeft,"StoryBoard\cc.png",320,240 M,0,63068,,91,415 F,0,63068,63286,0,1 F,0,68503,68720,1,0
Sprite,Foreground,CentreLeft,"StoryBoard\cd.png",320,240 M,0,66546,,371,415 F,0,66546,66764,0,1 F,0,68503,68720,1,0
Sprite,Foreground,CentreLeft,"StoryBoard\ce.png",320,240 M,0,69155,,91,415 F,0,69155,69373,0,1 F,0,75242,75459,1,0
Sprite,Foreground,CentreLeft,"StoryBoard\ce.png",320,240 M,0,70894,,178,415 F,0,70894,71112,0,1 F,0,75242,75459,1,0
Sprite,Foreground,CentreLeft,"StoryBoard\cg.png",320,240 M,0,72633,,265,415 F,0,72633,72851,0,1 F,0,75242,75459,1,0
Sprite,Foreground,CentreLeft,"StoryBoard\ch.png",320,240 M,0,75894,,91,415 F,0,75894,76112,0,1 F,0,83286,83503,1,0
Sprite,Foreground,CentreLeft,"StoryBoard\ci.png",320,240 M,0,77851,,204,415 F,0,77851,78068,0,1 F,0,83286,83503,1,0
Sprite,Foreground,CentreLeft,"StoryBoard\cj.png",320,240 M,0,79590,,317,415 F,0,79590,79807,0,1 F,0,83286,83503,1,0
Sprite,Foreground,CentreLeft,"StoryBoard\ck.png",320,240 M,0,83938,,91,415 F,0,83938,84155,0,1 F,0,88503,88720,1,0
Sprite,Foreground,CentreLeft,"StoryBoard\da.png",320,240 M,0,90677,,91,415 F,0,90677,90894,0,1 F,0,96764,96981,1,0
Sprite,Foreground,CentreLeft,"StoryBoard\db.png",320,240 M,0,94155,,308,415 F,0,94155,94373,0,1 F,0,96764,96981,1,0
Sprite,Foreground,CentreLeft,"StoryBoard\bc.png",320,240 M,0,97199,,91,415 F,0,97199,97416,0,1 F,0,104155,104373,1,0
Sprite,Foreground,CentreLeft,"StoryBoard\dd.png",320,240 M,0,97851,,137,415 F,0,97851,98068,0,1 F,0,104155,104373,1,0
Sprite,Foreground,CentreLeft,"StoryBoard\de.png",320,240 M,0,101329,,440,415 F,0,101329,101546,0,1 F,0,104155,104373,1,0
Sprite,Foreground,CentreLeft,"StoryBoard\df.png",320,240 M,0,104590,,91,415 F,0,104590,104807,0,1 F,0,111112,111329,1,0
Sprite,Foreground,CentreLeft,"StoryBoard\dg.png",320,240 M,0,108068,,355,415 F,0,108068,108286,0,1 F,0,111112,111329,1,0
Sprite,Foreground,CentreLeft,"StoryBoard\dh.png",320,240 M,0,111764,,91,415 F,0,111764,111981,0,1 F,0,121112,121329,1,0
Sprite,Foreground,CentreLeft,"StoryBoard\di.png",320,240 M,0,115242,,299,415 F,0,115242,115459,0,1 F,0,121112,121329,1,0
Sprite,Foreground,CentreLeft,"StoryBoard\dj.png",320,240 M,0,120242,,511,415 F,0,120242,120459,0,1 F,0,121112,121329,1,0
Sprite,Foreground,CentreLeft,"StoryBoard\ea.png",320,240 M,0,122199,,91,415 F,0,122199,122416,0,1 F,0,128503,128720,1,0
Sprite,Foreground,CentreLeft,"StoryBoard\eb.png",320,240 M,0,124155,,248,415 F,0,124155,124373,0,1 F,0,128503,128720,1,0
Sprite,Foreground,CentreLeft,"StoryBoard\ec.png",320,240 M,0,129155,,91,415 F,0,129155,129373,0,1 F,0,134590,134807,1,0
Sprite,Foreground,CentreLeft,"StoryBoard\ed.png",320,240 M,0,133068,,394,414 F,0,133068,133286,0,1 F,0,134590,134807,1,0
Sprite,Foreground,CentreLeft,"StoryBoard\ee.png",320,240 M,0,135242,,91,415 F,0,135242,135459,0,1 F,0,141329,141546,1,0
Sprite,Foreground,CentreLeft,"StoryBoard\ce.png",320,240 M,0,136981,,178,415 F,0,136981,137199,0,1 F,0,141329,141546,1,0
Sprite,Foreground,CentreLeft,"StoryBoard\eg.png",320,240 M,0,138720,,265,415 F,0,138720,138938,0,1 F,0,141329,141546,1,0
Sprite,Foreground,CentreLeft,"StoryBoard\eh.png",320,240 M,0,141981,,91,415 F,0,141981,142199,0,1 F,0,149373,149590,1,0
Sprite,Foreground,CentreLeft,"StoryBoard\ei.png",320,240 M,0,143938,,230,416 F,0,143938,144155,0,1 F,0,149373,149590,1,0
Sprite,Foreground,CentreLeft,"StoryBoard\ej.png",320,240 M,0,145677,,320,415 F,0,145677,145894,0,1 F,0,149373,149590,1,0
Sprite,Foreground,CentreLeft,"StoryBoard\ck.png",320,240 M,0,150025,,91,415 F,0,150025,150242,0,1 F,0,154590,154807,1,0
Sprite,Foreground,CentreLeft,"StoryBoard\ba.png",320,240 M,0,156764,,91,415 F,0,156764,156981,0,1 F,0,162851,163068,1,0
Sprite,Foreground,CentreLeft,"StoryBoard\bb.png",320,240 M,0,160242,,357,414 F,0,160242,160460,0,1 F,0,162851,163068,1,0
Sprite,Foreground,CentreLeft,"StoryBoard\bc.png",320,240 M,0,163286,,91,415 F,0,163286,163503,0,1 F,0,170242,170460,1,0
Sprite,Foreground,CentreLeft,"StoryBoard\bd.png",320,240 M,0,163938,,137,415 F,0,163938,164155,0,1 F,0,170242,170460,1,0
Sprite,Foreground,CentreLeft,"StoryBoard\be.png",320,240 M,0,167416,,441,415 F,0,167416,167633,0,1 F,0,170242,170460,1,0
Sprite,Foreground,CentreLeft,"StoryBoard\bf.png",320,240 M,0,170677,,91,415 F,0,170677,170894,0,1 F,0,177199,177416,1,0
Sprite,Foreground,CentreLeft,"StoryBoard\bg.png",320,240 M,0,174155,,335,415 F,0,174155,174373,0,1 F,0,177199,177416,1,0
Sprite,Foreground,CentreLeft,"StoryBoard\bh.png",320,240 M,0,177851,,91,415 F,0,177851,178068,0,1 F,0,187199,187416,1,0
Sprite,Foreground,CentreLeft,"StoryBoard\bi.png",320,240 M,0,181112,,301,415 F,0,181112,181329,0,1 F,0,187199,187416,1,0
Sprite,Foreground,CentreLeft,"StoryBoard\bj.png",320,240 M,0,186329,,485,415 F,0,186329,186547,0,1 F,0,187199,187416,1,0
Sprite,Foreground,CentreLeft,"StoryBoard\ga.png",320,240 M,0,188068,,91,415 F,0,188068,188286,0,1 F,0,194590,194807,1,0
Sprite,Foreground,CentreLeft,"StoryBoard\gb.png",320,240 M,0,191764,,330,415 F,0,191764,191981,0,1 F,0,194590,194807,1,0
Sprite,Foreground,CentreLeft,"StoryBoard\gc.png",320,240 M,0,195242,,91,415 F,0,195242,195459,0,1 F,0,201546,201764,1,0
Sprite,Foreground,CentreLeft,"StoryBoard\gd.png",320,240 M,0,198503,,253,415 F,0,198503,198720,0,1 F,0,201546,201764,1,0
Sprite,Foreground,CentreLeft,"StoryBoard\aa.png",320,240 M,0,209155,,91,415 F,0,209155,209373,0,1 F,0,215460,215677,1,0
Sprite,Foreground,CentreLeft,"StoryBoard\ab.png",320,240 M,0,213938,,305,415 F,0,213938,214155,0,1 F,0,215460,215677,1,0
Sprite,Foreground,CentreLeft,"StoryBoard\ac.png",320,240 M,0,216112,,91,415 F,0,216112,216329,0,1 F,0,222416,222634,1,0
Sprite,Foreground,CentreLeft,"StoryBoard\ad.png",320,240 M,0,219590,,257,414 F,0,219590,219807,0,1 F,0,222416,222634,1,0
Sprite,Foreground,CentreLeft,"StoryBoard\da.png",320,240 M,0,222851,,91,415 F,0,222851,223068,0,1 F,0,228938,229155,1,0
Sprite,Foreground,CentreLeft,"StoryBoard\db.png",320,240 M,0,226329,,308,415 F,0,226329,226547,0,1 F,0,228938,229155,1,0
Sprite,Foreground,CentreLeft,"StoryBoard\bc.png",320,240 M,0,229373,,91,415 F,0,229373,229590,0,1 F,0,236329,236547,1,0
Sprite,Foreground,CentreLeft,"StoryBoard\dd.png",320,240 M,0,230025,,137,415 F,0,230025,230242,0,1 F,0,236329,236547,1,0
Sprite,Foreground,CentreLeft,"StoryBoard\de.png",320,240 M,0,233503,,440,415 F,0,233503,233720,0,1 F,0,236329,236547,1,0
Sprite,Foreground,CentreLeft,"StoryBoard\df.png",320,240 M,0,236764,,91,415 F,0,236764,236981,0,1 F,0,243286,243503,1,0
Sprite,Foreground,CentreLeft,"StoryBoard\dg.png",320,240 M,0,240242,,355,415 F,0,240242,240460,0,1 F,0,243286,243503,1,0
Sprite,Foreground,CentreLeft,"StoryBoard\dh.png",320,240 M,0,243938,,91,415 F,0,243938,244155,0,1 F,0,253286,253503,1,0
Sprite,Foreground,CentreLeft,"StoryBoard\di.png",320,240 M,0,247416,,299,415 F,0,247416,247633,0,1 F,0,253286,253503,1,0
Sprite,Foreground,CentreLeft,"StoryBoard\dj.png",320,240 M,0,252416,,511,415 F,0,252416,252633,0,1 F,0,253286,253503,1,0
Sprite,Foreground,CentreLeft,"StoryBoard\ga.png",320,240 M,0,254155,,91,415 F,0,254155,254373,0,1 F,0,260677,260894,1,0
Sprite,Foreground,CentreLeft,"StoryBoard\gb.png",320,240 M,0,257851,,330,415 F,0,257851,258068,0,1 F,0,260677,260894,1,0
Sprite,Foreground,CentreLeft,"StoryBoard\gc.png",320,240 M,0,261329,,91,415 F,0,261329,261546,0,1 F,0,267633,267851,1,0
Sprite,Foreground,CentreLeft,"StoryBoard\gd.png",320,240 M,0,264590,,253,415 F,0,264590,264807,0,1 F,0,267633,267851,1,0
Sprite,Foreground,CentreLeft,"StoryBoard\ja.png",320,240 M,0,268286,,91,415 F,0,268286,268503,0,1 F,0,271546,271764,1,0
//Storyboard Sound Samples
//Background Colour Transformations
3,100,163,162,255

[TimingPoints]
460,434.782608695652,4,1,1,80,1,0
10459,-133.333333333333,4,1,1,5,0,0
10677,-133.333333333333,4,1,1,55,0,0
17851,-133.333333333333,4,1,1,45,0,0
17959,-133.333333333333,4,1,1,55,0,0
23177,-100,4,1,1,60,0,0
24807,-100,4,1,1,60,0,1
24916,-100,4,1,1,70,0,0
55459,-100,4,1,1,55,0,0
70025,-100,4,1,1,60,0,0
85677,-100,4,1,1,80,0,0
88720,-100,4,1,1,60,0,0
90894,-100,4,1,1,60,0,1
91003,-100,4,1,1,70,0,0
121546,-100,4,1,1,55,0,0
130894,-100,4,1,1,70,0,0
134807,-100,4,1,1,55,0,0
136112,-100,4,1,1,60,0,0
151764,-100,4,1,1,80,0,0
154807,-100,4,1,1,60,0,0
156981,-100,4,1,1,60,0,1
157090,-100,4,1,1,70,0,0
186438,-100,4,1,1,80,0,0
187633,-100,4,1,1,60,0,0
195242,-100,4,1,1,65,0,0
198286,-100,4,1,1,80,0,0
202199,-100,4,1,1,65,0,0
208720,-133.333333333333,4,1,1,55,0,0
216003,-133.333333333333,4,1,1,45,0,0
216220,-133.333333333333,4,1,1,60,0,0
221438,-100,4,1,1,65,0,0
223503,-100,4,1,1,60,0,1
223612,-100,4,1,1,70,0,0
252525,-100,4,1,1,80,0,0
253720,-100,4,1,1,60,0,0
261329,-100,4,1,1,65,0,0
273503,-100,4,1,1,5,0,0

[Colours]
Combo1 : 222,199,63
Combo2 : 52,194,137
Combo3 : 158,113,179
Combo4 : 114,114,114

[HitObjects]
256,192,9155,12,0,10459
120,124,10894,6,0,B|120:36,2,84.3749974854291,6|2|2
64,164,11764,2,0,B|64:292,1,112.499996647239,0|2
200,264,12633,2,0,B|200:352,2,84.3749974854291,2|2|2
256,224,13503,2,0,B|256:96,1,112.499996647239,0|2
392,120,14373,6,0,B|392:32,2,84.3749974854291,2|2|2
448,160,15242,2,0,B|448:288,1,112.499996647239,2|2
312,268,16112,2,0,B|312:356,2,84.3749974854291,2|2|2
256,228,16981,1,2
256,92,17416,6,0,B|256:16,2,56.2499983236194,0|0|6
156,112,18177,1,2
96,192,18503,1,2
96,192,18720,2,0,B|96:312,1,112.499996647239,0|10
228,332,19590,1,2
324,304,19916,1,2
384,224,20242,1,2
384,224,20459,2,0,B|384:104,1,112.499996647239,0|10
248,108,21329,6,0,B|247:42|317:31,2,112.499996647239,2|10|2
144,192,22633,2,0,B|80:192,2,56.2499983236194,10|0|2
256,192,23286,12,4,24807
192,92,25242,5,8
192,92,25459,2,0,B|104:92,1,75
104,160,25894,2,0,B|184:160,1,75,0|8
192,228,26329,2,0,B|104:228,1,75,2|0
104,296,26764,1,2
104,296,26981,2,0,B|336:296,1,225,10|2
380,252,27851,1,8
428,300,28068,6,0,B|428:360,2,37.5,2|0|2
476,172,28720,1,8
476,172,28938,2,0,B|476:84,1,75
408,84,29373,2,0,B|408:164,1,75,0|8
340,172,29807,2,0,B|340:84,1,75,2|0
272,84,30242,1,2
272,84,30459,2,0,B|133:86|130:242,1,225,10|2
108,292,31329,2,0,B|48:292,4,37.5,8|0|0|0|2
240,256,32199,6,0,B|333:264|336:363,2,150,8|0|8
220,124,33503,2,0,B|222:36|315:27,2,150,2|8|0
336,192,34807,2,0,B|484:192,2,150,8|2|8
296,244,35894,1,2
172,300,36329,2,0,B|100:264,1,75,0|8
144,212,36764,2,0,B|108:144,1,75
256,192,37199,12,4,38720
184,72,39155,5,8
184,72,39373,2,0,B|136:72|136:136,1,75
92,168,39807,2,0,B|92:224|156:224,1,75,0|8
180,268,40242,2,0,B|228:268|228:328,1,75,2|0
288,344,40677,1,2
348,316,40894,2,0,B|487:314|490:158,1,225,10|2
440,128,41764,1,8
392,176,41981,6,0,B|392:224,2,37.5,2|0|2
292,84,42633,2,0,B|292:36|344:36,2,75,8|0|0
244,132,43286,2,0,B|196:132|196:76,1,75,0|8
140,52,43720,2,0,B|96:52|96:104,1,75,2|0
52,152,44155,1,2
52,152,44373,1,10
52,152,44590,2,0,B|52:308,1,150,2|2
116,320,45242,2,0,B|116:368,4,37.5,8|0|0|0|2
248,288,46112,6,0,B|400:288,2,150,8|2|8
224,156,47416,2,0,B|68:156,2,150,2|8|2
276,116,48503,1,2
328,156,48720,2,0,B|419:147|421:59,2,150,10|0|8
328,224,49807,5,0
328,224,50025,2,0,B|328:304,2,75,0|0|8
260,224,50677,2,0,B|108:224,1,150,2|0
96,156,51329,2,0,B|244:156,1,150,10|0
260,88,51981,1,2
244,24,52199,2,0,B|204:24,4,37.5,8|0|0|0|6
380,28,53068,2,0,B|471:37|473:125,2,150,8|0|8
352,88,54155,5,0
352,88,54373,2,0,B|352:176,2,75,2|2|10
288,72,55025,2,0,B|197:81|195:169,1,150,2|2
148,216,55677,2,0,B|96:216,2,37.5,8|0|0
196,264,56112,6,0,B|197:351|288:360,2,150,6|8|0
312,192,57416,2,0,B|472:192,2,150,8|0|8
256,68,58720,2,0,B|256:24|312:24,2,75,0|0|8
208,116,59373,1,0
208,116,59590,6,0,B|48:116,1,150,2|8
32,180,60242,2,0,B|48:256,1,75
108,224,60677,2,0,B|160:288,1,75,0|8
204,236,61112,2,0,B|276:256,1,75
400,204,61764,2,0,B|400:352,2,150,8|0|8
444,152,62851,6,0,B|500:152,2,37.5,0|0|2
352,52,63503,2,0,B|200:52,2,150,8|0|8
256,148,64807,2,0,B|76:148,2,150,0|8|0
316,180,65894,2,0,B|316:260,2,75,0|8|0
256,192,66546,12,8,68720
256,120,69155,6,0,B|108:120,1,150,2|10
40,108,69807,2,0,B|40:60,2,37.5,2|0|6
128,212,70459,2,0,B|37:221|35:309,2,150,8|2|10
180,240,71546,2,0,B|180:288,2,37.5,2|0|2
308,192,72199,6,0,B|308:32,2,150,8|2|10
364,228,73286,2,0,B|416:228,2,37.5,2|0|2
256,312,73938,1,10
256,312,74155,2,0,B|164:264,1,75,2|0
224,220,74590,2,0,B|192:136,1,75,2|8
264,148,75025,2,0,B|96:148,1,150,2|2
52,124,75677,6,0,B|53:36|144:27,2,150,10|2|10
52,192,76764,2,0,B|52:256,2,37.5,2|0|2
172,256,77416,2,0,B|173:343|264:352,2,150,8|2|10
172,188,78503,2,0,B|172:124,2,37.5,2|0|2
304,168,79155,6,0,B|304:16,2,150,8|2|8
340,224,80242,2,0,B|340:276,2,37.5,2|0|2
472,192,80894,2,0,B|472:36,2,150,8|0|8
472,260,81981,2,0,B|472:356,2,75,2|2|2
412,228,82633,2,0,B|240:228,1,150,10|2
204,192,83286,1,2
148,228,83503,1,8
92,192,83720,6,0,B|44:192,2,37.5,0|0|2
152,72,84373,1,8
152,72,84590,1,2
288,72,85025,2,0,B|288:24,2,37.5,0|0|10
256,192,85677,12,8,88720
136,128,89155,6,0,B|136:40,2,75,2|2|10
188,172,89807,2,0,B|188:324,1,150,2|2
252,348,90460,1,8
316,324,90677,6,0,B|388:324,2,37.5,0|0|4
336,192,91329,1,8
336,192,91546,2,0,B|368:120,1,75
300,112,91981,2,0,B|228:156,1,75,0|8
172,128,92416,2,0,B|204:56,1,75,2|0
136,56,92851,1,2
136,56,93068,2,0,B|376:56,1,225,10|2
416,20,93938,1,8
468,60,94155,6,0,B|516:60,2,37.5,2|0|2
436,192,94807,2,0,B|484:192|484:248,2,75,8|0|0
372,172,95460,2,0,B|324:172|324:232,1,75,0|8
284,272,95894,2,0,B|232:272|232:212,1,75,2|0
184,184,96329,1,2
184,184,96546,2,0,B|92:192|90:280,1,150,10|0
56,340,97199,2,0,B|8:340,2,37.5,2|0|8
124,340,97633,1,0
124,340,97851,6,0,B|288:340,1,150,2|8
380,260,98720,2,0,B|220:260,1,150,0|8
124,176,99590,2,0,B|288:176,1,150,2|8
380,96,100460,2,0,B|220:96,1,150,0|8
168,72,101112,6,0,B|168:20,2,37.5,0|0|2
36,92,101764,1,8
36,92,101981,2,0,B|36:244,1,150,2|0
92,280,102633,2,0,B|140:280|140:336,2,75,8|0|0
256,192,103286,12,4,104807
144,72,105242,5,8
144,72,105460,1,0
212,72,105677,1,0
212,72,105894,2,0,B|304:72,1,75,0|8
332,124,106329,2,0,B|424:124,1,75,2|0
408,56,106764,1,2
408,56,106981,2,0,B|408:284,1,225,10|2
352,320,107851,1,8
300,276,108068,6,0,B|300:220,2,37.5,2|0|2
172,320,108720,1,8
124,272,108938,1,0
76,320,109155,1,0
28,272,109373,2,0,B|28:184,1,75,0|8
92,176,109807,2,0,B|92:92,1,75,2|0
156,76,110242,2,0,B|156:32|108:28,2,75,2|10|2
292,76,111112,2,0,B|292:28,2,37.5,2|0|8
336,132,111546,2,0,B|400:132,2,37.5,0|0|2
284,256,112199,6,0,B|193:265|191:353,1,150,8|2
60,316,113068,2,0,B|60:164,1,150,8|2
108,40,113938,2,0,B|198:49|200:136,1,150,8|2
256,176,114590,1,2
312,140,114807,1,10
368,176,115025,2,0,B|368:232,2,37.5
484,108,115677,6,0,B|484:12,2,75,8|0|0
484,176,116329,2,0,B|484:260,2,75,0|8|2
352,140,117199,1,0
352,140,117416,1,10
256,236,117851,2,0,B|256:320,2,75,0|2|8
196,208,118503,2,0,B|196:148,2,37.5,0|0|6
60,212,119155,2,0,B|60:360,2,150,8|0|8
68,144,120242,5,0
100,84,120460,1,2
156,48,120677,1,2
224,36,120894,1,10
292,36,121112,2,0,B|382:45|384:132,1,150,2|2
388,200,121764,2,0,B|440:200,4,37.5,8|0|0|0|4
256,192,132633,12,8,134807
184,52,135242,6,0,B|93:61|91:149,1,150,2|10
84,232,135894,2,0,B|32:232,2,37.5,2|0|6
220,328,136546,1,8
384,328,136981,2,0,B|475:319|477:231,1,150,2|10
480,148,137633,2,0,B|480:104,2,37.5,2|0|2
316,128,138286,1,8
256,280,138720,6,0,B|100:280,1,150,2|10
28,304,139373,2,0,B|28:356,2,37.5,2|0|2
64,144,140025,1,10
64,144,140242,2,0,B|136:120,1,75,2|0
136,36,140677,2,0,B|64:12,2,75,2|8|2
292,84,141546,1,2
292,84,141764,1,10
416,192,142199,5,2
308,316,142633,1,10
308,316,142851,2,0,B|308:380,2,37.5,2|0|2
144,292,143503,1,8
60,148,143938,1,2
208,76,144373,1,10
208,76,144590,2,0,B|208:12,2,37.5,2|0|2
324,192,145242,1,8
476,124,145677,6,0,B|476:276,1,150,2|8
400,304,146329,2,0,B|400:360,2,37.5,2|0|2
240,260,146981,2,0,B|149:269|147:357,2,150,8|0|8
240,344,148068,1,2
312,304,148286,1,2
312,220,148503,1,2
240,176,148720,2,0,B|68:176,1,150,10|2
52,252,149373,1,2
16,176,149590,1,8
52,100,149807,6,0,B|52:48,2,37.5,0|0|2
344,192,150460,1,8
344,192,150677,1,2
52,284,151112,2,0,B|52:332,2,37.5,0|0|10
256,192,151764,12,8,154807
184,132,155242,5,2
124,192,155460,1,2
184,252,155677,1,10
124,312,155894,2,0,B|187:371|257:310,1,150,2|2
424,192,156764,6,0,B|496:192,2,37.5,0|0|4
348,44,157416,1,0
348,44,157633,2,0,B|252:44,1,75
296,124,158068,2,0,B|200:124,1,75,0|8
244,204,158503,2,0,B|148:204,1,75,2|0
124,276,158938,1,2
124,276,159155,2,0,B|372:276,1,225,10|2
416,224,160025,1,8
480,276,160242,6,0,B|480:332,2,37.5,2|0|2
372,152,160894,1,8
372,152,161112,2,0,B|372:100|312:100,1,75
280,36,161546,2,0,B|234:10|204:61,1,75,0|8
136,24,161981,2,0,B|90:50|120:101,1,75,2|0
56,148,162416,1,2
56,148,162633,2,0,B|56:235|148:245,1,150,10|0
224,284,163286,2,0,B|224:328,2,37.5,2|0|8
300,248,163720,1,0
376,284,163938,5,2
332,124,164373,2,0,B|484:124,2,150,8|0|8
188,44,165677,1,2
68,156,166112,2,0,B|68:320,2,150,8|0|8
148,172,167199,6,0,B|148:120,2,37.5,0|0|2
312,192,167851,1,8
312,192,168068,1,2
312,192,168503,2,0,B|312:276,1,75,0|8
392,248,168938,2,0,B|392:164,1,75
256,192,169373,12,4,170894
152,132,171329,5,8
152,132,171546,2,0,B|198:144|187:208,1,75
148,262,171981,2,0,B|113:295|63:254,1,75,0|8
38,193,172416,2,0,B|25:146|86:123,1,75,2|0
112,60,172851,1,2
112,60,173068,2,0,B|348:60,1,225,10|2
388,124,173938,1,8
336,188,174155,6,0,B|276:188,2,37.5,2|0|2
468,284,174807,1,8
468,284,175025,1,0
404,336,175242,1,0
404,336,175460,2,0,B|316:336,1,75,0|8
268,284,175894,2,0,B|184:284,1,75,2|0
128,336,176329,1,2
64,284,176546,1,10
128,232,176764,1,2
60,80,177199,2,0,B|36:52,2,37.5,2|0|8
60,164,177633,2,0,B|36:192,2,37.5,0|0|2
220,128,178286,6,0,B|310:119|312:32,2,150,8|2|8
256,288,179590,1,2
412,344,180025,2,0,B|412:196,1,150,8|2
412,112,180677,1,2
412,112,180894,1,10
412,112,181112,2,0,B|476:112,2,37.5
248,112,181764,5,8
208,40,181981,1,0
124,40,182199,1,0
80,112,182416,2,0,B|36:112|36:56,2,75,0|8|2
64,276,183286,1,0
64,276,183503,2,0,B|220:276,1,150,10|0
256,348,184155,1,2
256,348,184373,1,8
256,348,184590,6,0,B|320:348,2,37.5,0|0|6
36,192,185242,1,8
256,36,185677,1,0
476,192,186112,1,8
476,108,186329,5,0
404,148,186546,1,2
404,236,186764,1,2
476,276,186981,1,10
476,192,187199,2,0,B|304:192,1,150,2|2
256,148,187851,2,0,B|256:100,4,37.5,8|0|0|0|6
96,192,188720,6,0,B|96:344,2,150,8|2|8
256,152,190025,2,0,B|253:63|163:54,2,150,2|8|2
416,192,191329,1,8
416,192,191546,1,0
416,192,191764,6,0,B|416:348,1,150,2|8
256,296,192633,2,0,B|256:140,1,150,2|8
96,96,193503,2,0,B|96:248,1,150,2|8
32,296,194155,1,0
96,348,194373,2,0,B|264:348,1,150,2|8
328,348,195025,6,0,B|368:348,2,37.5,0|0|2
384,192,195677,2,0,B|474:182|476:94,2,150,8|2|8
232,132,196981,2,0,B|229:43|139:34,2,150,2|8|2
256,192,198286,12,4,202199
104,116,209155,6,0,B|53:110|56:48,2,84.3749974854291,6|2|2
184,140,210025,2,0,B|304:140,1,112.499996647239,0|10
408,268,210894,2,0,B|458:273|456:336,2,84.3749974854291,2|2|2
328,244,211764,2,0,B|208:244,1,112.499996647239,0|10
56,192,212633,5,2
92,72,212960,2,0,B|124:96,1,28.1249991618097,2|8
184,136,213286,1,2
184,136,213503,2,0,B|316:136,1,112.499996647239,2|10
456,192,214373,1,2
436,316,214699,1,2
328,248,215025,1,2
328,248,215242,2,0,B|196:248,1,112.499996647239,10|8
148,300,215894,1,0
80,248,216112,5,6
80,120,216438,2,0,B|112:84,1,28.1249991618097,2|8
172,56,216764,1,2
172,56,216981,2,0,B|304:56,1,112.499996647239,0|10
432,136,217851,1,2
432,264,218177,2,0,B|400:300,1,28.1249991618097,2|8
340,328,218503,1,2
340,328,218720,2,0,B|208:328,1,112.499996647239,0|10
76,252,219590,6,0,B|76:136,1,112.499996647239,2|10
216,44,220460,2,0,B|216:164,1,112.499996647239,2|10
216,240,221112,1,0
216,240,221329,1,2
256,192,221546,12,0,223068
148,116,223503,5,12
148,116,223720,2,0,B|176:72|136:32,1,75
64,48,224155,2,0,B|36:92|76:132,1,75,0|8
72,200,224590,2,0,B|116:228|156:188,1,75,2|0
216,160,225025,1,2
284,204,225242,2,0,B|423:202|426:46,1,225,10|2
348,32,226112,1,8
272,64,226329,6,0,B|272:112,2,37.5,2|0|2
108,48,226981,1,8
48,108,227199,1,0
108,164,227416,1,0
48,220,227633,2,0,B|48:276|120:276,1,75,0|8
140,340,228068,2,0,B|182:342|182:286,1,75,2|0
228,220,228503,1,2
188,148,228720,2,0,B|348:148,1,150,10|0
412,108,229373,2,0,B|412:72,6,37.5,2|0|8|0|0|0|2
468,264,230460,6,0,B|440:348|348:333,1,150,8|0
72,248,231329,2,0,B|12:184|71:110,1,150,8|2
356,40,232199,2,0,B|440:16|475:108,2,150,8|0|8
276,60,233286,6,0,B|276:8,2,37.5,0|0|2
124,120,233938,1,8
124,120,234155,2,0,B|124:276,1,150,2|0
56,316,234807,1,8
124,360,235025,1,0
192,316,235242,1,0
256,192,235460,12,4,236981
164,80,237416,5,8
92,116,237633,1,0
164,80,237851,1,0
92,116,238068,2,0,B|92:196,1,75,0|8
164,228,238503,2,0,B|164:148,1,75,2|0
236,116,238938,1,2
312,80,239155,2,0,B|451:82|454:238,1,225,10|2
400,284,240025,1,8
456,344,240242,6,0,B|516:344,2,37.5,2|0|2
292,344,240894,1,8
248,276,241112,1,0
328,252,241329,1,0
292,180,241546,2,0,B|292:128|232:128,1,75,0|8
176,84,241981,2,0,B|131:82|131:134,1,75,2|0
72,192,242416,2,0,B|27:193|27:141,2,75,2|10|2
184,312,243286,2,0,B|184:364,2,37.5,2|0|8
268,312,243720,2,0,B|268:364,2,37.5,0|0|2
480,267,244373,6,0,B|480:119,2,150,8|2|8
32,117,245677,2,0,B|32:265,2,150,2|8|2
100,72,246764,5,2
168,117,246981,1,10
236,72,247199,2,0,B|236:32,2,37.5
392,120,247851,5,8
448,180,248068,1,0
392,240,248286,2,0,B|392:316,2,75,0|0|8
336,180,248938,2,0,B|243:190|243:277,1,150,2|0
324,280,249590,2,0,B|168:280,1,150,10|0
92,260,250242,1,2
40,196,250460,1,8
32,116,250677,2,0,B|32:72,2,37.5,0|0|6
32,116,251329,1,8
32,116,251764,1,0
32,116,252199,1,8
112,104,252416,5,0
161,36,252633,1,2
242,62,252851,1,2
242,147,253068,1,10
161,173,253286,2,0,B|161:325,1,150,2|2
244,308,253938,2,0,B|244:360,4,37.5,8|0|0|0|6
472,328,254807,6,0,B|468:239|379:230,2,150,8|2|8
40,56,256112,2,0,B|43:144|132:153,2,150,2|8|2
256,192,257416,5,8
256,192,257633,1,0
256,192,257851,2,0,B|259:103|348:94,1,150,2|8
256,192,258720,2,0,B|331:239|294:320,1,150,2|8
256,192,259590,2,0,B|177:233|125:161,1,150,2|8
92,92,260242,1,0
148,44,260460,2,0,B|226:2|278:74,1,150,2|8
352,96,261112,2,0,B|352:56,2,37.5,0|0|2
468,192,261764,6,0,B|468:352,1,150,8|2
256,192,262633,2,0,B|256:32,1,150,8|2
44,192,263503,2,0,B|44:352,1,150,8|2
256,192,264373,12,8,266981
176,64,267416,6,0,B|128:64,8,37.5,2|0|0|0|8|0|0|0|6
176,148,268503,2,0,B|92:148,1,75,0|8
100,232,268938,2,0,B|188:232,1,75,2|0
236,288,269373,1,0
176,344,269590,1,14
256,192,269807,12,0,273503
