osu file format v13

[General]
AudioFilename: Ichizuna Omoi.mp3
AudioLeadIn: 2000
PreviewTime: 75486
Countdown: 0
SampleSet: Soft
StackLeniency: 0.7
Mode: 0
LetterboxInBreaks: 0
WidescreenStoryboard: 0

[Editor]
DistanceSpacing: 1.5
BeatDivisor: 4
GridSize: 4
TimelineZoom: 1.7

[Metadata]
Title:Ichizuna Omoi
TitleUnicode:一途な想い
Artist:Horie Shouta
ArtistUnicode:堀江 晶太
Creator:Hinsvar
Version:Silence
Source:Strike the Blood
Tags:ORIGINAL SOUNDTRACK Vol.1 ストライク・ザ・ブラッド ASSUMED SOUNDS
BeatmapID:426458
BeatmapSetID:165104

[Difficulty]
HPDrainRate:7
CircleSize:5
OverallDifficulty:6.5
ApproachRate:7.7
SliderMultiplier:3.2
SliderTickRate:1

[Events]
//Background and Video events
0,0,"kiss.jpg",0,0
//Break Periods
//Storyboard Layer 0 (Background)
//Storyboard Layer 1 (Fail)
//Storyboard Layer 2 (Pass)
//Storyboard Layer 3 (Foreground)
//Storyboard Sound Samples
//Background Colour Transformations
3,100,163,162,255

[TimingPoints]
-3050,1176.47058823529,4,2,1,30,1,0
4891,-100,4,2,1,20,0,0
5185,-100,4,2,1,25,0,0
5773,-100,4,2,1,30,0,0
8139,1034.48275862069,4,2,1,30,1,0
10165,1176.47058823529,4,2,1,30,1,0
11037,1176.47058823529,4,2,1,30,1,0
23684,-100,4,2,1,20,0,0
23978,-100,4,2,1,25,0,0
24566,-100,4,2,1,30,0,0
28757,1132.07547169811,4,2,1,30,1,0
29898,1176.47058823529,4,2,1,30,1,0
38133,-100,4,2,1,15,0,0
39004,1176.47058823529,4,2,1,30,1,0
39298,1176.47058823529,4,2,1,30,1,0
49869,1176.47058823529,4,2,1,30,1,0
51074,1176.47058823529,4,2,1,30,1,0
53426,1176.47058823529,4,2,1,30,1,0
58131,1176.47058823529,4,2,1,30,1,0
59846,1176.47058823529,4,2,1,30,1,0
60483,1176.47058823529,4,2,1,30,1,0
75778,-100,4,2,1,40,0,0
76954,-100,4,2,1,50,0,1
78719,-100,4,2,1,15,0,1
79307,-100,4,2,1,50,0,1
80189,-100,4,2,1,30,0,1
80483,-100,4,2,1,35,0,1
81072,-100,4,2,1,40,0,1
81660,-100,4,2,1,50,0,1
92248,-100,4,2,1,60,0,1
93425,-100,4,2,1,50,0,1
95165,1176.47058823529,4,2,1,50,1,1
95753,1176.47058823529,4,2,1,50,1,1
103988,-100,4,2,1,15,0,1
104662,1176.47058823529,4,2,1,50,1,1
105203,1176.47058823529,4,2,1,30,1,0
105203,-200,4,2,1,30,0,0
107581,1176.47058823529,4,2,1,30,1,0
107581,-200,4,2,1,30,0,0
108538,769.230769230769,4,2,1,30,1,0
108538,-200,4,2,1,30,0,0
108922,722.89156626506,4,2,1,30,1,0
108922,-200,4,2,1,30,0,0
110515,769.230769230769,4,2,1,30,1,0
110515,-200,4,2,1,30,0,0
110998,697.674418604651,4,2,1,30,1,0
110998,-200,4,2,1,30,0,0
111695,722.89156626506,4,2,1,30,1,0
111695,-200,4,2,1,30,0,0
112445,909.090909090909,4,2,1,30,1,0
112445,-200,4,2,1,30,0,0
113515,1016.94915254237,4,2,1,30,1,0
113515,-200,4,2,1,30,0,0
114470,1016.94915254237,4,2,1,30,1,0
114470,-200,4,2,1,30,0,0
114724,-200,4,2,1,5,0,0
123639,1016.94915254237,4,2,1,5,1,0

[Colours]
Combo1 : 203,174,58
Combo2 : 70,163,255

[HitObjects]
38,186,479,5,0,0:0:0:0:
118,238,773,1,2,0:0:0:0:
198,186,1067,1,2,0:0:0:0:
288,134,1361,1,0,0:0:0:0:
387,186,1655,6,0,P|427:193|466:181,2,80,2|0|0,0:0|0:0|0:0,0:0:0:0:
256,71,2538,2,0,P|317:28|362:83,1,160,2|0,0:0|0:0,0:0:0:0:
204,152,3420,1,2,0:0:0:0:
204,152,4008,6,0,B|173:178|125:153|125:153|78:127|45:156,1,160,2|0,0:0|0:0,0:0:0:0:
14,237,4891,1,0,0:0:0:0:
208,346,5185,5,0,0:0:0:0:
302,248,5479,1,2,0:0:0:0:
204,152,5773,1,0,0:0:0:0:
111,250,6067,1,2,0:0:0:0:
370,318,6361,6,0,P|399:250|362:172,1,160,2|0,0:0|0:0,0:0:0:0:
65,160,7244,2,0,P|11:249|88:348,1,240,2|2,0:0|0:0,0:0:0:0:
304,249,8656,5,2,0:0:0:0:
304,249,10165,5,2,0:0:0:0:
192,133,10459,1,2,0:0:0:0:
149,287,10753,1,0,0:0:0:0:
315,151,11037,6,0,P|396:213|361:333,1,240,0|2,0:0|0:0,0:0:0:0:
171,211,12213,1,2,0:0:0:0:
171,211,13095,1,2,0:0:0:0:
102,355,13389,6,0,P|206:377|286:283,1,240,2|2,0:0|0:0,0:0:0:0:
126,98,14566,1,2,0:0:0:0:
126,98,15448,1,2,0:0:0:0:
294,267,15742,6,0,B|330:204|298:150|298:150|264:82|306:19,1,240,2|2,0:0|0:0,0:0:0:0:
391,271,16919,2,0,P|253:348|203:228,1,320,2|2,0:0|0:0,0:0:0:0:
433,112,18684,1,0,0:0:0:0:
433,112,19272,5,0,0:0:0:0:
339,221,19566,1,2,0:0:0:0:
220,139,19860,1,0,0:0:0:0:
314,35,20154,1,2,0:0:0:0:
418,281,20448,6,0,P|341:317|272:292,1,160,0|0,0:0|0:0,0:0:0:0:
215,216,21331,2,0,P|137:199|76:252,1,160,2|0,0:0|0:0,0:0:0:0:
160,291,22213,1,0,0:0:0:0:
160,291,22801,2,0,P|129:213|157:134,1,160,2|0,0:0|0:0,0:0:0:0:
222,79,23684,1,0,0:0:0:0:
294,142,23978,5,0,0:0:0:0:
183,257,24272,1,2,0:0:0:0:
68,144,24566,1,0,0:0:0:0:
179,29,24860,1,2,0:0:0:0:
327,223,25154,6,0,P|400:240|476:200,1,160,2|0,0:0|0:0,0:0:0:0:
247,152,26036,2,0,B|199:194|234:263|234:263|265:316|229:374,1,240,2|2,0:0|0:0,0:0:0:0:
42,125,27507,6,0,P|104:78|189:88,1,160,2|0,0:0|0:0,0:0:0:0:
182,84,28757,1,2,0:0:0:0:
277,212,29040,1,0,0:0:0:0:
374,84,29323,1,2,0:0:0:0:
469,212,29606,1,0,0:0:0:0:
220,279,29889,6,0,P|195:172|299:123,1,240,2|2,0:0|0:0,0:0:0:0:
384,245,31074,1,2,0:0:0:0:
384,245,31956,1,2,0:0:0:0:
195,334,32250,6,0,P|68:333|61:231,1,240,2|2,0:0|0:0,0:0:0:0:
204,185,33427,1,2,0:0:0:0:
204,185,34309,1,2,0:0:0:0:
306,62,34603,6,0,P|333:90|351:138,1,80,2|0,0:0|0:0,0:0:0:0:
340,287,35192,2,0,P|313:259|295:211,1,80,0|2,0:0|0:0,0:0:0:0:
472,78,35780,5,2,0:0:0:0:
386,212,36074,1,0,0:0:0:0:
297,78,36368,1,2,0:0:0:0:
297,78,36956,6,0,B|206:61|158:160|158:160|80:114|119:39,1,320,2|0,0:0|0:0,0:0:0:0:
119,38,39004,1,0,0:0:0:0:
264,243,39298,5,2,0:0:0:0:
349,127,39592,1,0,0:0:0:0:
407,258,39886,1,0,0:0:0:0:
209,141,40181,6,0,P|150:178|152:268,1,160,2|0,0:0|0:0,0:0:0:0:
264,347,41063,1,0,0:0:0:0:
373,253,41357,1,2,0:0:0:0:
190,46,41651,5,2,0:0:0:0:
263,169,41945,1,0,0:0:0:0:
334,43,42239,1,0,0:0:0:0:
303,258,42534,6,0,B|280:280|232:280|232:280|153:218|83:289,1,240,2|2,0:0|0:0,0:0:0:0:
162,343,43710,1,0,0:0:0:0:
236,165,44004,5,2,0:0:0:0:
78,178,44298,1,0,0:0:0:0:
236,165,44592,1,0,0:0:0:0:
51,252,44886,6,0,P|8:140|112:108,1,240,0|2,0:0|0:0,0:0:0:0:
195,240,46062,1,0,0:0:0:0:
276,83,46356,6,0,B|331:49|392:83|392:83|456:121|511:84,2,240,2|2|2,0:0|0:0|0:0,0:0:0:0:
444,276,48709,5,0,0:0:0:0:
460,277,49297,1,2,0:0:0:0:
221,347,49869,5,0,0:0:0:0:
205,348,50457,1,2,0:0:0:0:
207,92,51074,6,0,P|305:28|412:88,1,240,2|2,0:0|0:0,0:0:0:0:
318,331,52250,2,0,B|294:291|294:291|282:264|350:192|334:153|334:153|308:111,1,240,2|2,0:0|0:0,0:0:0:0:
194,224,53426,5,2,0:0:0:0:
100,246,53720,1,0,0:0:0:0:
23,187,54014,1,0,0:0:0:0:
35,91,54308,1,0,0:0:0:0:
121,49,54602,2,0,B|187:28|240:76|240:76|186:188|291:241,1,320,2|2,0:0|0:0,0:0:0:0:
443,36,56955,5,2,0:0:0:0:
256,211,57543,1,2,0:0:0:0:
69,36,58131,5,2,0:0:0:0:
159,147,58425,1,0,0:0:0:0:
215,14,58719,1,0,0:0:0:0:
100,196,59013,2,0,B|154:240|212:199|212:199|236:213|264:200,1,160,2|0,0:0|0:0,0:0:0:0:
98,278,59846,1,0,0:0:0:0:
159,147,60140,1,2,0:0:0:0:
303,297,60483,6,0,P|345:304|382:288,2,80,2|0|0,0:0|0:0|0:0,0:0:0:0:
119,198,61366,2,0,P|195:174|177:292,1,240,2|2,0:0|0:0,0:0:0:0:
115,97,62542,1,0,0:0:0:0:
280,159,62836,5,2,0:0:0:0:
280,159,63130,2,0,P|319:164|365:152,1,80
247,230,63719,2,0,P|316:240|403:218,1,160,2|0,0:0|0:0,0:0:0:0:
354,75,64601,2,0,P|315:70|269:82,1,80,0|2,0:0|0:0,0:0:0:0:
145,260,65189,6,0,B|180:224|142:153|142:153|100:73|145:26,2,240,0|2|2,0:0|0:0|0:0,0:0:0:0:
81,332,67248,1,0,0:0:0:0:
159,188,67542,6,0,B|239:179|239:179|317:215,1,160,0|2,0:0|0:0,0:0:0:0:
469,103,68719,2,0,B|389:112|389:112|311:76,1,160,2|2,0:0|0:0,0:0:0:0:
73,22,69895,6,0,B|137:24|183:72|183:72|227:21|290:15,1,240,2|0,0:0|0:0,0:0:0:0:
242,175,71072,2,0,P|317:98|399:170,1,240,2|2,0:0|0:0,0:0:0:0:
259,254,72248,5,2,0:0:0:0:
164,236,72542,1,0,0:0:0:0:
302,202,72836,5,0,0:0:0:0:
124,289,73130,1,2,0:0:0:0:
323,268,73425,6,0,B|405:220|355:153|340:132|340:132|453:124|432:28,1,320,0|2,0:0|0:0,0:0:0:0:
81,32,75778,5,0,0:0:0:0:
99,142,76072,1,2,0:0:0:0:
196,225,76366,1,0,0:0:0:0:
352,258,76660,1,2,0:0:0:0:
290,18,76954,5,2,0:0:0:0:
290,177,77248,1,0,0:0:0:0:
202,95,77542,1,0,0:0:0:0:
372,95,77836,2,0,P|404:175|376:249,1,160,2|0,0:0|0:0,0:0:0:0:
207,162,78719,1,2,0:0:0:0:
207,162,79307,6,0,B|157:123|91:184|44:154,1,160,2|0,0:0|0:0,0:0:0:0:
83,84,80189,1,0,0:0:0:0:
166,230,80483,5,0,0:0:0:0:
203,73,80778,1,2,0:0:0:0:
261,264,81072,5,0,0:0:0:0:
107,45,81366,1,2,0:0:0:0:
305,98,81660,6,0,P|378:106|451:43,1,160,2|0,0:0|0:0,0:0:0:0:
231,35,82542,2,0,B|190:92|230:165|230:165|175:155|130:191,1,240,2|2,0:0|0:0,0:0:0:0:
427,356,84013,5,2,0:0:0:0:
471,253,84307,1,0,0:0:0:0:
409,169,84601,1,0,0:0:0:0:
449,81,84895,2,0,P|377:78|318:137,1,160,0|2,0:0|0:0,0:0:0:0:
309,294,85778,2,0,P|329:266|325:215,1,80,2|0,0:0|0:0,0:0:0:0:
39,246,86366,6,0,B|93:262|134:194|134:194|191:154|249:192,1,240,2|2,0:0|0:0,0:0:0:0:
336,384,87542,2,0,B|205:394|237:321|237:321|192:298|195:247,1,240,2|2,0:0|0:0,0:0:0:0:
320,48,88719,2,0,B|353:90|320:143|320:143|354:229|263:254,1,240,2|2,0:0|0:0,0:0:0:0:
164,105,89895,2,0,B|236:90|311:130|311:130|348:99|421:94,1,240,2|2,0:0|0:0,0:0:0:0:
307,343,91072,6,0,B|284:330|271:308|271:308|248:246|318:205|318:205|281:210|241:175,1,240,2|0,0:0|0:0,0:0:0:0:
107,243,92248,2,0,B|88:304|142:333|142:333|200:268|275:298|275:298|299:284|348:279,1,320,2|2,0:0|0:0,0:0:0:0:
228,121,94013,1,0,0:0:0:0:
490,191,94601,5,2,0:0:0:0:
365,291,94895,1,0,0:0:0:0:
265,182,95165,1,0,0:0:0:0:
390,82,95459,1,2,0:0:0:0:
447,343,95753,5,2,0:0:0:0:
281,271,96047,1,0,0:0:0:0:
426,166,96341,1,0,0:0:0:0:
249,342,96635,2,0,P|201:285|227:211,1,160,2|0,0:0|0:0,0:0:0:0:
358,270,97517,1,2,0:0:0:0:
113,345,98105,6,0,B|101:307|101:307|131:238|131:238|111:194,1,160,2|0,0:0|0:0,0:0:0:0:
79,106,98988,1,2,0:0:0:0:
208,218,99282,5,0,0:0:0:0:
255,107,99576,1,2,0:0:0:0:
353,38,99870,1,2,0:0:0:0:
450,107,100164,1,2,0:0:0:0:
490,218,100458,6,0,P|454:324|336:315,2,240,0|2|2,0:0|0:0|0:0,0:0:0:0:
314,79,102811,2,0,P|276:165|369:132,1,240,2|0,0:0|0:0,0:0:0:0:
413,50,103988,1,2,0:0:0:0:
256,276,104662,1,2,0:0:0:0:
99,50,105203,6,0,P|74:98|91:158,1,120,2|2,0:0|0:0,0:0:0:0:
216,108,106379,1,0,0:0:0:0:
40,313,107581,5,2,0:0:0:0:
235,273,108538,1,0,0:0:0:0:
121,233,108922,6,0,P|86:167|120:92,1,160,0|2,0:0|0:0,0:0:0:0:
416,66,110515,5,2,0:0:0:0:
298,295,110998,5,2,0:0:0:0:
270,219,111346,1,0,0:0:0:0:
246,140,111695,1,0,0:0:0:0:
334,161,112056,5,0,0:0:0:0:
192,226,112445,1,2,0:0:0:0:
372,291,112899,1,0,0:0:0:0:
49,344,113515,5,2,0:0:0:0:
463,40,114470,5,2,0:0:0:0:
256,192,114724,12,0,117520,0:0:0:0:
