osu file format v13

[General]
AudioFilename: Ichizuna Omoi.mp3
AudioLeadIn: 2000
PreviewTime: 75486
Countdown: 0
SampleSet: Soft
StackLeniency: 0.7
Mode: 0
LetterboxInBreaks: 0
WidescreenStoryboard: 0

[Editor]
DistanceSpacing: 1
BeatDivisor: 4
GridSize: 4
TimelineZoom: 1.2

[Metadata]
Title:Ichizuna Omoi
TitleUnicode:一途な想い
Artist:Horie Shouta
ArtistUnicode:堀江 晶太
Creator:Hinsvar
Version:Normal
Source:Strike the Blood
Tags:ORIGINAL SOUNDTRACK Vol.1 ストライク・ザ・ブラッド ASSUMED SOUNDS
BeatmapID:401660
BeatmapSetID:165104

[Difficulty]
HPDrainRate:4
CircleSize:3
OverallDifficulty:2.5
ApproachRate:3
SliderMultiplier:1.8
SliderTickRate:1

[Events]
//Background and Video events
0,0,"kiss.jpg",0,0
//Break Periods
//Storyboard Layer 0 (Background)
//Storyboard Layer 1 (Fail)
//Storyboard Layer 2 (Pass)
//Storyboard Layer 3 (Foreground)
//Storyboard Sound Samples
//Background Colour Transformations
3,100,163,162,255

[TimingPoints]
-3050,1176.47058823529,4,2,1,30,1,0
8139,1034.48275862069,4,2,1,30,1,0
10165,1176.47058823529,4,2,1,30,1,0
11037,1176.47058823529,4,2,1,30,1,0
28757,1132.07547169811,4,2,1,30,1,0
29898,1176.47058823529,4,2,1,30,1,0
38133,-100,4,2,1,15,0,0
39004,1176.47058823529,4,2,1,30,1,0
39298,1176.47058823529,4,2,1,30,1,0
49869,1176.47058823529,4,2,1,30,1,0
51074,1176.47058823529,4,2,1,30,1,0
53426,1176.47058823529,4,2,1,30,1,0
56955,-100,4,2,1,40,0,0
58131,1176.47058823529,4,2,1,30,1,0
59851,1176.47058823529,4,2,1,30,1,0
60483,1176.47058823529,4,2,1,30,1,0
75778,-100,4,2,1,40,0,0
76954,-100,4,2,1,50,0,1
78719,-100,4,2,1,15,0,1
79307,-100,4,2,1,50,0,1
92248,-100,4,2,1,60,0,1
93425,-100,4,2,1,50,0,1
95165,1176.47058823529,4,2,1,50,1,1
95753,1176.47058823529,4,2,1,50,1,1
103988,-100,4,2,1,15,0,1
104662,1176.47058823529,4,2,1,50,1,1
105203,1176.47058823529,4,2,1,30,1,0
107581,1176.47058823529,4,2,1,30,1,0
108538,769.230769230769,4,2,1,30,1,0
108922,722.89156626506,4,2,1,30,1,0
108922,-133.333333333333,4,2,1,30,0,0
110515,769.230769230769,4,2,1,30,1,0
110998,697.674418604651,4,2,1,30,1,0
111695,722.89156626506,4,2,1,30,1,0
112445,909.090909090909,4,2,1,30,1,0
113515,1016.94915254237,4,2,1,30,1,0
114470,1016.94915254237,4,2,1,30,1,0
114724,-100,4,2,1,5,0,0

[Colours]
Combo1 : 203,174,58
Combo2 : 70,163,255

[HitObjects]
200,282,479,6,0,P|244:294|292:270,1,90,2|2,0:0|0:0,0:0:0:0:
370,213,1655,6,0,P|437:192|501:207,2,135,2|2|2,0:0|0:0|0:0,0:0:0:0:
289,285,4008,1,2,0:0:0:0:
88,363,5184,1,2,0:0:0:0:
29,272,5772,1,2,0:0:0:0:
20,165,6361,6,0,P|36:97|128:49,1,180,2|0,0:0|0:0,0:0:0:0:
239,108,8139,2,0,P|280:121|323:108,1,90,2|2,0:0|0:0,0:0:0:0:
486,332,10165,2,0,L|494:388,2,45,2|0|2,0:0|0:0|0:0,0:0:0:0:
465,285,11037,6,0,P|381:261|305:313,1,180,2|2,0:0|0:0,0:0:0:0:
148,332,13095,1,2,0:0:0:0:
112,292,13389,2,0,P|90:217|128:116,1,180,2|2,0:0|0:0,0:0:0:0:
280,152,15448,1,2,0:0:0:0:
320,188,15742,6,0,P|408:160|420:68,2,180,2|2|2,0:0|0:0|0:0,0:0:0:0:
104,173,19272,2,0,L|48:167,1,45,0|2,0:0|0:0,0:0:0:0:
62,222,19860,2,0,L|10:242,1,45,0|2,0:0|0:0,0:0:0:0:
28,291,20448,6,0,P|88:306|172:280,2,135,2|0|0,0:0|0:0|0:0,0:0:0:0:
4,185,22801,2,0,P|-8:141|8:93,1,90,2|0,0:0|0:0,0:0:0:0:
107,69,23978,2,0,P|115:90|118:124,1,45,0|2,0:0|0:0,0:0:0:0:
119,166,24566,2,0,P|115:188|101:219,1,45,0|2,0:0|0:0,0:0:0:0:
93,261,25154,6,0,P|166:311|264:295,1,180,2|0,0:0|0:0,0:0:0:0:
310,209,26919,1,2,0:0:0:0:
257,114,27507,2,0,P|212:103|166:118,1,90,2|0,0:0|0:0,0:0:0:0:
143,238,28757,6,0,L|134:290,1,45,0|2,0:0|0:0,0:0:0:0:
188,290,29323,2,0,L|179:342,1,45,0|2,0:0|0:0,0:0:0:0:
227,360,29898,6,0,P|319:344|353:265,1,180,2|2,0:0|0:0,0:0:0:0:
318,58,32250,2,0,P|226:74|192:153,1,180,2|2,0:0|0:0,0:0:0:0:
179,365,34603,6,0,P|135:373|79:349,1,90,2|0,0:0|0:0,0:0:0:0:
39,266,35780,1,2,0:0:0:0:
109,175,36368,1,0,0:0:0:0:
204,227,36956,2,0,B|254:237|289:201|289:201|323:238|372:219,1,180,2|0,0:0|0:0,0:0:0:0:
480,106,39004,1,0,0:0:0:0:
480,106,39298,6,0,P|492:59|482:16,2,90,2|0|0,0:0|0:0|0:0,0:0:0:0:
400,179,41062,1,0,0:0:0:0:
310,123,41650,2,0,P|291:58|313:-4,2,135,2|2|2,0:0|0:0|0:0,0:0:0:0:
370,214,44003,6,0,P|387:277|357:359,2,135,2|0|2,0:0|0:0|0:0,0:0:0:0:
297,134,46356,1,2,0:0:0:0:
210,271,47239,1,2,0:0:0:0:
120,136,48121,1,2,0:0:0:0:
56,223,48709,6,0,P|52:267|76:323,1,90,2|0,0:0|0:0,0:0:0:0:
165,346,49869,1,2,0:0:0:0:
260,294,50457,1,2,0:0:0:0:
363,340,51074,2,0,P|439:312|427:208,1,180,2|2,0:0|0:0,0:0:0:0:
265,98,53426,6,0,B|217:82|177:106|177:106|133:130|85:110,2,180,2|2|2,0:0|0:0|0:0,0:0:0:0:
356,293,56955,1,2,0:0:0:0:
309,196,57543,1,2,0:0:0:0:
369,106,58131,6,0,P|437:90|513:130,1,135,2|2,0:0|0:0,0:0:0:0:
499,221,59601,1,0,0:0:0:0:
499,221,59851,2,0,L|443:235,1,45,0|2,0:0|0:0,0:0:0:0:
394,246,60483,2,0,P|326:250|269:216,2,135,2|2|2,0:0|0:0|0:0,0:0:0:0:
402,138,62837,6,0,L|390:-1,2,135,2|2|2,0:0|0:0|0:0,0:0:0:0:
359,237,65190,1,2,0:0:0:0:
211,302,66073,1,2,0:0:0:0:
71,221,66955,1,2,0:0:0:0:
66,113,67543,6,0,P|90:73|148:48,1,90,2|2,0:0|0:0,0:0:0:0:
220,108,68720,2,0,P|264:116|312:96,1,90,2|2,0:0|0:0,0:0:0:0:
392,40,69896,2,0,P|456:92|436:196,1,180,2|2,0:0|0:0,0:0:0:0:
320,280,71954,1,0,0:0:0:0:
320,280,72249,6,0,P|240:296|156:232,2,180,2|2|2,0:0|0:0|0:0,0:0:0:0:
425,91,75778,6,0,L|421:39,1,45,0|2,0:0|0:0,0:0:0:0:
373,70,76367,2,0,L|349:10,1,45,0|2,0:0|0:0,0:0:0:0:
302,21,76955,6,0,P|238:13|162:61,2,135,0|2|0,0:0|0:0|0:0,0:0:0:0:
380,94,79308,2,0,P|388:138|380:190,1,90,2|0,0:0|0:0,0:0:0:0:
300,252,80484,1,2,0:0:0:0:
224,176,81073,1,0,0:0:0:0:
132,228,81661,6,0,P|56:200|40:152,2,135,2|2|2,0:0|0:0|0:0,0:0:0:0:
216,160,84014,1,0,0:0:0:0:
440,312,85484,2,0,P|464:304|488:284,2,45,0|2|0,0:0|0:0|0:0,0:0:0:0:
388,296,86367,6,0,B|361:279|302:298|302:298|246:319|206:308,1,180,2|2,0:0|0:0,0:0:0:0:
64,152,88720,2,0,P|112:72|216:72,1,180,2|2,0:0|0:0,0:0:0:0:
344,216,91073,6,0,P|425:176|420:83,1,180,2|2,0:0|0:0,0:0:0:0:
216,132,93425,2,0,P|172:216|216:292,1,180,2|2,0:0|0:0,0:0:0:0:
310,297,95165,2,0,P|332:285|353:266,1,45,0|2,0:0|0:0,0:0:0:0:
379,228,95753,6,0,B|395:178|380:135|380:135|365:96|390:45,2,180,0|0|2,0:0|0:0|0:0,0:0:0:0:
308,309,98694,1,0,0:0:0:0:
232,232,99282,2,0,P|204:228|168:236,1,45,0|2,0:0|0:0,0:0:0:0:
140,200,99870,2,0,P|108:204|84:220,1,45,2|0,0:0|0:0,0:0:0:0:
44,208,100458,6,0,P|32:268|48:352,2,135,2|2|2,0:0|0:0|0:0,0:0:0:0:
116,128,102811,2,0,B|156:104|204:128|204:128|248:152|296:132,1,180,2|2,0:0|0:0,0:0:0:0:
389,62,104662,1,2,0:0:0:0:
466,142,105203,6,0,P|472:227|402:305,1,180,2|0,0:0|0:0,0:0:0:0:
242,347,107555,1,2,0:0:0:0:
69,196,108538,1,2,0:0:0:0:
70,109,108922,6,0,P|94:53|162:29,1,135.000005149842,0|2,0:0|0:0,0:0:0:0:
359,170,110515,1,2,0:0:0:0:
256,192,110998,12,2,113515,0:0:0:0:
256,192,114470,5,2,0:0:0:0:
256,192,114724,12,0,117520,0:0:0:0:
