osu file format v13

[General]
AudioFilename: Ichizuna Omoi.mp3
AudioLeadIn: 2000
PreviewTime: 75486
Countdown: 0
SampleSet: Soft
StackLeniency: 0.7
Mode: 0
LetterboxInBreaks: 0
WidescreenStoryboard: 0

[Editor]
DistanceSpacing: 1
BeatDivisor: 4
GridSize: 4
TimelineZoom: 1

[Metadata]
Title:Ichizuna Omoi
TitleUnicode:一途な想い
Artist:Horie Shouta
ArtistUnicode:堀江 晶太
Creator:Hinsvar
Version:Hard
Source:Strike the Blood
Tags:ORIGINAL SOUNDTRACK Vol.1 ストライク・ザ・ブラッド ASSUMED SOUNDS
BeatmapID:401659
BeatmapSetID:165104

[Difficulty]
HPDrainRate:5
CircleSize:4
OverallDifficulty:4.5
ApproachRate:6
SliderMultiplier:2.4
SliderTickRate:1

[Events]
//Background and Video events
0,0,"kiss.jpg",0,0
//Break Periods
//Storyboard Layer 0 (Background)
//Storyboard Layer 1 (Fail)
//Storyboard Layer 2 (Pass)
//Storyboard Layer 3 (Foreground)
//Storyboard Sound Samples
//Background Colour Transformations
3,100,163,162,255

[TimingPoints]
-3050,1176.47058823529,4,2,1,30,1,0
4891,-100,4,2,1,20,0,0
5185,-100,4,2,1,25,0,0
5773,-100,4,2,1,30,0,0
8139,1034.48275862069,4,2,1,30,1,0
10165,1176.47058823529,4,2,1,30,1,0
11037,1176.47058823529,4,2,1,30,1,0
23684,-100,4,2,1,20,0,0
23978,-100,4,2,1,25,0,0
24566,-100,4,2,1,30,0,0
28757,1132.07547169811,4,2,1,30,1,0
29898,1176.47058823529,4,2,1,30,1,0
38133,-100,4,2,1,15,0,0
39004,1176.47058823529,4,2,1,30,1,0
39298,1176.47058823529,4,2,1,30,1,0
49869,1176.47058823529,4,2,1,30,1,0
51074,1176.47058823529,4,2,1,30,1,0
53426,1176.47058823529,4,2,1,30,1,0
58131,1176.47058823529,4,2,1,30,1,0
59846,1176.47058823529,4,2,1,30,1,0
60483,1176.47058823529,4,2,1,30,1,0
75778,-100,4,2,1,40,0,0
76954,-100,4,2,1,50,0,1
78719,-100,4,2,1,15,0,1
79309,-100,4,2,1,50,0,1
80189,-100,4,2,1,30,0,1
80483,-100,4,2,1,35,0,1
81072,-100,4,2,1,40,0,1
81660,-100,4,2,1,50,0,1
92248,-100,4,2,1,60,0,1
93425,-100,4,2,1,50,0,1
95165,1176.47058823529,4,2,1,50,1,1
95753,1176.47058823529,4,2,1,50,1,1
103988,-100,4,2,1,15,0,1
104662,1176.47058823529,4,2,1,50,1,1
105203,1176.47058823529,4,2,1,30,1,0
105203,-200,4,2,1,30,0,0
107581,1176.47058823529,4,2,1,30,1,0
107581,-200,4,2,1,30,0,0
108538,769.230769230769,4,2,1,30,1,0
108538,-200,4,2,1,30,0,0
108922,722.89156626506,4,2,1,30,1,0
108922,-200,4,2,1,30,0,0
110515,769.230769230769,4,2,1,30,1,0
110515,-200,4,2,1,30,0,0
110998,697.674418604651,4,2,1,30,1,0
110998,-200,4,2,1,30,0,0
111695,722.89156626506,4,2,1,30,1,0
111695,-200,4,2,1,30,0,0
112445,909.090909090909,4,2,1,30,1,0
113515,1016.94915254237,4,2,1,30,1,0
113515,-200,4,2,1,30,0,0
114470,1016.94915254237,4,2,1,30,1,0
114470,-200,4,2,1,30,0,0
114724,-200,4,2,1,5,0,0

[Colours]
Combo1 : 203,174,58
Combo2 : 70,163,255

[HitObjects]
40,212,479,5,0,0:0:0:0:
88,236,773,1,2,0:0:0:0:
140,236,1067,1,0,0:0:0:0:
188,208,1361,1,2,0:0:0:0:
228,172,1655,6,0,P|269:150|340:175,1,120
352,277,2538,2,0,P|276:321|204:277,1,180,2|0,0:0|0:0,0:0:0:0:
204,277,4008,2,0,B|224:233|224:233|192:153|192:153|212:89,1,180,2|0,0:0|0:0,0:0:0:0:
249,78,5185,1,0,0:0:0:0:
302,71,5479,1,2,0:0:0:0:
351,92,5773,1,2,0:0:0:0:
374,141,6067,1,0,0:0:0:0:
374,195,6361,6,0,P|474:195|510:111,1,180,2|0,0:0|0:0,0:0:0:0:
180,112,8139,2,0,P|160:176|180:224,1,120,2|2,0:0|0:0,0:0:0:0:
204,244,10165,5,2,0:0:0:0:
256,252,10459,1,2,0:0:0:0:
308,236,10753,1,0,0:0:0:0:
348,200,11037,6,0,P|364:108|305:52,1,180,0|2,0:0|0:0,0:0:0:0:
208,160,12213,2,0,P|120:172|56:108,1,180,2|2,0:0|0:0,0:0:0:0:
233,61,13389,2,0,P|304:124|288:224,1,180,2|2,0:0|0:0,0:0:0:0:
126,279,14566,2,0,P|129:194|208:159,1,180,2|2,0:0|0:0,0:0:0:0:
200,320,15742,6,0,P|111:363|51:318,1,180,2|2,0:0|0:0,0:0:0:0:
104,128,16919,2,0,B|160:96|211:144|211:144|264:197|324:168,2,240,2|2|0,0:0|0:0|0:0,0:0:0:0:
64,164,19566,1,2,0:0:0:0:
40,212,19860,1,0,0:0:0:0:
44,264,20154,1,2,0:0:0:0:
76,308,20448,6,0,P|152:328|260:280,2,180,0|2|0,0:0|0:0|0:0,0:0:0:0:
48,128,22801,2,0,P|80:72|132:48,1,120,2|0,0:0|0:0,0:0:0:0:
184,52,23684,1,0,0:0:0:0:
232,76,23978,1,0,0:0:0:0:
264,120,24272,1,2,0:0:0:0:
284,172,24566,1,0,0:0:0:0:
280,224,24860,1,2,0:0:0:0:
256,272,25154,6,0,P|316:264|368:304,1,120,2|0,0:0|0:0,0:0:0:0:
196,348,26036,2,0,P|160:256|208:192,1,180,0|2,0:0|0:0,0:0:0:0:
472,316,27507,6,0,P|416:328|356:300,1,120,2|0,0:0|0:0,0:0:0:0:
360,304,28757,1,2,0:0:0:0:
332,256,29040,1,0,0:0:0:0:
324,204,29323,1,2,0:0:0:0:
340,152,29606,1,0,0:0:0:0:
376,112,29898,6,0,P|476:120|508:196,1,180,2|2,0:0|0:0,0:0:0:0:
316,180,31074,2,0,P|284:100|336:32,1,180,2|2,0:0|0:0,0:0:0:0:
392,224,32250,2,0,P|316:268|236:224,1,180,2|2,0:0|0:0,0:0:0:0:
392,128,33427,2,0,P|464:157|480:257,1,180,2|2,0:0|0:0,0:0:0:0:
296,304,34603,6,0,P|268:296|236:272,2,60,2|0|0,0:0|0:0|0:0,0:0:0:0:
340,276,35486,1,0,0:0:0:0:
380,240,35780,1,2,0:0:0:0:
392,188,36074,1,0,0:0:0:0:
396,136,36368,1,0,0:0:0:0:
396,136,36956,6,0,P|304:104|204:200,1,240,2|0,0:0|0:0,0:0:0:0:
205,190,39004,1,2,0:0:0:0:
244,228,39298,5,2,0:0:0:0:
296,232,39592,1,0,0:0:0:0:
348,216,39886,1,0,0:0:0:0:
372,168,40180,2,0,P|368:116|316:72,1,120,2|0,0:0|0:0,0:0:0:0:
276,104,41062,1,0,0:0:0:0:
224,116,41356,1,2,0:0:0:0:
172,104,41650,6,0,P|160:72|168:32,2,60,2|0|0,0:0|0:0|0:0,0:0:0:0:
380,80,42533,2,0,P|321:23|240:65,1,180,2|2,0:0|0:0,0:0:0:0:
208,104,43709,1,0,0:0:0:0:
184,152,44003,6,0,P|180:184|188:216,1,60,2|0,0:0|0:0,0:0:0:0:
232,236,44592,1,0,0:0:0:0:
284,224,44886,2,0,P|360:200|444:268,1,180,2|2,0:0|0:0,0:0:0:0:
456,304,46062,1,0,0:0:0:0:
440,356,46356,2,0,B|400:368|352:344|352:344|300:324|264:340,2,180,2|2|2,0:0|0:0|0:0,0:0:0:0:
508,128,48709,6,0,P|472:76|412:64,1,120,2|2,0:0|0:0,0:0:0:0:
272,220,49869,2,0,P|324:236|388:204,1,120,2|2,0:0|0:0,0:0:0:0:
188,112,51074,6,0,P|140:196|184:272,1,180,2|2,0:0|0:0,0:0:0:0:
368,284,52250,2,0,P|337:206|247:194,1,180,2|2,0:0|0:0,0:0:0:0:
204,220,53426,5,2,0:0:0:0:
152,232,53720,1,0,0:0:0:0:
100,220,54014,1,0,0:0:0:0:
64,180,54308,1,0,0:0:0:0:
56,128,54602,2,0,B|96:72|172:104|172:104|236:136|276:96,1,240,2|2,0:0|0:0,0:0:0:0:
284,80,56955,5,2,0:0:0:0:
384,296,57543,1,2,0:0:0:0:
452,64,58131,6,0,P|480:48|520:40,2,60,2|0|0,0:0|0:0|0:0,0:0:0:0:
412,104,59014,2,0,P|352:120|292:96,1,120,2|0,0:0|0:0,0:0:0:0:
267,70,59846,1,0,0:0:0:0:
216,51,60140,1,2,0:0:0:0:
156,44,60484,6,0,P|124:52|92:76,2,60,2|0|0,0:0|0:0|0:0,0:0:0:0:
292,156,61367,2,0,P|228:192|164:120,1,180,2|2,0:0|0:0,0:0:0:0:
368,100,62837,6,0,P|380:132|380:172,1,60,2|0,0:0|0:0,0:0:0:0:
348,200,63425,1,0,0:0:0:0:
312,240,63720,2,0,P|368:228|432:252,1,120,2|0,0:0|0:0,0:0:0:0:
468,280,64602,1,0,0:0:0:0:
476,332,64896,1,2,0:0:0:0:
440,372,65190,2,0,P|354:373|288:300,2,180,2|2|2,0:0|0:0|0:0,0:0:0:0:
460,136,67543,6,0,P|412:104|340:124,1,120,0|2,0:0|0:0,0:0:0:0:
216,16,68720,2,0,P|164:32|132:88,1,120,0|2,0:0|0:0,0:0:0:0:
260,296,69896,6,0,P|296:224|256:140,1,180,2|2,0:0|0:0,0:0:0:0:
100,148,71073,2,0,P|64:220|104:304,1,180,2|2,0:0|0:0,0:0:0:0:
260,296,72249,6,0,P|320:288|376:320,1,120,2|0,0:0|0:0,0:0:0:0:
412,348,73131,1,2,0:0:0:0:
460,324,73425,1,0,0:0:0:0:
256,28,74602,1,2,0:0:0:0:
256,28,75778,5,0,0:0:0:0:
224,80,76073,1,2,0:0:0:0:
168,104,76367,1,0,0:0:0:0:
108,96,76661,1,2,0:0:0:0:
52,76,76955,6,0,P|24:72|-8:88,2,60,2|0|0,0:0|0:0|0:0,0:0:0:0:
160,216,77837,2,0,P|244:208|272:116,1,180,2|0,0:0|0:0,0:0:0:0:
72,56,79308,6,0,P|56:120|76:172,1,120,2|0,0:0|0:0,0:0:0:0:
124,204,80190,1,0,0:0:0:0:
184,220,80484,1,0,0:0:0:0:
244,216,80778,1,2,0:0:0:0:
292,180,81073,1,0,0:0:0:0:
304,120,81367,1,2,0:0:0:0:
128,96,81661,6,0,P|112:156|148:216,1,120,2|0,0:0|0:0,0:0:0:0:
328,172,82543,2,0,P|268:108|192:164,1,180,2|2,0:0|0:0,0:0:0:0:
212,336,84014,1,2,0:0:0:0:
268,360,84308,1,0,0:0:0:0:
328,360,84602,1,0,0:0:0:0:
384,340,84896,2,0,P|404:284|384:212,1,120,0|2,0:0|0:0,0:0:0:0:
340,196,85778,1,0,0:0:0:0:
280,206,86073,1,0,0:0:0:0:
480,280,86367,6,0,P|504:204|448:124,1,180,2|2,0:0|0:0,0:0:0:0:
248,204,87543,2,0,P|336:248|416:200,1,180,2|2,0:0|0:0,0:0:0:0:
248,104,88720,2,0,P|174:135|148:232,1,180,2|2,0:0|0:0,0:0:0:0:
310,345,89896,2,0,P|315:258|248:204,1,180,2|2,0:0|0:0,0:0:0:0:
68,300,91073,6,0,P|144:332|240:284,1,180,2|2,0:0|0:0,0:0:0:0:
179,85,92249,2,0,P|99:129|163:245,1,240,2|2,0:0|0:0,0:0:0:0:
150,243,94602,5,2,0:0:0:0:
98,241,94896,1,0,0:0:0:0:
54,217,95165,1,0,0:0:0:0:
24,184,95459,1,2,0:0:0:0:
200,68,95753,6,0,P|212:96|220:148,2,60,2|0|0,0:0|0:0|0:0,0:0:0:0:
156,40,96635,2,0,P|60:56|20:132,1,180,2|0,0:0|0:0,0:0:0:0:
144,320,98105,6,0,P|172:236|132:140,1,180,2|0,0:0|0:0,0:0:0:0:
96,128,99282,1,0,0:0:0:0:
48,148,99576,1,2,0:0:0:0:
24,196,99870,1,2,0:0:0:0:
36,248,100164,1,2,0:0:0:0:
80,280,100458,6,0,P|168:292|240:228,2,180,2|2|2,0:0|0:0|0:0,0:0:0:0:
188,136,102811,2,0,P|280:136|340:264,1,240,2|2,0:0|0:0,0:0:0:0:
172,360,104662,1,2,0:0:0:0:
48,196,105203,6,0,P|76:157|132:144,1,90.0000034332277,2|0,0:0|0:0,0:0:0:0:
206,185,106379,1,2,0:0:0:0:
416,296,107555,5,2,0:0:0:0:
388,308,108538,5,2,0:0:0:0:
340,320,108922,6,0,P|276:304|256:244,1,120,0|2,0:0|0:0,0:0:0:0:
476,40,110515,5,2,0:0:0:0:
476,40,110998,5,2,0:0:0:0:
412,148,111346,1,0,0:0:0:0:
292,152,111695,1,0,0:0:0:0:
216,52,112056,1,2,0:0:0:0:
352,116,112445,5,0,0:0:0:0:
148,72,112899,1,2,0:0:0:0:
482,19,113515,5,2,0:0:0:0:
104,208,114470,5,2,0:0:0:0:
256,192,114724,12,0,117520,0:0:0:0:
