osu file format v5

[General]
AudioFilename: HoobastankftVanessaAmorosi-The_Letter.mp3
AudioLeadIn: 0
PreviewTime: -1
Countdown: 1
SampleSet: Normal
StackLeniency: 0.7
Mode: 0
LetterboxInBreaks: 1
EditorBookmarks: 36613,55174,64078,89239,95432,148078,160465,172755,187949
EditorDistanceSpacing: 0.800000011920929

[Metadata]
Title:The Letter
Artist:Hoobastank ft. Vanessa Amorosi
Creator:m980
Version:Hard ROCK!
Source:
Tags:

[Difficulty]
HPDrainRate:7
CircleSize:4
OverallDifficulty:8
SliderMultiplier:2.1
SliderTickRate:1

[Events]
//Background and Video events
0,0,"bg.jpg"
//Break Periods
2,54600,62878
2,89439,94232
2,148278,159265
//Storyboard Layer 0 (Background)
//Storyboard Layer 1 (Failing)
//Storyboard Layer 2 (Passing)
//Storyboard Layer 3 (Foreground)
//Storyboard Sound Samples
//Background Colour Transformations
3,100,163,162,255

[TimingPoints]
11820,387.096774193548,4,1,0,70,1,0
232368,-100,4,1,0,0,0,0

[HitObjects]
356,324,36594,2,0,B|255:380|153:323,1,210
108,260,37174,2,0,B|56:96|174:25|260:36,1,315
328,44,37949,2,0,B|434:102|413:236,1,210,0|4
256,192,39303,1,0
388,292,39690,2,0,B|444:191|387:89,1,210
324,44,40270,2,0,B|160:-8|89:110|100:196,1,315
108,264,41045,1,0
284,347,41432,2,4,B|402:325|448:223|389:87,1,315,0|4
357,318,42787,6,0,B|256:369|151:317,1,210
155,66,43561,2,0,B|256:15|361:67,1,210,0|0
384,144,44142,2,0,B|314:301|204:81|125:246,1,315
113,320,44916,2,0,B|261:444|424:299,1,315
315,276,45690,1,0
112,113,46078,2,0,B|260:-11|423:134,1,315,0|4
328,272,47432,1,0
256,304,47626,1,0
184,272,47819,1,4
256,80,48207,1,4
256,192,48594,5,0
356,324,48981,2,0,B|255:380|153:323,3,210
112,256,50336,1,0
82,184,50529,2,4,B|145:53|385:46|440:209,1,420
361,225,51497,2,0,B|146:225,1,210
296,304,52465,1,0
216,304,52658,1,0
256,144,53045,1,0
406,68,53432,2,0,B|251:-13|85:78,1,315,0|4
256,224,54400,1,4
256,192,64078,5,0
310,352,64465,2,0,B|470:280|470:96|294:24,1,420
202,352,66013,2,2,B|42:280|42:96|218:24,1,420
256,192,67368,5,0
232,272,67561,2,0,B|154:241|154:140|241:107,1,210
310,128,68142,2,0,B|420:50|541:158|461:272,1,315
399,328,68916,2,4,B|352:376|304:336|304:336|256:297|208:336|208:336|160:376|107:322,1,315,4|0
104,184,69884,1,4
256,192,70271,5,0
202,352,70658,2,0,B|42:280|42:96|218:24,1,420
310,352,72206,2,2,B|470:280|470:96|294:24,1,420
131,114,73561,5,0
56,152,73755,2,4,B|18:37|147:0|189:61,1,210
256,192,74529,1,0
381,270,74916,1,0
456,232,75110,2,4,B|494:347|365:384|323:323,1,210
256,336,75690,1,4
120,336,76078,1,4
136,192,76465,5,0
216,320,76852,1,0
304,192,77239,1,0
392,64,77626,2,2,B|560:168|456:375|281:316,1,420
104,64,79174,1,0
256,64,79561,1,0
136,136,79949,1,0
216,136,80142,1,0
296,136,80336,1,0
376,136,80529,1,0
256,208,80916,1,0
104,288,81303,2,2,B|256:362|411:287,1,315
456,136,82271,1,4
56,136,82658,5,0
320,136,83045,1,4
184,176,83432,1,0
184,96,83626,1,4
456,264,84207,5,0
192,264,84594,1,4
328,224,84981,1,0
328,304,85175,1,4
357,112,85949,5,0
357,32,86142,2,2,B|253:-16|149:32,1,210
104,192,86916,1,0
184,192,87110,2,2,B|408:192,1,210
352,336,87884,1,0
200,360,88271,2,0,B|8:352|0:136,1,315,0|4
192,104,89239,1,0
356,60,95432,6,0,B|255:4|153:61,1,210
108,128,96013,2,0,B|68:253|163:335,1,210
363,323,96787,2,0,B|444:253|404:128,1,210
320,128,97368,1,4
320,128,97755,1,4
256,192,97949,1,0
256,192,98142,1,0
124,292,98529,2,0,B|68:191|125:89,1,210
188,44,99109,2,0,B|352:-8|423:110|412:196,1,315
404,264,99884,2,0,B|346:370|212:349,1,210
208,264,100465,1,0
304,120,100852,1,0
160,136,101432,5,0
160,56,101626,2,0,B|256:-24|381:76,1,210
352,136,102207,1,0
256,232,102594,1,0
368,336,102981,2,0,B|480:288|480:144,1,210
34,172,103949,2,4,B|32:288|144:336,1,210
256,152,104916,1,0
256,336,105497,1,4
328,80,106271,1,0
256,40,106465,1,0
184,80,106658,1,4
256,240,107045,1,4
256,160,107432,5,0
356,324,107819,2,2,B|255:380|153:323,3,210
112,256,109174,1,0
82,184,109367,2,0,B|145:53|385:46|440:209,1,420
256,256,110723,1,0
296,328,110916,1,0
216,328,111110,1,0
176,192,111496,1,4
336,192,111883,1,0
406,68,112270,2,4,B|251:-13|85:78,1,315
256,128,113238,1,4
256,288,113819,5,0
296,360,114013,1,0
216,360,114207,1,0
144,240,114594,1,2
368,240,115174,1,0
296,128,115561,1,2
216,128,115755,1,4
80,72,116142,1,0
256,24,116529,1,0
432,72,116916,1,0
488,128,117110,2,4,B|491:280|402:364|256:352|256:352|111:356|15:270|24:104,1,735,4|0
102,95,118658,2,4,B|256:35|431:103,1,315,4|0
376,172,119432,1,4
136,172,119819,1,0
256,192,120207,12,4,122529
256,192,122916,5,0
202,352,123303,2,0,B|42:280|42:96|218:24,1,420
310,352,124851,2,2,B|470:280|470:96|294:24,1,420
256,192,126206,5,0
280,272,126399,2,0,B|358:241|358:140|271:107,1,210
202,128,126980,2,0,B|92:50|-29:158|51:272,1,315
113,328,127754,2,4,B|160:376|208:336|208:336|256:297|304:336|304:336|352:376|405:322,1,315
408,184,128723,1,4
256,192,129109,5,0
310,352,129496,2,0,B|470:280|470:96|294:24,1,420
202,352,131044,2,4,B|42:280|42:96|218:24,1,420
381,114,132399,5,0
456,152,132593,2,4,B|494:37|365:0|323:61,1,210
256,192,133367,1,0
131,270,133754,1,0
56,232,133948,2,4,B|18:347|147:384|189:323,1,210
256,336,134529,1,4
392,336,134917,1,4
376,192,135303,5,0
296,320,135690,1,0
208,192,136077,1,0
120,64,136464,2,2,B|-48:168|56:375|231:316,1,420
408,64,138012,1,0
256,64,138399,1,0
376,136,138787,1,0
296,136,138980,1,0
216,136,139174,1,0
136,136,139367,1,0
256,208,139754,1,0
408,288,140141,2,4,B|256:362|101:287,1,315
56,136,141109,1,4
456,136,141496,5,0
192,136,141883,1,4
328,176,142270,1,0
328,96,142464,1,4
56,264,143045,5,0
320,264,143432,1,4
184,224,143819,1,0
184,304,144013,1,4
152,64,144787,5,0
96,120,144981,2,2,B|16:208|104:320,2,210
176,144,145949,1,0
312,64,146336,1,0
448,144,146723,1,0
504,296,147110,2,4,B|344:368|184:296,1,315
72,200,148078,1,4
256,192,160465,5,0
152,312,160852,1,0
360,72,161239,1,0
152,72,161626,1,0
360,312,162013,5,4
416,256,162207,1,0
328,152,162594,2,4,B|184:64|24:152,1,315
32,240,163368,2,4,B|176:136|328:240,1,315
184,272,164336,1,0
184,32,164723,1,0
472,64,165110,5,4
472,64,165303,1,0
472,208,165690,2,4,B|320:128|168:208,1,315
176,296,166465,2,4,B|328:200|480:304,1,315
320,328,167432,1,0
320,88,167819,1,0
104,304,168207,5,4
56,240,168400,1,0
48,88,168787,2,0,B|144:16|248:96,2,210
256,200,170142,5,0
376,312,170529,1,2
136,312,170916,1,0
136,72,171303,1,2
376,72,171690,1,0
400,177,171884,2,2,B|256:65|109:181,1,315
356,324,172852,6,0,B|255:380|153:323,1,210
108,260,173432,2,0,B|64:128|168:48,1,210
256,192,174207,1,0
256,192,174401,1,4
256,192,175949,5,0
256,192,176142,1,0
108,260,176529,2,0,B|56:96|174:25|260:36,1,315
328,44,177304,2,2,B|434:102|413:236,1,210
160,328,178271,1,4
480,160,179045,5,0
352,32,179432,1,0
160,32,179819,1,0
32,160,180206,1,0
32,160,180400,1,0
160,200,180787,2,2,B|304:104|464:200,1,315
400,256,181561,1,0
256,336,181949,1,0
256,256,182143,5,0
408,40,182529,1,0
408,344,182916,1,0
104,344,183303,1,0
104,40,183690,1,2
256,312,184078,1,0
376,96,184465,1,2
144,96,184852,1,2
256,192,185239,12,0,187561
256,192,187949,5,0
310,352,188336,2,2,B|419:307|432:182,1,210
328,56,189110,1,4
256,24,189303,1,0
184,56,189497,1,4
82,193,189884,2,2,B|93:307|202:352,1,210
184,240,190658,1,4
256,208,190852,1,0
328,240,191045,1,4
392,192,191239,5,0
392,192,191432,1,0
120,192,191819,1,0
120,192,192012,1,0
258,52,192594,1,0
258,52,192787,2,2,B|326:144|256:192|256:192|196:250|256:336,1,315
384,248,193755,1,4
256,192,194142,5,0
202,352,194529,2,2,B|93:307|80:182,2,210,2|2|4
256,288,195497,1,0
256,288,195690,1,4
431,193,196078,2,2,B|419:307|310:352,2,210,2|2|4
400,120,197045,1,0
400,120,197238,1,4
344,64,197432,5,0
344,64,197626,1,0
168,64,198013,1,0
256,216,198400,1,0
256,368,198787,1,0
296,304,198981,2,2,B|360:280|352:208|352:208|352:160|312:120|256:120|256:120|200:120|160:160|160:208|160:208|152:280|224:304,1,525
256,216,200336,5,0
368,360,200723,1,0
424,192,201110,1,0
368,24,201497,2,2,B|152:152|143:382,1,420
144,24,203045,1,0
88,192,203432,1,0
216,336,203819,5,2
296,336,204013,1,0
344,192,204400,1,2
168,192,204787,1,2
256,48,205174,2,0,B|424:48|504:248,2,315
256,128,206529,5,0
8,328,206916,2,2,B|144:240|256:320|256:320|376:400|512:320,1,525
504,248,208078,1,0
504,248,208271,1,0
504,161,208465,2,2,B|376:236|256:156|256:156|144:76|0:168,1,525
8,248,209626,1,0
80,216,209819,5,0
152,248,210013,1,0
304,320,210400,1,0
304,320,210594,1,0
400,64,211174,1,0
320,64,211368,2,4,B|232:-16|136:160|24:56,1,315
256,256,212723,5,0
504,56,213110,2,2,B|368:144|256:64|256:64|136:-16|0:64,1,525
8,136,214272,1,0
8,136,214465,1,0
9,224,214659,2,2,B|136:148|256:228|256:228|368:308|512:224,1,525
504,136,215820,1,0
424,136,216013,5,0
360,88,216207,1,0
152,88,216594,1,0
256,240,216981,1,0
256,80,217368,1,0
296,152,217561,2,2,B|360:176|352:248|352:248|352:296|312:336|256:336|256:336|200:336|160:296|160:248|160:248|152:176|224:152,1,525
256,240,218916,5,0
144,360,219303,1,0
88,192,219690,1,0
144,24,220078,1,2
144,24,220271,1,0
144,24,220465,1,4
368,360,220852,1,0
368,24,221625,1,0
424,192,222012,1,0
296,64,222400,5,2
216,64,222594,1,0
256,192,222981,1,0
256,192,223368,1,0
408,296,223755,2,2,B|256:360|96:296,1,315
464,88,225110,5,0
320,88,225497,2,4,B|272:48|216:88|216:88|176:120|120:80,1,210
48,88,226078,1,0
48,296,226658,5,0
192,296,227045,2,4,B|240:336|296:296|296:296|336:264|392:304,1,210
464,296,227626,1,0
256,192,228594,12,4,232465
