osu file format v9

[General]
AudioFilename: 08 - Without_A_Fight.mp3
AudioLeadIn: 0
PreviewTime: -1
Countdown: 0
SampleSet: Normal
StackLeniency: 0.7
Mode: 0
LetterboxInBreaks: 1
StoryFireInFront: 0
CountdownOffset: 2

[Editor]
DistanceSpacing: 0.8
BeatDivisor: 6
GridSize: 32

[Metadata]
Title:Without A Fight
Artist:Hoobastank
Creator:Xhizors
Version:Normal
Source:
Tags:hoobastank fight difficult hard without

[Difficulty]
HPDrainRate:5
CircleSize:5
OverallDifficulty:5
ApproachRate:5
SliderMultiplier:1.4
SliderTickRate:2

[Events]
//Background and Video events
0,0,"fastdial.jpg"
//Break Periods
2,69525,73902
2,128302,132236
//Storyboard Layer 0 (Background)
//Storyboard Layer 1 (Fail)
//Storyboard Layer 2 (Pass)
//Storyboard Layer 3 (Foreground)
//Storyboard Sound Samples
//Background Colour Transformations
3,100,0,0,0

[TimingPoints]
8769.62166782877,666.666666666667,4,1,0,65,1,0
69398,-100,4,1,0,65,0,1
69449,-100,4,1,0,65,0,0
91102,-50,4,1,0,65,0,0
113214,-50,4,1,0,65,0,0
128063,-50,4,1,0,65,0,1
128325,-50,4,1,0,65,0,0
145880,-50,4,1,0,65,0,0
186880,-50,4,1,0,65,0,1
187325,-50,4,1,0,65,0,0

[Colours]
Combo1 : 96,152,211
Combo2 : 56,184,71
Combo3 : 255,128,0
Combo4 : 255,0,0

[HitObjects]
96,320,16436,1,0
96,224,16769,1,0
96,128,17436,1,0
192,128,18436,1,0
32,64,19102,5,0
128,64,19436,1,0
192,128,20102,1,0
256,192,20519,1,0
96,224,21686,5,0
160,224,22102,1,0
256,224,22436,1,0
256,224,22519,1,0
288,224,22852,1,0
352,224,23186,1,0
416,224,23519,1,0
480,224,23852,2,0,B|288:32,1,256.666666666667
160,128,25769,5,8
96,192,26102,1,8
128,160,26436,1,8
256,96,27102,5,0
256,288,27436,1,0
256,192,27769,1,0
352,96,28102,1,0
160,96,28519,1,0
256,96,29102,1,0
64,192,29769,1,0
448,192,30102,1,0
256,64,30436,1,0
256,288,30769,1,0
256,192,31214,1,0
160,192,32436,6,0,B|320:192,4,140
288,64,35769,5,0
96,160,36436,2,2,B|224:96,1,140
128,192,37436,5,0
160,192,37769,1,0
161,270,37880,1,0
160,128,38352,1,0
224,160,38769,5,0
288,224,39019,1,0
352,288,39214,1,0
406,358,39547,1,0
295,360,39880,1,0
192,256,40436,2,0,B|64:256,1,116.666666666667
64,256,41769,5,0
96,192,42102,1,0
128,128,42436,1,0
192,224,43102,5,0
192,160,43436,1,0
224,192,43769,1,0
288,128,44352,1,0
352,96,44769,1,0
352,160,45102,1,0
288,192,45436,1,0
256,192,46102,12,0,48102
32,352,48436,5,0
128,352,48769,1,0
224,352,49102,1,0
352,352,49436,2,0,B|352:192,1,140
352,160,50436,5,0
288,256,50769,1,0
416,256,51102,1,0
352,352,51436,1,0
352,256,51769,1,0
352,160,52102,2,0,B|128:160,1,210
160,224,53436,5,8
256,224,53769,1,8
320,224,54102,1,8
320,160,54436,1,8
375,160,54769,2,8,B|436:159,3,46.6666666666667
53,155,56102,5,0
108,105,56436,2,0,B|48:162,4,70
60,250,58436,5,0
60,250,58519,1,0
94,225,58769,1,0
96,224,58852,1,0
256,352,59102,1,0
256,352,59186,1,0
192,352,59436,1,0
192,352,59519,1,0
225,327,59769,2,8,B|286:274,4,70
113,283,61436,6,0,B|181:281,5,70
259,245,63436,1,8
259,245,63519,1,0
256,308,63769,1,8
256,308,63852,1,0
260,349,64102,5,0
203,346,64436,1,0
331,204,64769,1,0
291,243,65102,1,0
337,273,65436,1,0
291,305,65769,1,0
244,273,66102,1,2
240,329,66436,1,2
88,68,66769,5,0
418,72,67102,1,0
253,195,67436,1,0
120,310,67769,2,0,B|401:310|401:312,1,280
256,192,69325,5,0
79,113,75102,5,0
176,68,75436,1,0
252,144,75769,2,0,B|308:204,1,70
335,136,76436,2,0,B|288:207,1,70
286,134,77102,1,0
166,103,77769,6,0,B|215:103,1,46.6666666666667
212,103,78102,1,0
274,104,78436,1,0
274,104,78519,2,0,B|273:162,1,46.6666666666667
201,153,79102,2,0,B|261:156,1,46.6666666666667
256,192,80519,12,0,81074
256,192,81769,12,0,82547
189,120,83102,5,0
189,120,83352,1,0
273,149,83769,1,0
348,57,84436,1,8
345,307,85102,1,8
38,279,85769,5,8
240,224,86102,2,0,B|240:312,1,70
174,260,86769,2,0,B|292:260,1,116.666666666667
316,259,87769,1,0
252,70,88436,5,0
258,297,88769,1,0
153,336,89102,1,0
206,317,89547,1,0
187,265,89769,1,0
297,346,90019,1,0
106,188,91102,2,0,B|436:188,1,326.666666666667
401,271,92547,2,0,B|87:272,1,280
227,284,93880,5,2
321,307,94547,1,2
344,197,95214,1,2
280,195,95547,1,2
211,197,95880,1,0
62,335,96436,5,0
167,252,97102,2,0,B|347:357|372:129,1,280
361,96,97991,2,0,B|219:44|116:184,1,280
252,64,99436,1,0
258,163,99880,1,0
124,211,100325,1,0
199,263,100658,1,0
252,221,100991,1,0
294,277,101214,1,0
458,194,101436,2,0,B|39:191,1,420
458,193,102880,2,0,B|204:309,1,280
256,192,104102,12,0,106214
80,164,106769,5,0
152,163,107102,1,0
81,226,107436,2,0,B|269:260|349:211,1,233.333333333333
64,133,108547,1,8
321,132,109214,1,0
189,87,109436,2,0,B|-2:195|78:310|81:311,1,280
78,309,110214,2,0,B|255:296,1,140
341,226,111214,1,8
265,188,111880,1,8
151,134,112214,5,0
254,66,112547,1,0
299,60,112769,1,0
231,221,113214,2,0,B|284:220,9,46.6666666666667
102,121,114547,2,4,B|204:267,1,140
109,274,115102,5,0
213,256,115325,1,0
272,344,115547,2,0,B|390:262,1,140
256,192,116436,12,0,117214
77,149,117658,5,0
124,193,117769,1,0
192,173,118102,1,0
242,264,118547,2,8,B|397:209,1,140
352,162,119214,2,0,B|209:218,1,140
195,158,119880,2,0,B|339:100,1,140
151,72,120436,5,0
71,127,120658,1,0
108,212,120880,2,0,B|241:114,1,140
276,178,121547,2,0,B|151:266,1,140
206,322,122214,2,0,B|338:224,1,140
249,71,122880,5,0
163,119,123214,1,0
204,189,123436,2,0,B|268:187,13,46.6666666666667
160,132,125214,1,8
94,176,125547,5,0
136,228,125769,1,0
186,273,125991,1,0
232,220,126214,1,0
272,160,126547,2,0,B|489:352,1,280
256,192,127991,12,0,128102
168,111,133436,5,0
223,108,135880,5,0
283,108,136102,1,0
288,187,136547,5,0
220,192,136769,1,0
228,276,137214,5,0
292,279,137436,1,0
467,190,137880,6,0,B|171:193,1,280
420,34,139214,2,0,B|162:207,1,280
189,41,140547,2,0,B|192:357,1,280
191,40,141880,2,0,B|477:36,2,280
330,92,143880,5,0
253,152,144547,1,0
240,256,145214,1,0
216,196,145880,2,0,B|301:193,2,46.6666666666667
219,135,146547,2,0,B|288:136,2,46.6666666666667
413,124,147214,5,8
257,40,147880,1,8
114,142,148547,1,8
260,248,149214,1,8
408,134,149880,1,8
261,206,150547,1,8
244,34,151214,1,8
256,192,151991,12,8,153880
233,126,154547,6,0,B|302:126,2,46.6666666666667
284,123,155214,6,0,B|284:193,2,46.6666666666667
272,167,155880,6,0,B|234:117,2,46.6666666666667
273,146,157325,5,0
343,72,157658,1,0
273,224,157991,1,0
272,69,158214,1,0
344,142,158547,1,0
189,145,158769,1,0
440,236,159991,1,0
299,118,160325,1,0
480,60,160880,6,0,B|249:320,1,326.666666666667
262,303,162325,2,0,B|43:76,1,280
68,101,163658,2,0,B|356:99,1,280
347,98,164991,2,0,B|147:297,1,280
81,237,165880,5,0
143,188,166102,1,0
217,235,166658,2,0,B|440:124|245:22|367:28|156:55|158:86,1,373.333333333333
170,72,167991,1,0
107,115,168325,6,0,B|72:253|313:299|399:109|283:62,1,420
282,81,169991,1,0
201,116,170658,1,0
26,210,170991,5,0
33,70,171325,1,0
129,151,171547,1,0
316,242,171991,1,0
372,184,172214,1,0
332,109,172436,1,0
416,59,172658,1,0
261,54,172991,1,0
152,127,173658,1,0
215,207,174102,5,0
175,279,174325,1,0
122,206,174658,2,0,B|502:379,1,373.333333333333
465,287,175658,1,0
460,208,175991,1,0
448,70,176325,6,0,B|96:305,1,420
223,219,177658,1,8
222,296,177991,1,8
301,170,178325,1,8
322,224,178658,1,8
471,58,178991,6,8,B|369:98,1,93.3333333333333
333,122,179436,1,0
208,113,179658,2,2,B|114:46|-9:106|-20:258|18:362|100:375|172:377|267:354|304:298|294:249|252:156|245:144,1,700
52,44,181658,5,0
110,42,181769,2,0,B|219:40,1,93.3333333333333
203,40,182102,2,0,B|291:126,1,93.3333333333333
270,105,182436,2,0,B|190:196,1,93.3333333333333
208,175,182769,2,0,B|296:243,1,93.3333333333333
282,232,183102,2,0,B|200:320,1,93.3333333333333
218,300,183436,2,0,B|124:242,1,93.3333333333333
90,277,183991,5,0
144,203,184325,1,0
144,203,184436,1,0
202,134,184658,2,0,B|380:135,1,140
279,134,185325,1,0
256,192,186102,12,0,186880
364,100,187325,1,14
307,141,187658,1,0
66,224,187991,1,10
273,228,188325,1,0
212,270,188658,1,10
204,120,188991,1,0
204,60,189325,1,10
378,148,189658,1,0
418,192,189991,1,10
314,220,190325,1,0
69,325,190658,1,10
241,303,190991,1,0
251,188,191325,1,10
158,233,191658,1,0
113,132,191991,1,10
220,89,192325,1,0
426,280,192658,1,10
386,191,192991,1,0
252,196,193325,1,10
208,292,193658,1,0
308,150,193991,1,10
141,211,194325,1,0
360,208,194658,1,10
320,304,194991,1,0
280,227,195325,1,10
325,102,195658,1,0
220,159,195991,1,10
212,319,196325,1,0
144,242,196658,1,10
275,263,197325,1,10
256,192,198102,12,4,200658
