osu file format v14

[General]
AudioFilename: Hoobastank - The Reason.mp3
AudioLeadIn: 0
PreviewTime: 58662
Countdown: 0
SampleSet: Soft
StackLeniency: 0.7
Mode: 0
LetterboxInBreaks: 0
WidescreenStoryboard: 0

[Editor]
DistanceSpacing: 1.3
BeatDivisor: 4
GridSize: 4
TimelineZoom: 1

[Metadata]
Title:The Reason
TitleUnicode:The Reason
Artist:Hoobastank
ArtistUnicode:Hoobastank
Creator:Peachtrees
Version:Normal
Source:
Tags:Nwolf Post-grunge Alternative Island Rock Douglass Robb
BeatmapID:686565
BeatmapSetID:306787

[Difficulty]
HPDrainRate:4
CircleSize:4
OverallDifficulty:4
ApproachRate:5
SliderMultiplier:1.2
SliderTickRate:1

[Events]
//Background and Video events
0,0,"sun.jpg",0,0
//Break Periods
2,165701,175871
//Storyboard Layer 0 (Background)
//Storyboard Layer 1 (Fail)
//Storyboard Layer 2 (Pass)
//Storyboard Layer 3 (Foreground)
//Storyboard Sound Samples

[TimingPoints]
15095,723.109370292257,4,2,0,30,1,0
23772,-100,4,2,0,35,0,0
25218,-100,4,2,0,40,0,0
26664,-100,4,2,0,35,0,0
59204,-100,4,2,0,40,0,0
61373,-100,4,2,0,45,0,1
84513,-100,4,2,0,35,0,0
117053,-100,4,2,0,40,0,0
119222,-100,4,2,0,45,0,1
142362,-100,4,2,0,50,0,0
177071,-100,4,2,0,35,0,0
186471,-100,4,2,0,40,0,0
188641,-100,4,2,0,45,0,1
234920,-100,4,2,0,40,0,0
238535,-100,4,2,0,35,0,0
239258,-100,4,2,0,30,0,0
239982,-100,4,2,0,25,0,0
240705,-100,4,2,0,20,0,0
241428,-100,4,2,0,15,0,0
242151,-100,4,2,0,10,0,0
242874,-100,4,2,0,5,0,0

[Colours]
Combo1 : 124,197,35
Combo2 : 208,172,49
Combo3 : 66,139,221
Combo4 : 189,87,198

[HitObjects]
240,264,15094,6,0,P|268:283|316:288,2,60,2|2|0,0:0|0:0|0:0,0:0:0:0:
193,201,16179,1,2,0:0:0:0:
201,123,16541,2,0,L|212:52,2,60,2|2|0,0:0|0:0|0:0,0:0:0:0:
145,262,17987,6,0,P|108:275|62:273,2,60,2|2|8,0:0|0:0|1:0,0:0:0:0:
193,201,19072,1,2,0:0:0:0:
201,123,19433,2,0,L|268:129,1,60,2|2,0:0|0:0,0:0:0:0:
324,173,20156,2,0,L|391:179,1,60,8|0,1:0|0:0,0:0:0:0:
447,133,20879,6,0,P|462:192|417:250,1,120,2|8,0:0|1:0,0:0:0:0:
358,262,21964,1,0,0:0:0:0:
299,313,22326,2,0,L|160:309,1,120,2|8,0:0|1:0,0:0:0:0:
101,314,23410,1,2,0:0:0:0:
43,260,23772,6,0,P|51:216|48:190,1,60,2|2,0:0|0:0,0:0:0:0:
22,127,24495,2,0,P|14:83|17:57,1,60,8|2,1:0|0:0,0:0:0:0:
80,24,25218,2,0,L|160:28,1,60,4|2,2:2|0:0,0:0:0:0:
213,54,25941,2,0,L|293:58,1,60,4|2,1:2|0:0,0:0:0:0:
347,35,26664,6,0,P|347:80|294:133,1,120,4|8,0:0|1:2,0:0:0:0:
225,162,27749,1,0,0:0:0:0:
190,232,28110,2,0,P|231:270|315:281,1,120,2|8,0:0|1:2,0:0:0:0:
369,278,29195,1,0,0:0:0:0:
422,221,29557,6,0,B|429:155|429:155,1,60,2|0,0:0|0:0,0:0:0:0:
454,87,30280,1,8,1:2:0:0:
454,87,30641,2,0,P|391:67|326:74,1,120,2|0,0:0|0:0,0:0:0:0:
273,114,31726,1,4,1:2:0:0:
298,187,32088,1,2,0:0:0:0:
298,187,32449,6,0,L|304:331,2,120,2|8|2,0:0|1:2|0:0,0:0:0:0:
166,103,34618,1,8,1:2:0:0:
88,110,34980,1,0,0:0:0:0:
35,168,35342,6,0,P|46:209|131:244,1,120,2|8,0:0|1:2,0:0:0:0:
186,234,36426,1,2,0:0:0:0:
248,187,36788,2,0,L|319:191,1,60,2|0,0:0|0:0,0:0:0:0:
325,266,37511,2,0,L|384:269,1,60,4|0,1:2|0:0,0:0:0:0:
456,237,38234,6,0,P|462:283|403:348,2,120,2|8|2,0:0|1:2|0:0,0:0:0:0:
379,101,40403,1,8,1:2:0:0:
223,115,41126,6,0,L|154:112,2,60,2|0|8,0:0|0:0|1:2,0:0:0:0:
282,165,42211,1,0,0:0:0:0:
209,193,42573,2,0,B|155:191|155:191|121:189|98:159,1,120,2|4,0:0|1:2,0:0:0:0:
92,83,43657,1,0,0:0:0:0:
165,54,44019,6,0,B|219:56|219:56|253:58|276:88,1,120,2|8,0:0|1:2,0:0:0:0:
282,165,45104,1,0,0:0:0:0:
359,174,45465,2,0,P|373:214|335:288,1,120,2|8,0:0|1:2,0:0:0:0:
203,350,46911,6,0,L|136:352,2,60,2|0|8,0:0|0:0|1:2,0:0:0:0:
257,293,47996,1,0,0:0:0:0:
181,274,48358,2,0,L|114:276,2,60,2|0|4,0:0|0:0|1:2,0:0:0:0:
235,217,49443,1,0,0:0:0:0:
159,198,49804,6,0,B|95:200|95:200|48:156,1,120,2|8,0:0|1:2,0:0:0:0:
133,27,51250,2,0,B|197:25|197:25|244:69,1,120,2|8,0:0|1:2,0:0:0:0:
260,139,52335,1,0,0:0:0:0:
248,216,52696,6,0,P|291:210|317:192,2,60,2|0|8,0:0|0:0|1:2,0:0:0:0:
172,197,53781,1,0,0:0:0:0:
117,141,54142,2,0,L|137:68,2,60,2|0|4,0:0|0:0|1:2,0:0:0:0:
91,214,55227,1,0,0:0:0:0:
70,289,55589,6,0,P|119:321|185:310,1,120,2|8,0:0|1:2,0:0:0:0:
311,234,57035,2,0,L|371:249,1,60,2|0,0:0|0:0,0:0:0:0:
413,184,57758,2,0,P|393:161|358:146,1,60,8|0,1:2|0:0,0:0:0:0:
289,136,58481,1,0,0:0:0:0:
213,157,58843,1,0,0:0:0:0:
178,227,59204,6,0,L|113:216,1,60,8|0,1:2|0:0,0:0:0:0:
46,187,59927,1,2,0:0:0:0:
26,112,60289,1,2,0:0:0:0:
62,43,60650,2,0,L|127:54,1,60,4|2,1:2|0:0,0:0:0:0:
151,125,61373,6,0,P|210:121|259:86,1,120,4|8,0:0|1:2,0:0:0:0:
306,24,62458,1,0,0:0:0:0:
374,62,62820,2,0,L|368:193,1,120,2|8,0:0|1:2,0:0:0:0:
338,253,63904,1,0,0:0:0:0:
269,289,64266,6,0,P|304:323|358:329,2,90,2|2|2,0:0|0:0|0:0,0:0:0:0:
234,219,65712,1,2,0:0:0:0:
79,238,66435,1,8,1:2:0:0:
32,174,66797,1,2,0:0:0:0:
61,101,67158,6,0,P|128:83|177:103,2,120,4|8|2,0:0|1:2|0:0,0:0:0:0:
32,174,68966,1,0,0:0:0:0:
79,238,69328,1,8,1:2:0:0:
229,278,70051,6,0,L|341:266,2,90,2|2|2,0:0|0:0|0:0,0:0:0:0:
164,321,71497,2,0,L|52:309,2,90,2|2|2,0:0|0:0|0:0,0:0:0:0:
233,355,72943,6,0,L|355:341,1,120,4|8,0:0|1:2,0:0:0:0:
423,309,74028,1,0,0:0:0:0:
450,236,74389,2,0,P|445:183|399:124,1,120,2|8,0:0|1:2,0:0:0:0:
254,91,75836,6,0,P|274:41|317:4,2,90,2|2|2,0:0|0:0|0:0,0:0:0:0:
192,139,77282,2,0,P|177:87|200:32,2,90,2|2|2,0:0|0:0|0:0,0:0:0:0:
231,206,78728,6,0,P|177:213|116:163,2,120,4|8|2,0:0|1:2|0:0,0:0:0:0:
371,136,80897,1,8,1:2:0:0:
410,203,81259,1,2,0:0:0:0:
382,275,81621,1,2,0:0:0:0:
230,312,82344,6,0,P|161:307|109:265,1,120,8|4,1:2|1:2,0:0:0:0:
43,290,83428,1,2,0:0:0:0:
22,214,83790,2,0,L|42:146,1,60,4|0,1:2|0:0,0:0:0:0:
97,104,84513,6,0,L|212:137,1,120,4|8,0:2|1:2,0:0:0:0:
286,111,85598,1,0,0:0:0:0:
357,79,85959,2,0,L|432:53,2,60,2|0|8,0:0|0:0|1:2,0:0:0:0:
286,111,87044,1,0,0:0:0:0:
257,183,87405,6,0,P|267:217|290:241,1,60,2|0,0:0|0:0,0:0:0:0:
345,282,88129,1,8,1:2:0:0:
423,281,88490,2,0,P|442:258|450:156,1,120,2|2,0:0|0:0,0:0:0:0:
401,114,89575,1,4,1:2:0:0:
324,101,89936,1,2,0:0:0:0:
324,101,90298,6,0,L|186:109,2,120,2|8|2,0:0|1:2|0:0,0:0:0:0:
419,224,92467,1,8,1:2:0:0:
383,293,92829,1,0,0:0:0:0:
311,324,93190,6,0,P|283:320|249:324,1,60,2|0,0:0|0:0,0:0:0:0:
178,352,93913,2,0,P|148:353|109:340,2,60,8|0|2,1:2|0:0|0:0,0:0:0:0:
251,324,94998,1,0,0:0:0:0:
275,249,95360,2,0,L|272:183,1,60,4|0,1:2|0:0,0:0:0:0:
266,111,96083,6,0,L|144:111,1,120,2|8,0:0|1:2,0:0:0:0:
84,158,97167,1,0,0:0:0:0:
90,235,97529,2,0,P|128:262|206:259,1,120,2|8,0:0|1:2,0:0:0:0:
246,199,98614,1,0,0:0:0:0:
241,121,98975,6,0,L|243:58,2,60,2|0|8,0:0|0:0|1:2,0:0:0:0:
246,199,100060,2,0,P|304:202|355:172,1,120,2|2,0:0|0:0,0:0:0:0:
429,197,101145,1,4,1:2:0:0:
353,330,101868,6,0,L|208:336,1,120,2|8,0:0|1:2,0:0:0:0:
155,341,102952,1,0,0:0:0:0:
90,299,103314,2,0,P|79:264|88:178,1,120,2|8,0:0|1:2,0:0:0:0:
198,73,104760,6,0,L|198:4,2,60,2|0|8,0:0|0:0|1:2,0:0:0:0:
230,144,105845,1,0,0:0:0:0:
273,208,106206,2,0,L|273:268,2,60,2|0|4,0:0|0:0|1:2,0:0:0:0:
316,144,107291,1,0,0:0:0:0:
351,73,107652,6,0,P|384:81|438:157,1,120,4|8,0:0|1:2,0:0:0:0:
398,296,109099,2,0,L|259:318,1,120,2|8,0:0|1:2,0:0:0:0:
204,295,110183,1,0,0:0:0:0:
128,273,110545,6,0,P|126:309|143:345,2,60,2|0|8,0:0|0:0|1:2,0:0:0:0:
162,202,111630,1,0,0:0:0:0:
229,163,111991,2,0,L|233:87,1,60,2|0,0:0|0:0,0:0:0:0:
309,85,112714,2,0,L|305:144,1,60,4|0,1:2|0:0,0:0:0:0:
381,124,113437,6,0,B|383:69|383:69|373:27|326:11,1,120,4|8,0:0|1:2,0:0:0:0:
191,48,114884,2,0,P|154:50|127:40,1,60,2|0,0:0|0:0,0:0:0:0:
77,98,115607,2,0,P|106:119|150:126,1,60,8|0,1:2|0:0,0:0:0:0:
206,132,116330,1,0,0:0:0:0:
268,85,116691,1,2,0:0:0:0:
277,162,117053,6,0,L|253:232,1,60,8|0,1:2|0:0,0:0:0:0:
314,271,117776,2,0,L|270:318,2,60,2|2|4,0:0|0:0|1:2,0:0:0:0:
366,213,118861,1,2,0:0:0:0:
443,206,119222,6,0,P|491:233|506:301,1,120,4|8,0:0|1:2,0:0:0:0:
483,367,120307,1,0,0:0:0:0:
406,361,120668,2,0,L|281:350,1,120,2|8,0:0|1:2,0:0:0:0:
136,305,122115,6,0,B|92:294|92:294|32:298,2,90,2|2|2,0:0|0:0|0:0,0:0:0:0:
210,327,123561,1,2,0:0:0:0:
336,232,124284,1,8,1:2:0:0:
362,158,124646,1,2,0:0:0:0:
333,85,125007,6,0,P|269:72|199:88,1,120,4|8,0:0|1:2,0:0:0:0:
148,120,126092,1,0,0:0:0:0:
153,197,126453,2,0,P|217:210|287:194,1,120,2|8,0:0|1:2,0:0:0:0:
385,95,127900,6,0,L|395:-4,2,90,2|2|2,0:0|0:0|0:0,0:0:0:0:
333,153,129346,2,0,L|323:242,2,90,2|2|2,0:0|0:0|0:0,0:0:0:0:
308,79,130792,6,0,P|263:58|178:63,1,120,4|8,0:0|1:2,0:0:0:0:
128,100,131877,1,0,0:0:0:0:
101,173,132238,2,0,L|148:293,1,120,2|8,0:0|1:2,0:0:0:0:
296,318,133684,6,0,P|335:310|382:280,2,90,2|2|2,0:0|0:0|0:0,0:0:0:0:
232,272,135131,2,0,P|188:262|150:237,2,90,2|2|2,0:0|0:0|0:0,0:0:0:0:
303,240,136577,6,0,P|371:183|421:295,1,240,4|2,0:0|0:0,0:0:0:0:
288,358,138746,1,8,1:2:0:0:
211,374,139108,1,2,0:0:0:0:
134,358,139469,1,2,0:0:0:0:
60,218,140192,6,0,P|69:173|54:92,1,120,8|4,1:2|1:2,0:0:0:0:
118,51,141277,1,0,0:0:0:0:
195,57,141639,2,0,L|268:48,1,60,4|0,1:2|0:0,0:0:0:0:
332,62,142362,6,0,P|339:162|244:128,2,240,4|2|2,0:0|0:0|0:0,0:0:0:0:
177,80,145977,2,0,L|155:198,1,120,8|4,1:2|1:2,0:0:0:0:
142,275,147062,1,0,0:0:0:0:
97,338,147424,2,0,P|60:337|27:323,1,60,4|0,1:2|0:0,0:0:0:0:
5,258,148147,6,0,B|17:195|17:195|8:76|8:76|19:10,2,240,4|2|2,0:0|0:0|0:0,0:0:0:0:
127,355,151762,2,0,P|191:360|252:322,1,120,8|4,1:2|1:2,0:0:0:0:
276,266,152847,1,0,0:0:0:0:
265,188,153208,2,0,L|264:129,1,60,4|0,1:2|0:0,0:0:0:0:
285,52,153931,6,0,B|236:39|200:69|189:101|189:101|135:75|135:75|80:101,2,240,4|2|2,0:0|0:0|0:0,0:0:0:0:
431,107,157547,2,0,L|414:232,1,120,8|4,1:2|1:2,0:0:0:0:
390,300,158632,1,0,0:0:0:0:
326,345,158993,2,0,P|289:334|266:311,1,60,4|0,0:0|0:0,0:0:0:0:
250,245,159716,6,0,B|201:258|165:228|154:196|154:196|100:222|100:222|45:196,2,240,4|2|4,0:0|0:0|0:0,0:0:0:0:
324,221,162970,1,2,0:0:0:0:
368,157,163332,2,0,L|365:80,1,60,8|2,1:2|0:0,0:0:0:0:
310,41,164055,6,0,P|335:23|364:17,2,60,4|4|0,1:2|3:0|3:0,0:0:0:0:
250,91,165140,1,2,0:0:0:0:
189,41,165501,1,4,0:0:0:0:
346,230,177071,6,0,P|294:254|220:241,1,120,2|8,0:0|1:2,0:0:0:0:
149,114,178517,2,0,P|203:90|261:97,1,120,2|8,0:0|1:2,0:0:0:0:
331,134,179602,1,0,0:0:0:0:
367,202,179963,6,0,L|363:273,2,60,2|0|8,0:0|0:0|1:2,0:0:0:0:
408,135,181048,1,0,0:0:0:0:
477,98,181410,2,0,L|480:39,2,60,2|0|4,0:0|0:0|1:2,0:0:0:0:
484,175,182494,1,0,0:0:0:0:
458,248,182856,6,0,P|435:284|341:297,1,120,2|8,0:0|1:2,0:0:0:0:
222,238,184302,2,0,L|143:258,1,60,2|0,0:0|0:0,0:0:0:0:
89,230,185025,1,8,1:2:0:0:
78,152,185387,1,0,0:0:0:0:
144,110,185748,2,0,L|201:126,1,60,4|0,0:0|0:0,0:0:0:0:
269,87,186471,5,8,1:2:0:0:
346,81,186833,1,2,0:0:0:0:
416,115,187195,2,0,P|424:77|418:52,2,60,4|0|4,0:2|0:0|1:2,0:0:0:0:
351,159,188279,1,2,0:0:0:0:
419,196,188641,6,0,P|442:248|404:319,1,120,4|8,0:0|1:2,0:0:0:0:
364,357,189725,1,0,0:0:0:0:
296,318,190087,2,0,L|172:327,1,120,2|8,0:0|1:2,0:0:0:0:
114,279,191172,1,0,0:0:0:0:
128,202,191533,6,0,P|85:206|46:239,2,90,2|2|2,0:0|0:0|0:0,0:0:0:0:
202,224,192979,1,2,0:0:0:0:
164,73,193703,1,8,1:2:0:0:
234,109,194064,1,2,0:0:0:0:
311,98,194426,6,0,P|351:63|359:-4,2,120,4|8|2,0:0|1:2|0:0,0:0:0:0:
234,109,196233,1,0,0:0:0:0:
191,174,196595,1,8,1:2:0:0:
246,321,197318,6,0,L|357:303,2,90,2|2|2,0:0|0:0|0:0,0:0:0:0:
170,300,198764,2,0,L|81:314,2,90,2|2|2,0:0|0:0|0:0,0:0:0:0:
227,246,200210,6,0,L|345:226,1,120,4|8,0:0|1:2,0:0:0:0:
412,185,201295,1,0,0:0:0:0:
390,110,201657,2,0,P|338:92|256:104,1,120,2|8,0:0|1:2,0:0:0:0:
146,185,203103,6,0,L|142:297,2,90,2|2|2,0:0|0:0|0:0,0:0:0:0:
119,111,204549,2,0,L|122:21,2,90,2|2|2,0:0|0:0|0:0,0:0:0:0:
74,175,205995,6,0,L|70:298,2,120,4|8|2,0:0|1:2|0:0,0:0:0:0:
177,58,208165,1,8,1:2:0:0:
250,30,208526,1,2,0:0:0:0:
322,58,208888,1,2,0:0:0:0:
457,134,209611,6,0,L|446:197,1,60,8|0,1:2|0:0,0:0:0:0:
414,264,210334,2,0,P|371:283|292:256,1,120,4|4,1:2|1:2,0:0:0:0:
270,194,211419,1,0,0:0:0:0:
270,194,211780,6,0,L|132:191,1,120,4|8,0:0|1:2,0:0:0:0:
91,140,212865,1,0,0:0:0:0:
112,65,213226,2,0,P|176:57|229:76,1,120,2|8,0:0|1:2,0:0:0:0:
332,190,214673,6,0,L|428:175,2,90,2|2|2,0:0|0:0|0:0,0:0:0:0:
277,245,216119,2,0,P|289:274|315:295,1,60,2|0,0:0|0:0,0:0:0:0:
387,307,216842,1,8,1:2:0:0:
459,277,217204,1,2,0:0:0:0:
474,200,217565,6,0,P|448:137|405:108,1,120,4|8,0:0|1:2,0:0:0:0:
253,136,219011,2,0,L|114:136,1,120,2|8,0:0|1:2,0:0:0:0:
54,136,220096,1,0,0:0:0:0:
94,202,220458,6,0,P|109:242|94:306,2,90,2|2|2,0:0|0:0|0:0,0:0:0:0:
54,136,221904,1,2,0:0:0:0:
174,36,222627,2,0,L|247:36,1,60,8|0,1:2|0:0,0:0:0:0:
303,71,223350,6,0,P|343:77|409:27,2,120,4|8|2,0:0|1:2|0:0,0:0:0:0:
221,202,225519,1,8,1:2:0:0:
167,259,225881,1,0,0:0:0:0:
91,238,226242,6,0,L|78:142,2,90,2|2|2,0:0|0:0|0:0,0:0:0:0:
167,259,227689,2,0,L|179:348,2,90,2|2|2,0:0|0:0|0:0,0:0:0:0:
221,202,229135,6,0,P|274:181|346:320,1,240,4|2,0:0|0:0,0:0:0:0:
203,352,231304,1,8,1:2:0:0:
125,346,231666,1,2,0:0:0:0:
68,291,232027,1,2,0:0:0:0:
109,140,232750,6,0,P|188:135|227:114,1,120,8|2,1:2|0:0,0:0:0:0:
281,64,233835,1,0,0:0:0:0:
358,76,234197,2,0,L|372:139,1,60,4|0,1:2|0:0,0:0:0:0:
256,192,234920,12,0,243597,0:0:0:0:
