osu file format v14

[General]
AudioFilename: Hoobastank - The Reason.mp3
AudioLeadIn: 0
PreviewTime: 58662
Countdown: 0
SampleSet: Soft
StackLeniency: 0.7
Mode: 0
LetterboxInBreaks: 0
WidescreenStoryboard: 0

[Editor]
DistanceSpacing: 1
BeatDivisor: 4
GridSize: 4
TimelineZoom: 1

[Metadata]
Title:The Reason
TitleUnicode:The Reason
Artist:Hoobastank
ArtistUnicode:Hoobastank
Creator:Peachtrees
Version:Easy
Source:
Tags:Nwolf Post-grunge Alternative Island Rock Douglass Robb
BeatmapID:686564
BeatmapSetID:306787

[Difficulty]
HPDrainRate:2
CircleSize:3
OverallDifficulty:2
ApproachRate:3
SliderMultiplier:1
SliderTickRate:1

[Events]
//Background and Video events
0,0,"sun.jpg",0,0
//Break Periods
2,165701,175631
//Storyboard Layer 0 (Background)
//Storyboard Layer 1 (Fail)
//Storyboard Layer 2 (Pass)
//Storyboard Layer 3 (Foreground)
//Storyboard Sound Samples

[TimingPoints]
15095,723.109370292257,4,2,0,30,1,0
25218,-100,4,2,0,35,0,0
25941,-100,4,2,0,40,0,0
26664,-100,4,2,0,35,0,0
59204,-100,4,2,0,40,0,0
61373,-100,4,2,0,55,0,1
84513,-100,4,2,0,35,0,0
117053,-100,4,2,0,40,0,0
119222,-100,4,2,0,55,0,1
142362,-100,4,2,0,50,0,0
177071,-100,4,2,0,35,0,0
186471,-100,4,2,0,40,0,0
188641,-100,4,2,0,55,0,1
234920,-100,4,2,0,40,0,0
238535,-100,4,2,0,35,0,0
239258,-100,4,2,0,30,0,0
239982,-100,4,2,0,25,0,0
240705,-100,4,2,0,20,0,0
241428,-100,4,2,0,15,0,0
242151,-100,4,2,0,10,0,0
242874,-100,4,2,0,5,0,0

[Colours]
Combo1 : 124,197,35
Combo2 : 208,172,49
Combo3 : 66,139,221
Combo4 : 189,87,198

[HitObjects]
388,247,15094,6,0,P|342:229|307:193,1,100,2|0,0:0|0:0,0:0:0:0:
281,95,16541,2,0,P|237:119|211:161,1,100,2|0,0:0|0:0,0:0:0:0:
210,260,17987,6,0,P|236:301|279:325,2,100,2|8|2,0:0|1:0|0:0,0:0:0:0:
211,160,20156,1,8,1:0:0:0:
234,116,20518,1,0,0:0:0:0:
274,86,20879,6,0,L|378:86,2,100,2|8|2,0:0|1:0|0:0,0:0:0:0:
191,29,23049,1,8,1:0:0:0:
126,103,23772,2,0,L|125:202,1,100,2|8,0:0|1:0,0:0:0:0:
131,302,25218,2,0,P|156:298|178:287,1,50,4|2,2:2|0:0,0:0:0:0:
210,248,25941,2,0,P|234:251|256:263,1,50,4|2,1:2|0:0,0:0:0:0:
288,302,26664,6,0,L|400:305,1,100,4|8,0:0|1:2,0:0:0:0:
470,247,28110,2,0,P|465:198|439:156,1,100,2|8,0:0|1:2,0:0:0:0:
394,134,29194,1,0,0:0:0:0:
349,156,29557,2,0,P|323:198|318:247,2,100,2|8|2,0:0|1:2|0:0,0:0:0:0:
286,77,31726,1,4,1:2:0:0:
244,104,32088,1,2,0:0:0:0:
222,148,32449,6,0,P|193:170|126:178,1,100,2|8,0:0|1:2,0:0:0:0:
39,140,33895,2,0,P|32:185|57:247,1,100,2|8,0:0|1:2,0:0:0:0:
82,272,34980,1,0,0:0:0:0:
130,286,35342,2,0,L|236:278,1,100,2|8,0:0|1:2,0:0:0:0:
302,347,36788,2,0,L|408:339,1,100,2|4,0:0|1:2,0:0:0:0:
449,325,37872,1,2,0:0:0:0:
479,285,38234,6,0,P|490:224|474:178,1,100,2|8,0:0|1:2,0:0:0:0:
481,88,39680,2,0,P|432:99|396:133,1,100,2|8,0:0|1:2,0:0:0:0:
380,180,40765,1,0,0:0:0:0:
397,226,41126,2,0,P|433:259|481:271,2,100,2|8|2,0:0|1:2|0:0,0:0:0:0:
381,127,43296,2,0,L|311:120,1,50,4|2,1:2|0:0,0:0:0:0:
287,97,44019,6,0,L|178:84,1,100,2|8,0:0|1:2,0:0:0:0:
89,71,45465,2,0,P|96:123|130:165,1,100,2|8,0:0|1:2,0:0:0:0:
171,176,46550,1,0,0:0:0:0:
220,174,46911,2,0,P|248:214|254:263,2,100,2|8|2,0:0|1:2|0:0,0:0:0:0:
156,251,49081,1,4,1:2:0:0:
134,295,49442,1,0,0:0:0:0:
136,344,49804,6,0,L|238:351,1,100,2|8,0:0|1:2,0:0:0:0:
334,359,51250,1,0,0:0:0:0:
405,289,51973,1,8,1:2:0:0:
409,189,52696,2,0,L|413:77,2,100,2|8|2,0:0|1:2|0:0,0:0:0:0:
324,243,54866,2,0,P|302:239|269:216,1,50,4|2,1:2|0:0,0:0:0:0:
239,193,55589,6,0,P|259:242|146:256,1,200,2|2,0:0|0:0,0:0:0:0:
79,336,57758,2,0,P|52:274|62:226,1,100,8|2,1:2|0:0,0:0:0:0:
0,163,59204,6,0,P|46:146|95:153,1,100,8|2,1:2|0:0,0:0:0:0:
143,166,60289,1,2,0:0:0:0:
191,154,60650,2,0,P|208:131|215:109,1,50,4|0,1:2|0:0,0:0:0:0:
241,68,61373,6,0,L|340:59,1,100,4|8,0:0|1:2,0:0:0:0:
441,66,62820,2,0,L|450:187,1,100,2|8,0:0|1:2,0:0:0:0:
483,259,64266,2,0,P|428:262|375:236,1,100,2|8,0:0|1:2,0:0:0:0:
335,159,65712,2,0,P|280:156|227:182,1,100,2|8,0:0|1:2,0:0:0:0:
205,209,66797,1,2,0:0:0:0:
185,254,67158,6,0,L|200:361,2,100,4|8|2,0:0|1:2|0:0,0:0:0:0:
132,168,69328,1,8,1:2:0:0:
59,237,70051,2,0,L|74:344,2,100,2|8|2,0:0|1:2|0:0,0:0:0:0:
55,137,72220,1,8,1:2:0:0:
104,132,72582,1,0,0:0:0:0:
150,150,72943,6,0,P|200:144|242:118,1,100,4|8,0:0|1:2,0:0:0:0:
311,190,74389,2,0,P|335:146|339:97,1,100,2|8,0:0|1:2,0:0:0:0:
434,126,75836,2,0,P|425:49|405:23,2,100,2|8|2,0:0|1:2|0:0,0:0:0:0:
387,219,78005,1,8,1:2:0:0:
343,243,78367,1,0,0:0:0:0:
295,259,78728,6,0,B|195:267|195:267|94:241,2,200,4|2|2,0:0|0:0|0:0,0:0:0:0:
334,351,82344,2,0,P|358:340|376:315,1,50,8|0,1:2|0:0,0:0:0:0:
420,307,83067,2,0,L|417:200,1,100,4|4,1:2|1:2,0:0:0:0:
318,222,84513,6,0,L|316:112,1,100,4|8,0:2|1:2,0:0:0:0:
249,47,85959,2,0,P|217:37|138:47,1,100,2|8,0:0|1:2,0:0:0:0:
111,72,87044,1,0,0:0:0:0:
96,119,87405,2,0,L|107:242,2,100,2|8|2,0:0|1:2|0:0,0:0:0:0:
194,139,89575,1,4,1:2:0:0:
206,187,89937,1,2,0:0:0:0:
240,223,90298,6,0,P|285:224|348:184,1,100,2|8,0:0|1:2,0:0:0:0:
432,183,91744,2,0,P|429:231|397:277,1,100,2|8,0:0|1:2,0:0:0:0:
317,327,93190,2,0,P|349:357|420:371,2,100,2|8|2,0:0|1:2|0:0,0:0:0:0:
229,278,95360,2,0,L|175:274,1,50,4|0,1:2|0:0,0:0:0:0:
132,293,96083,6,0,L|16:284,1,100,2|8,0:0|1:2,0:0:0:0:
8,188,97529,2,0,L|19:77,1,100,2|8,0:0|1:2,0:0:0:0:
49,49,98613,1,0,0:0:0:0:
97,34,98975,2,0,P|146:35|193:52,1,100,2|8,0:0|1:2,0:0:0:0:
266,120,100421,2,0,P|314:124|363:114,1,100,2|4,0:0|1:2,0:0:0:0:
407,88,101505,1,2,0:0:0:0:
446,56,101868,6,0,L|457:164,1,100,2|8,0:0|1:2,0:0:0:0:
357,155,103314,2,0,L|337:267,1,100,2|8,0:0|1:2,0:0:0:0:
241,231,104760,2,0,L|196:340,2,100,2|8|2,0:0|1:2|0:0,0:0:0:0:
205,137,106929,1,4,1:2:0:0:
158,155,107291,1,0,0:0:0:0:
108,151,107652,6,0,P|91:120|94:48,1,100,4|8,0:0|1:2,0:0:0:0:
188,42,109099,2,0,P|204:72|201:144,1,100,2|8,0:0|1:2,0:0:0:0:
189,183,110184,1,0,0:0:0:0:
153,218,110545,2,0,L|54:238,2,100,2|8|2,0:0|1:2|0:0,0:0:0:0:
244,265,112714,1,4,1:2:0:0:
289,286,113076,1,0,0:0:0:0:
338,287,113437,6,0,P|419:252|449:151,1,200,2|2,0:0|0:0,0:0:0:0:
473,53,115607,2,0,P|432:51|379:79,1,100,8|2,1:2|0:0,0:0:0:0:
334,165,117053,6,0,P|293:167|240:139,1,100,8|2,1:2|0:0,0:0:0:0:
210,101,118138,1,2,0:0:0:0:
161,90,118499,2,0,L|114:107,1,50,4|2,1:2|0:0,0:0:0:0:
66,123,119222,6,0,B|49:75|49:75|58:4,2,100,4|8|2,0:0|1:2|0:0,0:0:0:0:
108,213,121392,1,8,1:2:0:0:
92,311,122115,2,0,P|141:307|181:278,1,100,2|8,0:0|1:2,0:0:0:0:
238,196,123561,2,0,P|287:199|327:228,1,100,2|8,0:0|1:2,0:0:0:0:
352,271,124646,1,2,0:0:0:0:
365,318,125007,6,0,P|414:314|454:285,2,100,4|8|2,0:0|1:2|0:0,0:0:0:0:
279,265,127176,1,8,1:2:0:0:
194,318,127900,2,0,P|144:314|104:285,2,100,2|8|2,0:0|1:2|0:0,0:0:0:0:
279,265,130069,1,8,1:2:0:0:
297,218,130430,1,2,0:0:0:0:
295,167,130792,6,0,L|192:159,1,100,4|8,0:0|1:2,0:0:0:0:
103,197,132238,1,2,0:0:0:0:
151,285,132961,1,8,1:2:0:0:
73,347,133684,2,0,P|23:317|1:266,2,100,2|8|2,0:0|1:2|0:0,0:0:0:0:
173,347,135854,1,8,1:2:0:0:
217,324,136216,1,0,0:0:0:0:
262,303,136577,6,0,B|359:323|359:323|457:303,2,200,4|2|2,0:0|0:0|0:0,0:0:0:0:
171,262,140192,1,8,1:2:0:0:
130,232,140554,1,0,0:0:0:0:
119,182,140916,2,0,P|136:135|176:106,1,100,4|4,1:2|1:2,0:0:0:0:
276,106,142362,6,0,P|361:169|366:273,2,200,4|2|2,0:0|0:0|2:0,0:0:0:0:
177,121,145977,1,8,1:2:0:0:
155,165,146339,1,0,0:0:0:0:
135,210,146700,2,0,L|91:305,1,100,4|4,1:2|1:2,0:0:0:0:
194,309,148147,6,0,L|279:117,2,200,4|2|2,0:0|0:0|2:0,0:0:0:0:
282,355,151762,1,8,1:2:0:0:
331,362,152124,1,0,0:0:0:0:
378,346,152485,2,0,P|392:325|385:241,1,100,4|4,1:2|1:2,0:0:0:0:
322,180,153931,6,0,P|342:101|439:35,2,200,4|2|2,0:0|0:0|2:0,0:0:0:0:
326,280,157547,2,0,L|265:280,1,50,8|0,1:2|0:0,0:0:0:0:
233,307,158270,2,0,P|186:310|124:269,1,100,4|4,1:2|1:2,0:0:0:0:
47,326,159716,6,0,B|21:230|21:230|39:126,2,200,4|2|4,0:0|0:0|0:0,0:0:0:0:
147,328,163332,1,8,1:2:0:0:
236,282,164055,1,4,1:2:0:0:
284,194,164778,1,4,3:3:0:0:
277,94,165501,1,4,0:0:0:0:
66,198,177071,6,0,P|117:214|165:205,1,100,2|8,0:0|1:2,0:0:0:0:
212,119,178517,2,0,P|260:111|307:127,1,100,2|8,0:0|1:2,0:0:0:0:
338,169,179603,1,0,0:0:0:0:
347,217,179963,2,0,L|333:321,2,100,2|8|2,0:0|1:2|0:0,0:0:0:0:
311,123,182133,2,0,P|275:119|244:103,1,50,4|0,1:2|0:0,0:0:0:0:
222,144,182856,6,0,P|142:138|94:241,1,200,2|2,0:0|0:0,0:0:0:0:
115,330,185025,1,8,1:2:0:0:
208,366,185748,1,4,2:2:0:0:
296,319,186471,6,0,B|281:270|281:270|282:206,1,100,8|4,1:2|2:2,0:0:0:0:
286,172,187556,1,2,0:0:0:0:
304,125,187918,2,0,P|333:133|359:131,1,50,4|2,1:2|0:0,0:0:0:0:
391,99,188641,6,0,P|449:106|493:140,1,100,4|8,0:0|1:2,0:0:0:0:
411,199,190087,2,0,L|436:310,1,100,2|8,0:0|1:2,0:0:0:0:
340,333,191533,2,0,L|318:235,1,100,2|8,0:0|1:2,0:0:0:0:
237,178,192979,2,0,P|188:188|148:218,1,100,2|8,0:0|1:2,0:0:0:0:
154,267,194064,1,2,0:0:0:0:
187,304,194426,6,0,P|235:293|275:263,1,100,4|8,0:0|1:2,0:0:0:0:
359,317,195872,2,0,P|374:269|364:221,1,100,2|8,0:0|1:2,0:0:0:0:
423,141,197318,2,0,P|458:189|463:241,2,100,2|8|2,0:0|1:2|0:0,0:0:0:0:
333,96,199487,1,8,1:2:0:0:
284,107,199849,1,0,0:0:0:0:
235,119,200210,6,0,L|122:118,1,100,4|8,0:0|1:2,0:0:0:0:
55,179,201657,1,2,0:0:0:0:
56,278,202380,1,8,1:2:0:0:
130,344,203103,2,0,L|231:343,2,100,2|8|2,0:0|1:2|0:0,0:0:0:0:
70,264,205272,1,8,1:2:0:0:
44,220,205634,1,0,0:0:0:0:
54,171,205995,6,0,P|133:138|242:195,1,200,4|2,0:0|0:0,0:0:0:0:
299,256,208165,1,8,1:2:0:0:
393,222,208888,1,2,0:0:0:0:
441,309,209611,2,0,P|417:320|375:319,1,50,8|0,1:2|0:0,0:0:0:0:
348,342,210334,2,0,L|238:336,1,100,4|4,1:2|1:2,0:0:0:0:
167,278,211780,6,0,L|57:272,1,100,4|8,0:0|1:2,0:0:0:0:
12,189,213226,1,2,0:0:0:0:
77,113,213950,1,8,1:2:0:0:
162,164,214673,2,0,P|214:168|258:149,2,100,2|8|2,0:0|1:2|0:0,0:0:0:0:
77,113,216842,1,8,1:2:0:0:
70,162,217204,1,0,0:0:0:0:
65,211,217565,6,0,P|89:245|152:273,1,100,4|8,0:0|1:2,0:0:0:0:
223,216,219011,2,0,P|267:236|297:276,1,100,2|8,0:0|1:2,0:0:0:0:
297,326,220096,1,0,0:0:0:0:
266,365,220458,2,0,L|159:370,2,100,2|8|2,0:0|1:2|0:0,0:0:0:0:
365,371,222627,1,8,1:2:0:0:
412,354,222988,1,0,0:0:0:0:
444,316,223350,6,0,L|447:214,1,100,4|8,0:0|1:2,0:0:0:0:
347,229,224796,2,0,L|325:117,1,100,2|8,0:0|1:2,0:0:0:0:
233,163,226242,2,0,L|180:72,2,100,2|8|2,0:0|1:2|0:0,0:0:0:0:
271,255,228412,1,8,1:2:0:0:
257,302,228773,1,2,0:0:0:0:
214,328,229135,6,0,P|143:320|80:197,2,200,4|2|2,0:0|0:0|0:0,0:0:0:0:
310,352,232750,2,0,L|314:297,1,50,8|0,1:2|0:0,0:0:0:0:
341,260,233474,2,0,L|346:158,1,100,2|4,0:0|1:2,0:0:0:0:
256,192,234920,12,0,243597,0:0:0:0:
