osu file format v5

[General]
AudioFilename: Copy of hoobastank - every man for himself - inside of you.mp3
AudioLeadIn: 0
PreviewTime: -1
Countdown: 1
SampleSet: None
StackLeniency: 0.7
Mode: 0

[Metadata]
Title:Inside Of You
Artist:Hoobastank
Creator:Bobrob115
Version:Easy
Source:
Tags:

[Difficulty]
HPDrainRate:0
CircleSize:5
OverallDifficulty:0
SliderMultiplier:2.6
SliderTickRate:4

[Events]
//Background and Video events
0,0,"OrangeFlame.jpg"
//Break Periods
//Storyboard Layer 0 (Background)
//Storyboard Layer 1 (Failing)
//Storyboard Layer 2 (Passing)
//Storyboard Layer 3 (Foreground)
//Storyboard Sound Samples
//Background Colour Transformations
3,100,163,162,255

[TimingPoints]
16695,594.883997620464,4,0,0,100

[Colours]
Combo1 : 255,150,0
Combo2 : 5,240,5
Combo3 : 5,5,240
Combo4 : 240,5,5

[HitObjects]
128,96,1748,1,0
256,96,2888,1,0
384,96,4193,1,0
384,224,5341,1,0
256,224,6532,1,0
128,224,7762,1,0
128,32,9518,1,0
256,64,10794,1,0
352,128,11932,1,0
416,224,13005,1,0
288,192,14296,5,0
160,128,15500,1,0
288,96,16628,1,0
384,192,17848,1,0
64,64,20974,6,0,B|480:352|480:352|448:352|128:256|64:192|-32:160,2,1040
256,96,40096,1,0
192,128,44708,1,0
288,96,46262,1,0
224,128,48256,1,0
320,128,49299,5,0
224,96,50411,1,0
160,160,51530,1,0
352,128,52781,1,0
224,128,54033,1,0
128,96,55379,1,0
160,96,59428,5,0
256,96,61206,1,0
320,96,63143,1,0
288,96,63675,1,0
256,96,64260,1,0
224,96,64809,1,0
192,96,65455,1,0
256,96,67897,1,0
288,96,68379,1,0
320,96,68923,1,0
192,96,70351,1,0
224,96,70895,1,0
224,160,71395,1,0
320,96,72652,5,0
128,96,75044,5,0
288,96,76427,5,0
192,160,77893,5,0
384,128,79175,5,0
256,96,80603,5,0
480,352,82877,5,0
256,192,84663,1,0
64,32,85651,1,0
192,96,86351,1,0
256,96,86871,1,0
256,192,89747,12,0,96619
96,96,99970,1,0
192,96,101603,1,0
256,96,104614,1,0
352,96,108190,1,0
160,96,109466,1,0
160,128,111736,1,0
256,128,112928,1,0
224,224,114264,1,0
416,96,115545,5,0
192,96,116720,1,0
288,160,117752,1,0
256,192,120064,12,0,126376
224,96,127105,1,0
320,96,129482,1,0
320,160,130714,1,0
192,128,133256,5,0
256,128,133784,1,0
352,128,135048,1,0
288,128,135616,1,0
224,128,136616,1,0
160,128,138856,1,0
224,128,139304,1,0
288,128,140192,1,0
352,128,140768,1,0
416,128,141296,1,0
320,192,142023,1,0
256,160,142304,1,0
320,128,142623,1,0
352,96,142896,1,0
320,64,143199,1,0
384,96,144584,5,0
288,96,145104,1,0
192,96,146119,1,0
256,192,150975,12,0,155335
128,32,157888,6,0,B|256:160|384:128|192:128,5,260
256,96,168935,1,0
384,96,170167,1,0
128,96,173800,1,0
256,192,175527,12,0,188750
