osu file format v12

[General]
AudioFilename: Hong Jong Myeong & TULA - Digimon Adventure.mp3
AudioLeadIn: 0
PreviewTime: 18143
Countdown: 0
SampleSet: Normal
StackLeniency: 0.7
Mode: 0
LetterboxInBreaks: 0
WidescreenStoryboard: 0

[Editor]
Bookmarks: 11675,29119,34934,46563,49470,61100,75636,80361
DistanceSpacing: 1
BeatDivisor: 4
GridSize: 4

[Metadata]
Title:Digimon Adventure
TitleUnicode:디지몬 어드벤처
Artist:Hong Jong Myeong & TULA
ArtistUnicode:홍종명 & 툴라
Creator:Sonnyc
Version:Insane
Source:Digimon Adventure
Tags:K_i_A_i -Kirito
BeatmapID:271495
BeatmapSetID:102872

[Difficulty]
HPDrainRate:7
CircleSize:4
OverallDifficulty:8
ApproachRate:8
SliderMultiplier:2.2
SliderTickRate:2

[Events]
//Background and Video events
0,0,"bg.jpg",0,0
//Break Periods
//Storyboard Layer 0 (Background)
//Storyboard Layer 1 (Fail)
//Storyboard Layer 2 (Pass)
//Storyboard Layer 3 (Foreground)
//Storyboard Sound Samples
//Background Colour Transformations
3,100,0,0,0

[TimingPoints]
700,363.416111447608,4,1,1,50,1,0
53031,-166.666666666667,4,1,1,30,0,0
53395,-142.857142857143,4,1,1,34,0,0
53758,-125,4,1,1,38,0,0
54122,-111.111111111111,4,1,1,42,0,0
54485,-99.9999999999999,4,1,1,46,0,0
54849,-99.9999999999999,4,1,1,50,0,0
55212,-99.9999999999999,4,1,1,54,0,0
55575,-99.9999999999999,4,1,1,58,0,0
55939,-100,4,1,1,60,0,1
66841,-100,4,1,1,60,0,0
67568,-100,4,1,1,60,0,1
82105,-100,4,1,1,50,0,0
87193,-100,4,1,1,30,0,0

[Colours]
Combo1 : 255,124,62
Combo2 : 0,215,0
Combo3 : 17,136,255
Combo4 : 255,70,70

[HitObjects]
308,316,18143,6,0,P|308:308|364:228,1,110,6|2,0:0|0:2,0:0:0:0:
204,316,18507,2,0,P|204:308|148:228,1,110,8|2,0:0|0:2,0:0:0:0:
90,134,18870,2,0,P|128:120|196:128,1,110,2|2,0:0|0:2,0:0:0:0:
421,134,19234,2,0,P|384:120|316:128,1,110,8|2,0:0|0:2,0:0:0:0:
256,248,19597,6,0,L|256:358,1,110,2|2,0:0|0:2,0:0:0:0:
256,248,19961,2,0,L|256:138,1,110,8|2,0:0|0:2,0:0:0:0:
148,228,20324,2,0,L|128:336,1,110,0|2,0:0|0:2,0:0:0:0:
384,336,20687,2,0,L|364:228,1,110,8|2,0:0|0:2,0:0:0:0:
256,138,21051,6,0,B|224:220|288:272|256:356,2,220,2|8|2,0:0|0:0|0:0,0:0:0:0:
344,32,21959,1,2,0:2:0:0:
448,120,22141,1,8,0:0:0:0:
363,228,22323,1,2,0:2:0:0:
256,138,22504,2,0,P|160:94|60:138,2,220,2|8|0,0:0|0:0|0:0,0:0:0:0:
232,276,23413,5,0,3:0:0:0:
211,308,23504,1,0,3:0:0:0:
182,333,23595,1,8,3:1:0:0:
146,347,23686,1,0,3:0:0:0:
108,351,23776,1,0,3:0:0:0:
70,344,23867,1,0,3:0:0:0:
37,324,23958,6,0,P|72:224|72:220,1,110,6|0,0:0|0:0,0:0:0:0:
204,96,24322,2,0,P|169:196|169:200,1,110,8|0,0:0|0:0,0:0:0:0:
304,188,24685,1,2,0:0:0:0:
404,280,24867,2,0,P|428:240|436:164,2,110,0|8|0,0:0|0:0|0:0,0:0:0:0:
304,188,25412,6,0,P|304:176|472:44,1,220,6|8,0:0|0:0,0:0:0:0:
208,188,25957,2,0,P|208:176|40:44,1,220,6|0,0:0|0:0,0:0:0:0:
204,284,26502,2,0,P|256:300|308:284,1,110,8|0,0:0|0:0,0:0:0:0:
392,212,26865,6,0,P|380:120|272:60,1,220,2|8,0:0|0:0,0:0:0:0:
74,149,27411,2,0,L|176:108,1,110,0|2,0:0|0:0,0:0:0:0:
134,273,27774,2,0,L|236:232,2,110,0|8|0,0:0|0:0|0:0,0:0:0:0:
248,352,28319,6,0,P|320:352|480:324,1,220,6|8,0:0|0:0,0:0:0:0:
392,212,28864,1,0,0:0:0:0:
452,88,29046,5,0,0:0:0:0:
452,88,29137,2,0,P|404:60|308:56,1,110,2|0,3:0|3:0,3:0:0:0:
312,52,29409,1,8,3:1:0:0:
273,57,29500,1,0,3:0:0:0:
237,69,29591,1,0,3:0:0:0:
204,88,29682,1,0,3:0:0:0:
174,113,29773,6,0,P|136:132|69:132,1,110,6|2,0:0|0:2,0:0:0:0:
69,252,30136,2,0,P|136:252|174:271,1,110,8|2,0:0|0:2,0:0:0:0:
308,244,30500,2,0,P|296:216|308:140,1,110,2|2,0:0|0:2,0:0:0:0:
444,144,30863,2,0,P|456:220|444:248,1,110,8|2,0:0|0:2,0:0:0:0:
372,332,31226,6,0,B|288:372|240:304|156:344,2,220,2|8|2,0:0|0:0|0:0,0:0:0:0:
376,194,32135,1,2,0:2:0:0:
260,120,32317,2,0,P|216:156|196:208,1,110,8|2,0:0|0:2,0:0:0:0:
80,184,32680,6,0,P|118:87|206:15,2,220,2|8|2,0:0|0:0|0:0,0:0:0:0:
108,320,33589,1,2,0:2:0:0:
212,232,33770,2,0,P|240:280|244:336,1,110,8|2,0:0|0:2,0:0:0:0:
380,352,34134,2,0,P|344:296|376:148,2,220,2|8|0,0:0|0:0|0:0,0:0:0:0:
472,248,35042,5,0,3:0:0:0:
496,218,35133,1,0,3:0:0:0:
511,183,35224,1,8,3:1:0:0:
512,145,35315,1,0,3:0:0:0:
509,107,35406,1,0,3:0:0:0:
491,73,35497,1,0,3:0:0:0:
462,48,35587,6,0,B|416:12|352:28|352:28|324:68,1,165,6|0,0:0|0:0,0:0:0:0:
304,100,35951,1,8,0:0:0:0:
338,232,36133,2,0,P|380:200|402:148,1,110,0|2,0:0|0:0,0:0:0:0:
200,236,36496,2,0,P|207:288|240:333,2,110,0|8|0,0:0|0:0|0:0,0:0:0:0:
180,100,37041,6,0,P|116:120|60:212,1,165,6|0,0:0|0:0,0:0:0:0:
56,236,37405,1,8,0:0:0:0:
96,368,37586,2,0,B|184:368|220:312|308:312,1,220,6|0,0:0|0:0,0:0:0:0:
444,312,38131,2,0,P|436:256|388:200,1,110,8|0,0:0|0:0,0:0:0:0:
440,80,38495,6,0,P|376:116|284:104,1,165,2|0,0:0|0:0,0:0:0:0:
256,84,38858,1,8,0:0:0:0:
256,220,39040,1,0,0:0:0:0:
123,258,39222,2,0,P|120:204|136:152,1,110,2|0,0:0|0:0,0:0:0:0:
376,152,39585,2,0,P|392:204|388:258,1,110,8|0,0:0|0:0,0:0:0:0:
304,368,39948,2,0,P|272:292|208:368,2,220,2|8|2,0:0|0:0|3:1,0:0:0:0:
342,370,40766,5,0,3:0:0:0:
379,362,40857,1,0,3:0:0:0:
414,345,40948,1,0,3:0:0:0:
442,319,41039,1,8,3:1:0:0:
462,286,41130,1,0,3:0:0:0:
474,250,41220,1,0,3:0:0:0:
475,211,41311,1,0,3:0:0:0:
466,174,41402,5,2,0:0:0:0:
276,168,41584,1,2,0:2:0:0:
304,196,41675,1,0,0:0:0:0:
332,224,41766,1,8,0:0:0:0:
300,32,41947,1,2,0:2:0:0:
172,80,42129,2,0,P|124:104|88:152,1,110,2|2,0:0|0:2,0:0:0:0:
172,304,42492,2,0,P|124:280|88:232,1,110,8|2,0:0|0:2,0:0:0:0:
300,352,42856,5,2,0:0:0:0:
218,230,43037,1,2,0:2:0:0:
197,199,43128,1,0,0:0:0:0:
176,168,43219,1,8,0:0:0:0:
384,240,43401,1,2,0:2:0:0:
172,304,43583,1,0,0:0:0:0:
308,128,43764,1,2,0:2:0:0:
300,352,43946,1,8,0:0:0:0:
64,208,44309,5,2,0:0:0:0:
156,48,44491,1,2,0:2:0:0:
120,60,44582,1,0,0:0:0:0:
84,72,44673,1,8,0:0:0:0:
256,140,44855,1,2,0:2:0:0:
188,260,45036,2,0,P|160:212|152:156,1,110,2|2,0:0|0:2,0:0:0:0:
324,260,45400,2,0,P|352:212|360:156,1,110,8|2,0:0|0:2,0:0:0:0:
256,68,45763,5,2,0:0:0:0:
256,288,45945,1,2,0:2:0:0:
256,248,46036,1,0,0:0:0:0:
256,212,46127,1,8,0:0:0:0:
256,360,46308,1,2,0:2:0:0:
372,248,46490,5,0,0:0:0:0:
256,140,46672,1,2,0:2:0:0:
140,248,46853,1,8,3:1:0:0:
104,256,46944,1,0,3:0:0:0:
68,248,47035,1,2,3:2:0:0:
36,228,47126,1,0,3:0:0:0:
16,196,47217,6,0,P|12:168|44:96,1,110,2|0,0:0|0:0,0:0:0:0:
78,76,47489,1,0,0:0:0:0:
116,70,47580,1,8,0:0:0:0:
228,144,47762,1,2,0:2:0:0:
140,248,47944,2,0,P|184:288|200:336,1,110,2|2,0:0|0:2,0:0:0:0:
372,248,48307,2,0,P|328:288|312:336,1,110,8|2,0:0|0:2,0:0:0:0:
448,364,48670,5,2,0:0:0:0:
472,176,48852,1,2,0:2:0:0:
492,208,48943,1,0,0:0:0:0:
512,240,49034,1,8,0:0:0:0:
508,48,49216,1,2,0:2:0:0:
376,80,49397,1,0,0:0:0:0:
244,112,49579,2,0,P|244:60|268:0,1,110,2|8,0:2|0:0,0:0:0:0:
352,292,50124,6,0,P|256:336|188:312,1,165,2|0,0:0|0:0,0:0:0:0:
160,292,50488,1,8,0:0:0:0:
256,192,50669,1,2,0:2:0:0:
352,92,50851,2,0,P|356:92|444:144,1,110,2|2,0:0|0:2,0:0:0:0:
352,292,51214,2,0,P|356:292|444:240,1,110,8|2,0:0|0:2,0:0:0:0:
352,92,51578,6,0,L|240:92,1,110,6|2,0:0|0:2,0:0:0:0:
96,192,51941,2,0,L|208:192,1,110,8|2,0:0|0:2,0:0:0:0:
352,292,52305,2,0,L|240:292,1,110,2|2,0:0|0:2,0:0:0:0:
80,84,53031,6,0,L|144:68,1,65.9999979858399
104,156,53395,6,0,L|200:132,1,76.9999976501466,8|0,0:0|0:0,0:0:0:0:
128,228,53758,6,0,L|224:204,1,88
152,300,54122,6,0,L|248:276,1,98.9999969787599,8|0,0:0|0:0,0:0:0:0:
352,312,54485,5,0,0:0:0:0:
456,352,54667,1,0,0:0:0:0:
476,140,54849,5,8,0:0:0:0:
436,244,55030,1,0,0:0:0:0:
264,116,55212,5,0,0:0:0:0:
368,156,55394,1,0,0:0:0:0:
244,328,55575,5,8,0:0:0:0:
284,224,55757,1,0,0:0:0:0:
164,220,55939,6,0,P|124:156|160:16,1,220,6|8,0:0|0:0,0:0:0:0:
256,116,56484,1,2,0:2:0:0:
348,220,56666,2,0,P|388:156|352:16,1,220,2|8,0:0|0:0,0:0:0:0:
256,116,57211,1,2,0:2:0:0:
256,268,57392,5,2,0:0:0:0:
212,71,57756,1,8,0:0:0:0:
299,312,58119,1,2,0:0:0:0:
152,52,58483,1,8,0:0:0:0:
360,332,58846,6,0,P|412:300|376:156,1,220,2|8,0:0|0:0,0:0:0:0:
256,128,59391,1,2,0:2:0:0:
123,162,59573,2,0,P|100:300|152:332,1,220,2|8,0:0|0:0,0:0:0:0:
272,264,60118,1,2,0:2:0:0:
172,240,60300,5,2,0:0:0:0:
340,144,60663,1,8,0:0:0:0:
152,332,61027,1,2,0:0:0:0:
359,51,61390,1,8,0:0:0:0:
84,268,61753,6,0,P|56:204|120:80,1,220,2|8,0:0|0:0,0:0:0:0:
260,60,62299,1,2,0:2:0:0:
164,184,62480,2,0,P|208:224|348:184,1,220,2|8,0:0|0:0,0:0:0:0:
440,84,63025,1,2,0:2:0:0:
476,216,63207,6,0,P|396:260|332:372,1,220,2|8,0:0|0:0,0:0:0:0:
179,368,63752,2,0,P|116:260|36:216,1,220,2|0,0:0|0:0,0:0:0:0:
76,84,64297,2,0,P|124:116|180:124,1,110,8|2,0:0|0:2,0:0:0:0:
312,112,64661,5,2,0:0:0:0:
330,100,64752,1,0,3:0:0:0:
351,92,64842,1,0,3:0:0:0:
372,88,64933,1,0,3:0:0:0:
394,88,65024,1,8,0:0:0:0:
416,93,65115,1,0,3:0:0:0:
436,100,65206,1,0,3:0:0:0:
455,112,65297,1,0,3:0:0:0:
471,127,65388,5,0,0:0:0:0:
484,145,65478,1,0,3:0:0:0:
493,165,65569,1,0,3:0:0:0:
481,175,65660,1,0,3:0:0:0:
461,183,65751,1,8,0:0:0:0:
442,195,65842,1,0,3:0:0:0:
426,210,65933,1,0,3:0:0:0:
413,228,66024,1,0,3:0:0:0:
403,247,66114,6,0,P|368:296|312:324,1,110,2|2,0:0|0:2,0:0:0:0:
198,184,66478,2,0,P|257:190|300:216,1,110,8|2,0:0|0:2,0:0:0:0:
124,112,66841,2,0,P|178:87|228:88,1,110,8|2,0:0|0:2,0:0:0:0:
24,84,67205,2,0,P|59:35|102:11,1,110,8|2,0:0|0:2,0:0:0:0:
52,184,67568,6,0,P|12:256|100:344,1,220,6|8,0:0|0:0,0:0:0:0:
256,352,68113,1,2,0:2:0:0:
416,343,68295,2,0,P|500:256|460:184,1,220,2|8,0:0|0:0,0:0:0:0:
321,194,68840,1,2,0:2:0:0:
407,255,69022,5,2,0:0:0:0:
320,40,69385,1,8,0:0:0:0:
256,352,69749,1,2,0:0:0:0:
192,40,70112,1,8,0:0:0:0:
60,280,70475,6,0,P|120:256|188:120,1,220,2|8,0:0|0:0,0:0:0:0:
256,212,71021,1,2,0:2:0:0:
323,124,71202,2,0,P|392:256|452:280,1,220,2|8,0:0|0:0,0:0:0:0:
488,176,71747,1,2,0:2:0:0:
368,352,71929,5,2,0:0:0:0:
324,124,72292,1,8,0:0:0:0:
144,352,72656,1,2,0:0:0:0:
188,124,73019,1,8,0:0:0:0:
256,248,73383,6,0,P|140:256|56:168,1,220,2|8,0:0|0:0,0:0:0:0:
160,80,73928,1,2,0:2:0:0:
304,51,74110,2,0,P|416:108|445:191,1,220,2|8,0:0|0:0,0:0:0:0:
376,312,74655,1,2,0:2:0:0:
256,248,74836,6,0,P|292:200|340:180,1,110,2|2,0:0|0:2,0:0:0:0:
260,380,75200,1,8,0:0:0:0:
144,316,75382,2,0,P|124:248|144:180,2,110,2|2|2,0:2|0:0|0:2,0:0:0:0:
376,312,75927,2,0,P|381:274|361:206,1,110,8|2,0:0|0:2,0:0:0:0:
396,72,76290,5,2,0:0:0:0:
367,55,76381,1,0,3:0:0:0:
336,45,76472,1,0,3:0:0:0:
303,44,76563,1,0,3:0:0:0:
270,50,76653,1,8,0:0:0:0:
240,63,76744,1,0,3:0:0:0:
214,83,76835,1,0,3:0:0:0:
192,108,76926,1,0,3:0:0:0:
204,140,77017,5,0,0:0:0:0:
209,172,77108,1,0,3:0:0:0:
202,204,77199,1,0,3:0:0:0:
185,232,77289,1,0,3:0:0:0:
158,251,77380,1,8,0:0:0:0:
127,260,77471,1,0,3:0:0:0:
94,258,77562,1,0,3:0:0:0:
65,244,77653,1,0,3:0:0:0:
42,220,77744,6,0,B|28:164|28:164|40:108,1,110,2|2,0:0|0:2,0:0:0:0:
192,108,78107,2,0,B|247:123|247:123|290:162,1,110,8|2,0:0|0:2,0:0:0:0:
332,68,78471,2,0,B|372:109|372:109|390:164,1,110,8|2,0:0|0:2,0:0:0:0:
472,100,78834,2,0,B|486:156|486:156|474:212,1,110,8|2,0:0|0:2,0:0:0:0:
392,316,79197,5,0,0:0:0:0:
352,335,79288,1,0,3:0:0:0:
309,344,79379,1,0,3:0:0:0:
265,342,79470,1,0,3:0:0:0:
223,329,79561,1,8,0:0:0:0:
186,306,79652,1,0,3:0:0:0:
155,275,79743,1,0,3:0:0:0:
136,236,79833,1,0,3:0:0:0:
172,212,79924,5,0,0:0:0:0:
210,190,80015,1,0,3:0:0:0:
234,154,80106,1,0,3:0:0:0:
238,111,80197,1,0,3:0:0:0:
222,70,80288,1,8,0:0:0:0:
190,41,80378,1,0,3:0:0:0:
147,31,80469,1,0,3:0:0:0:
108,48,80560,1,0,3:0:0:0:
83,85,80651,6,0,P|84:120|146:126,1,110,2|2,0:0|0:2,0:0:0:0:
312,40,81014,2,0,P|336:100|324:168,1,110,8|2,0:0|0:2,0:0:0:0:
359,316,81378,2,0,P|295:307|242:262,1,110,8|2,0:0|0:2,0:0:0:0:
96,220,81741,2,0,P|135:169|200:145,1,110,8|2,0:0|0:2,0:0:0:0:
336,150,82105,6,0,P|375:130|415:79,1,110,2|0,0:0|3:0,0:0:0:0:
420,40,82377,1,0,3:0:0:0:
388,16,82468,2,0,P|332:16|272:48,1,110,8|0,0:0|3:0,0:0:0:0:
256,64,82741,1,0,3:0:0:0:
228,92,82832,2,0,P|176:124|116:120,1,110,0|0,0:0|3:0,0:0:0:0:
92,108,83104,1,0,3:0:0:0:
56,128,83195,5,8,0:0:0:0:
60,160,83286,1,0,3:0:0:0:
64,192,83377,1,0,3:0:0:0:
68,224,83468,1,0,3:0:0:0:
72,256,83558,1,4,0:0:0:0:
256,192,83649,12,0,87193,0:0:0:0:
