osu file format v14

[General]
AudioFilename: senpai.mp3
AudioLeadIn: 0
PreviewTime: 66800
Countdown: 0
SampleSet: Soft
StackLeniency: 0.7
Mode: 3
LetterboxInBreaks: 0
SpecialStyle: 0
WidescreenStoryboard: 1

[Editor]
DistanceSpacing: 1.2
BeatDivisor: 4
GridSize: 16
TimelineZoom: 1.6

[Metadata]
Title:Senpai.
TitleUnicode:センパイ。
Artist:Honeyworks meets TrySail
ArtistUnicode:Honeyworks meets TrySail
Creator:Amids
Version:Normal
Source:好きになるその瞬間を。~告白実行委員会~
Tags:Suki ni Naru Sono Shuukan ~Kokuhaku Shikko Iin Kai~ opening Hamids-
BeatmapID:1406501
BeatmapSetID:664015

[Difficulty]
HPDrainRate:7
CircleSize:4
OverallDifficulty:6.5
ApproachRate:5
SliderMultiplier:1.4
SliderTickRate:1

[Events]
//Background and Video events
0,0,"senpai.jpg",0,0
//Break Periods
//Storyboard Layer 0 (Background)
//Storyboard Layer 1 (Fail)
//Storyboard Layer 2 (Pass)
//Storyboard Layer 3 (Foreground)
//Storyboard Sound Samples

[TimingPoints]
1430,370.37037037037,4,2,1,40,1,0
11615,-100,4,2,1,50,0,0
13281,-100,4,2,1,20,0,0
14022,-100,4,2,1,40,0,0
67355,-100,4,2,1,40,0,1
79207,-100,4,2,1,40,0,0
85133,-100,4,2,1,40,0,1
91059,-100,4,2,1,40,0,0

[HitObjects]
64,192,1430,5,0,0:0:0:0:
192,192,1430,1,0,0:0:0:0:
448,192,1800,1,0,0:0:0:0:
192,192,2170,1,0,0:0:0:0:
320,192,2541,1,0,0:0:0:0:
448,192,2726,1,0,0:0:0:0:
64,192,2726,1,0,0:0:0:0:
192,192,3281,1,0,0:0:0:0:
320,192,3652,1,0,0:0:0:0:
64,192,4022,1,0,0:0:0:0:
192,192,4392,1,0,0:0:0:0:
448,192,4392,1,0,0:0:0:0:
320,192,4763,1,0,0:0:0:0:
192,192,5133,1,0,0:0:0:0:
448,192,5504,1,0,0:0:0:0:
320,192,5689,1,0,0:0:0:0:
64,192,5689,1,0,0:0:0:0:
192,192,6059,1,0,0:0:0:0:
448,192,6244,1,0,0:0:0:0:
64,192,6429,1,0,0:0:0:0:
320,192,6615,1,0,0:0:0:0:
192,192,6800,1,0,0:0:0:0:
448,192,6985,1,0,0:0:0:0:
320,192,7170,1,0,0:0:0:0:
192,192,7355,1,0,0:0:0:0:
64,192,7355,1,0,0:0:0:0:
448,192,7726,1,0,0:0:0:0:
320,192,8096,1,0,0:0:0:0:
64,192,8467,1,0,0:0:0:0:
192,192,8652,1,0,0:0:0:0:
448,192,8652,1,0,0:0:0:0:
320,192,9207,1,0,0:0:0:0:
192,192,9578,1,0,0:0:0:0:
448,192,9948,1,0,0:0:0:0:
320,192,10318,1,0,0:0:0:0:
64,192,10318,1,0,0:0:0:0:
192,192,10689,1,0,0:0:0:0:
448,192,11059,1,0,0:0:0:0:
64,192,11244,1,0,0:0:0:0:
192,192,11429,1,0,0:0:0:0:
448,192,11615,1,0,0:0:0:0:
320,192,11615,1,0,0:0:0:0:
64,192,11985,1,0,0:0:0:0:
64,192,12170,1,0,0:0:0:0:
192,192,12355,1,0,0:0:0:0:
192,192,12541,1,0,0:0:0:0:
320,192,12726,1,0,0:0:0:0:
320,192,12911,1,0,0:0:0:0:
64,192,13096,1,0,0:0:0:0:
448,192,13096,1,0,0:0:0:0:
192,192,13467,1,0,0:0:0:0:
320,192,13652,1,0,0:0:0:0:
448,192,14022,1,0,0:0:0:0:
64,192,14022,1,0,0:0:0:0:
320,192,14392,1,0,0:0:0:0:
192,192,14392,1,0,0:0:0:0:
448,192,14763,1,0,0:0:0:0:
64,192,15133,1,0,0:0:0:0:
192,192,15133,1,0,0:0:0:0:
320,192,15504,1,0,0:0:0:0:
64,192,15874,1,0,0:0:0:0:
448,192,15874,1,0,0:0:0:0:
192,192,16059,128,0,16244:0:0:0:0:
320,192,16244,128,0,16429:0:0:0:0:
64,192,16429,128,0,16615:0:0:0:0:
192,192,16615,128,0,16800:0:0:0:0:
320,192,16800,128,0,16985:0:0:0:0:
448,192,16985,1,0,0:0:0:0:
64,192,17355,1,0,0:0:0:0:
192,192,17355,1,0,0:0:0:0:
320,192,17726,1,0,0:0:0:0:
64,192,18096,1,0,0:0:0:0:
448,192,18096,1,0,0:0:0:0:
192,192,18467,1,0,0:0:0:0:
448,192,18837,1,0,0:0:0:0:
320,192,18837,1,0,0:0:0:0:
64,192,19022,128,0,19207:0:0:0:0:
320,192,19207,128,0,19392:0:0:0:0:
192,192,19392,128,0,19578:0:0:0:0:
64,192,19392,1,0,0:0:0:0:
448,192,19578,128,0,19763:0:0:0:0:
320,192,19578,1,0,0:0:0:0:
64,192,19763,128,0,19948:0:0:0:0:
320,192,19948,1,0,0:0:0:0:
448,192,20318,1,0,0:0:0:0:
64,192,20318,1,0,0:0:0:0:
192,192,20689,1,0,0:0:0:0:
320,192,21059,1,0,0:0:0:0:
448,192,21059,1,0,0:0:0:0:
192,192,21429,1,0,0:0:0:0:
448,192,21800,1,0,0:0:0:0:
64,192,21800,1,0,0:0:0:0:
320,192,21985,1,0,0:0:0:0:
192,192,22170,1,0,0:0:0:0:
448,192,22355,1,0,0:0:0:0:
64,192,22541,1,0,0:0:0:0:
192,192,22541,1,0,0:0:0:0:
448,192,22911,1,0,0:0:0:0:
64,192,22911,1,0,0:0:0:0:
320,192,23096,1,0,0:0:0:0:
320,192,23281,1,0,0:0:0:0:
448,192,23467,1,0,0:0:0:0:
64,192,23467,1,0,0:0:0:0:
192,192,23652,1,0,0:0:0:0:
192,192,23837,1,0,0:0:0:0:
448,192,24022,1,0,0:0:0:0:
64,192,24022,1,0,0:0:0:0:
320,192,24207,1,0,0:0:0:0:
320,192,24392,1,0,0:0:0:0:
448,192,24578,1,0,0:0:0:0:
64,192,24578,1,0,0:0:0:0:
64,192,24763,1,0,0:0:0:0:
448,192,24763,1,0,0:0:0:0:
192,192,24948,1,0,0:0:0:0:
64,192,25133,1,0,0:0:0:0:
448,192,25133,128,0,25318:0:0:0:0:
320,192,25318,128,0,25504:0:0:0:0:
192,192,25504,128,0,25689:0:0:0:0:
64,192,25689,128,0,25874:0:0:0:0:
320,192,25874,1,0,0:0:0:0:
448,192,25874,1,0,0:0:0:0:
64,192,26244,1,0,0:0:0:0:
448,192,26244,1,0,0:0:0:0:
64,192,26615,1,0,0:0:0:0:
192,192,26615,1,0,0:0:0:0:
192,192,26985,1,0,0:0:0:0:
320,192,26985,1,0,0:0:0:0:
320,192,27355,1,0,0:0:0:0:
448,192,27355,1,0,0:0:0:0:
64,192,27726,1,0,0:0:0:0:
448,192,27726,1,0,0:0:0:0:
320,192,28096,1,0,0:0:0:0:
64,192,28096,1,0,0:0:0:0:
192,192,28467,1,0,0:0:0:0:
320,192,28467,1,0,0:0:0:0:
192,192,28837,1,0,0:0:0:0:
448,192,28837,1,0,0:0:0:0:
448,192,29207,1,0,0:0:0:0:
64,192,29207,1,0,0:0:0:0:
192,192,29578,1,0,0:0:0:0:
64,192,29578,1,0,0:0:0:0:
192,192,29948,1,0,0:0:0:0:
448,192,29948,1,0,0:0:0:0:
320,192,30318,1,0,0:0:0:0:
448,192,30318,1,0,0:0:0:0:
320,192,30689,1,0,0:0:0:0:
64,192,30689,1,0,0:0:0:0:
64,192,31059,128,0,31429:0:0:0:0:
192,192,31059,1,0,0:0:0:0:
448,192,31429,128,0,31800:0:0:0:0:
320,192,31429,1,0,0:0:0:0:
64,192,31800,1,0,0:0:0:0:
192,192,31800,1,0,0:0:0:0:
64,192,32170,1,0,0:0:0:0:
448,192,32170,1,0,0:0:0:0:
320,192,32541,1,0,0:0:0:0:
448,192,32541,1,0,0:0:0:0:
320,192,32911,1,0,0:0:0:0:
192,192,32911,1,0,0:0:0:0:
64,192,33281,128,0,33467:0:0:0:0:
192,192,33281,1,0,0:0:0:0:
448,192,33467,128,0,33652:0:0:0:0:
64,192,33652,128,0,33837:0:0:0:0:
192,192,33652,1,0,0:0:0:0:
448,192,33837,128,0,34022:0:0:0:0:
64,192,34022,1,0,0:0:0:0:
192,192,34022,1,0,0:0:0:0:
64,192,34392,1,0,0:0:0:0:
448,192,34392,1,0,0:0:0:0:
320,192,34763,1,0,0:0:0:0:
448,192,34763,1,0,0:0:0:0:
320,192,35133,1,0,0:0:0:0:
64,192,35133,1,0,0:0:0:0:
64,192,35504,1,0,0:0:0:0:
192,192,35504,1,0,0:0:0:0:
320,192,35874,1,0,0:0:0:0:
448,192,36059,1,0,0:0:0:0:
64,192,36059,1,0,0:0:0:0:
192,192,36429,1,0,0:0:0:0:
64,192,36429,1,0,0:0:0:0:
320,192,36615,1,0,0:0:0:0:
448,192,36615,1,0,0:0:0:0:
192,192,36800,1,0,0:0:0:0:
64,192,36985,1,0,0:0:0:0:
448,192,36985,1,0,0:0:0:0:
320,192,37170,128,0,37726:0:0:0:0:
64,192,37726,128,0,39207:0:0:0:0:
192,192,37726,1,0,0:0:0:0:
320,192,38096,1,0,0:0:0:0:
448,192,38467,1,0,0:0:0:0:
192,192,38652,1,0,0:0:0:0:
320,192,38837,1,0,0:0:0:0:
448,192,39207,128,0,39948:0:0:0:0:
192,192,39207,1,0,0:0:0:0:
320,192,39578,1,0,0:0:0:0:
192,192,39948,1,0,0:0:0:0:
64,192,39948,128,0,40689:0:0:0:0:
448,192,40133,1,0,0:0:0:0:
320,192,40318,1,0,0:0:0:0:
192,192,40689,128,0,41615:0:0:0:0:
448,192,40689,1,0,0:0:0:0:
64,192,41059,1,0,0:0:0:0:
448,192,41429,1,0,0:0:0:0:
320,192,41615,1,0,0:0:0:0:
64,192,41615,128,0,42170:0:0:0:0:
192,192,41800,1,0,0:0:0:0:
448,192,42170,128,0,42726:0:0:0:0:
320,192,42170,1,0,0:0:0:0:
192,192,42355,1,0,0:0:0:0:
64,192,42541,1,0,0:0:0:0:
320,192,42726,128,0,42911:0:0:0:0:
192,192,42911,128,0,43096:0:0:0:0:
64,192,43096,128,0,43281:0:0:0:0:
320,192,43281,1,0,0:0:0:0:
448,192,43281,128,0,43652:0:0:0:0:
192,192,43652,1,0,0:0:0:0:
64,192,43652,128,0,44578:0:0:0:0:
448,192,44022,1,0,0:0:0:0:
192,192,44392,1,0,0:0:0:0:
320,192,44578,1,0,0:0:0:0:
448,192,44578,128,0,45133:0:0:0:0:
64,192,44763,1,0,0:0:0:0:
192,192,45133,128,0,46615:0:0:0:0:
320,192,45133,1,0,0:0:0:0:
448,192,45504,1,0,0:0:0:0:
320,192,45874,1,0,0:0:0:0:
64,192,46059,1,0,0:0:0:0:
448,192,46244,1,0,0:0:0:0:
64,192,46615,1,0,0:0:0:0:
320,192,46800,1,0,0:0:0:0:
448,192,46985,1,0,0:0:0:0:
64,192,46985,1,0,0:0:0:0:
192,192,47355,1,0,0:0:0:0:
320,192,47541,1,0,0:0:0:0:
448,192,47541,1,0,0:0:0:0:
192,192,47726,1,0,0:0:0:0:
64,192,47911,1,0,0:0:0:0:
448,192,47911,1,0,0:0:0:0:
320,192,48281,1,0,0:0:0:0:
192,192,48467,1,0,0:0:0:0:
64,192,48467,1,0,0:0:0:0:
320,192,48837,1,0,0:0:0:0:
448,192,48837,1,0,0:0:0:0:
64,192,49022,128,0,49207:0:0:0:0:
192,192,49207,1,0,0:0:0:0:
448,192,49207,1,0,0:0:0:0:
320,192,49392,1,0,0:0:0:0:
192,192,49578,1,0,0:0:0:0:
448,192,49763,1,0,0:0:0:0:
192,192,49948,1,0,0:0:0:0:
448,192,50133,1,0,0:0:0:0:
192,192,50318,1,0,0:0:0:0:
448,192,50504,1,0,0:0:0:0:
192,192,50689,1,0,0:0:0:0:
320,192,50874,1,0,0:0:0:0:
64,192,51059,1,0,0:0:0:0:
320,192,51244,1,0,0:0:0:0:
64,192,51429,1,0,0:0:0:0:
320,192,51615,1,0,0:0:0:0:
64,192,51800,128,0,51985:0:0:0:0:
448,192,52170,128,0,52355:0:0:0:0:
192,192,52541,1,0,0:0:0:0:
320,192,52726,1,0,0:0:0:0:
192,192,52911,1,0,0:0:0:0:
320,192,53096,1,0,0:0:0:0:
192,192,53281,1,0,0:0:0:0:
320,192,53467,1,0,0:0:0:0:
192,192,53652,1,0,0:0:0:0:
448,192,53837,1,0,0:0:0:0:
64,192,53837,1,0,0:0:0:0:
320,192,54207,1,0,0:0:0:0:
192,192,54392,1,0,0:0:0:0:
448,192,54578,1,0,0:0:0:0:
64,192,54763,128,0,54948:0:0:0:0:
448,192,55133,128,0,55318:0:0:0:0:
192,192,55504,1,0,0:0:0:0:
320,192,55689,1,0,0:0:0:0:
448,192,55874,1,0,0:0:0:0:
64,192,55874,1,0,0:0:0:0:
192,192,56059,1,0,0:0:0:0:
320,192,56244,1,0,0:0:0:0:
64,192,56429,1,0,0:0:0:0:
320,192,56615,1,0,0:0:0:0:
448,192,56615,1,0,0:0:0:0:
192,192,56800,128,0,57170:0:0:0:0:
320,192,57170,1,0,0:0:0:0:
448,192,57355,1,0,0:0:0:0:
64,192,57355,1,0,0:0:0:0:
320,192,57726,128,0,57911:0:0:0:0:
192,192,58096,128,0,58281:0:0:0:0:
448,192,58467,1,0,0:0:0:0:
320,192,58652,1,0,0:0:0:0:
192,192,58837,1,0,0:0:0:0:
64,192,58837,1,0,0:0:0:0:
448,192,59022,1,0,0:0:0:0:
192,192,59207,1,0,0:0:0:0:
320,192,59392,1,0,0:0:0:0:
64,192,59578,1,0,0:0:0:0:
448,192,59578,1,0,0:0:0:0:
192,192,59763,1,0,0:0:0:0:
320,192,59763,1,0,0:0:0:0:
64,192,60133,1,0,0:0:0:0:
448,192,60318,1,0,0:0:0:0:
192,192,60318,1,0,0:0:0:0:
320,192,60689,1,0,0:0:0:0:
192,192,60874,1,0,0:0:0:0:
448,192,61059,128,0,61429:0:0:0:0:
64,192,61429,1,0,0:0:0:0:
192,192,61429,1,0,0:0:0:0:
64,192,61800,1,0,0:0:0:0:
448,192,61800,1,0,0:0:0:0:
448,192,62170,1,0,0:0:0:0:
320,192,62170,1,0,0:0:0:0:
192,192,62541,1,0,0:0:0:0:
320,192,62541,1,0,0:0:0:0:
64,192,62911,1,0,0:0:0:0:
192,192,62911,1,0,0:0:0:0:
448,192,63281,1,0,0:0:0:0:
64,192,63281,1,0,0:0:0:0:
320,192,63652,1,0,0:0:0:0:
448,192,63652,1,0,0:0:0:0:
192,192,64022,1,0,0:0:0:0:
320,192,64022,1,0,0:0:0:0:
192,192,64392,1,0,0:0:0:0:
64,192,64392,128,0,65689:0:0:0:0:
320,192,65133,128,0,65504:0:0:0:0:
192,192,65689,1,0,0:0:0:0:
448,192,65689,1,0,0:0:0:0:
320,192,66059,1,0,0:0:0:0:
320,192,66244,1,0,0:0:0:0:
192,192,66429,1,0,0:0:0:0:
192,192,66615,1,0,0:0:0:0:
448,192,66800,1,0,0:0:0:0:
448,192,66985,1,0,0:0:0:0:
64,192,67170,1,0,0:0:0:0:
64,192,67355,1,0,0:0:0:0:
448,192,67355,1,0,0:0:0:0:
192,192,67726,1,0,0:0:0:0:
448,192,67726,1,0,0:0:0:0:
320,192,68096,1,0,0:0:0:0:
64,192,68467,1,0,0:0:0:0:
320,192,68467,1,0,0:0:0:0:
192,192,68837,1,0,0:0:0:0:
192,192,69207,1,0,0:0:0:0:
320,192,69207,1,0,0:0:0:0:
64,192,69578,128,0,69763:0:0:0:0:
192,192,69763,128,0,69948:0:0:0:0:
448,192,69763,1,0,0:0:0:0:
320,192,69948,128,0,70133:0:0:0:0:
64,192,70133,128,0,70318:0:0:0:0:
448,192,70318,1,0,0:0:0:0:
448,192,70689,1,0,0:0:0:0:
64,192,70689,1,0,0:0:0:0:
192,192,71059,1,0,0:0:0:0:
448,192,71429,1,0,0:0:0:0:
192,192,71429,1,0,0:0:0:0:
64,192,71800,1,0,0:0:0:0:
448,192,72170,1,0,0:0:0:0:
64,192,72170,1,0,0:0:0:0:
448,192,72541,128,0,72911:0:0:0:0:
320,192,72541,1,0,0:0:0:0:
64,192,72911,128,0,73281:0:0:0:0:
192,192,72911,1,0,0:0:0:0:
448,192,73281,1,0,0:0:0:0:
192,192,73467,128,0,73652:0:0:0:0:
320,192,73837,128,0,74022:0:0:0:0:
64,192,74207,128,0,74392:0:0:0:0:
448,192,74578,128,0,74763:0:0:0:0:
192,192,74948,128,0,75133:0:0:0:0:
320,192,75318,128,0,75504:0:0:0:0:
64,192,75689,128,0,75874:0:0:0:0:
448,192,75874,1,0,0:0:0:0:
320,192,76244,1,0,0:0:0:0:
448,192,76244,1,0,0:0:0:0:
192,192,76429,1,0,0:0:0:0:
64,192,76429,1,0,0:0:0:0:
192,192,76800,1,0,0:0:0:0:
320,192,76800,1,0,0:0:0:0:
320,192,77170,1,0,0:0:0:0:
448,192,77170,1,0,0:0:0:0:
64,192,77541,1,0,0:0:0:0:
448,192,77541,1,0,0:0:0:0:
192,192,77911,1,0,0:0:0:0:
64,192,77911,1,0,0:0:0:0:
320,192,78096,1,0,0:0:0:0:
448,192,78096,1,0,0:0:0:0:
192,192,78281,128,0,78467:0:0:0:0:
448,192,78467,1,0,0:0:0:0:
64,192,78467,1,0,0:0:0:0:
320,192,78652,128,0,79207:0:0:0:0:
64,192,79207,1,0,0:0:0:0:
192,192,79392,1,0,0:0:0:0:
448,192,79578,1,0,0:0:0:0:
320,192,79578,1,0,0:0:0:0:
192,192,79948,1,0,0:0:0:0:
320,192,80133,1,0,0:0:0:0:
448,192,80318,1,0,0:0:0:0:
64,192,80318,1,0,0:0:0:0:
192,192,80689,1,0,0:0:0:0:
320,192,80874,1,0,0:0:0:0:
192,192,81059,1,0,0:0:0:0:
64,192,81059,1,0,0:0:0:0:
448,192,81429,1,0,0:0:0:0:
320,192,81615,1,0,0:0:0:0:
192,192,81800,1,0,0:0:0:0:
64,192,81800,1,0,0:0:0:0:
320,192,82170,1,0,0:0:0:0:
192,192,82355,1,0,0:0:0:0:
64,192,82541,1,0,0:0:0:0:
448,192,82541,1,0,0:0:0:0:
320,192,82911,1,0,0:0:0:0:
192,192,83096,1,0,0:0:0:0:
320,192,83281,1,0,0:0:0:0:
448,192,83281,1,0,0:0:0:0:
64,192,83652,1,0,0:0:0:0:
192,192,83837,1,0,0:0:0:0:
320,192,84022,1,0,0:0:0:0:
448,192,84022,1,0,0:0:0:0:
192,192,84207,128,0,84392:0:0:0:0:
64,192,84392,1,0,0:0:0:0:
320,192,84578,128,0,84763:0:0:0:0:
192,192,84763,1,0,0:0:0:0:
448,192,84948,128,0,85133:0:0:0:0:
320,192,85133,1,0,0:0:0:0:
192,192,85318,128,0,85504:0:0:0:0:
320,192,85689,128,0,85874:0:0:0:0:
64,192,86059,128,0,86244:0:0:0:0:
448,192,86429,128,0,86615:0:0:0:0:
192,192,86800,128,0,86985:0:0:0:0:
320,192,87170,128,0,87355:0:0:0:0:
64,192,87541,1,0,0:0:0:0:
192,192,87726,1,0,0:0:0:0:
448,192,87911,1,0,0:0:0:0:
320,192,88096,1,0,0:0:0:0:
64,192,88281,128,0,88467:0:0:0:0:
448,192,88467,1,0,0:0:0:0:
192,192,88652,1,0,0:0:0:0:
320,192,88837,128,0,89022:0:0:0:0:
64,192,89022,1,0,0:0:0:0:
192,192,89207,1,0,0:0:0:0:
448,192,89392,1,0,0:0:0:0:
320,192,89392,1,0,0:0:0:0:
192,192,89763,1,0,0:0:0:0:
192,192,89948,1,0,0:0:0:0:
320,192,90133,128,0,90318:0:0:0:0:
448,192,90318,1,0,0:0:0:0:
64,192,90318,1,0,0:0:0:0:
192,192,90504,1,0,0:0:0:0:
320,192,90689,128,0,91059:0:0:0:0:
64,192,91059,1,0,0:0:0:0:
448,192,91059,1,0,0:0:0:0:
192,192,91615,1,0,0:0:0:0:
448,192,91800,1,0,0:0:0:0:
320,192,91800,1,0,0:0:0:0:
64,192,92541,1,0,0:0:0:0:
64,192,92726,1,0,0:0:0:0:
320,192,93096,1,0,0:0:0:0:
448,192,93281,1,0,0:0:0:0:
64,192,93281,1,0,0:0:0:0:
192,192,94022,1,0,0:0:0:0:
320,192,94022,1,0,0:0:0:0:
64,192,94392,1,0,0:0:0:0:
320,192,94392,1,0,0:0:0:0:
192,192,94763,1,0,0:0:0:0:
448,192,94763,1,0,0:0:0:0:
320,192,95133,1,0,0:0:0:0:
64,192,95318,1,0,0:0:0:0:
448,192,95318,1,0,0:0:0:0:
192,192,95689,1,0,0:0:0:0:
320,192,95874,1,0,0:0:0:0:
448,192,95874,1,0,0:0:0:0:
64,192,96059,128,0,96244:0:0:0:0:
192,192,96244,128,0,96429:0:0:0:0:
320,192,96429,128,0,96615:0:0:0:0:
448,192,96615,128,0,96800:0:0:0:0:
64,192,96800,128,0,96985:0:0:0:0:
320,192,96985,1,0,0:0:0:0:
448,192,96985,1,0,0:0:0:0:
64,192,97170,1,0,0:0:0:0:
192,192,97170,1,0,0:0:0:0:
192,192,97541,1,0,0:0:0:0:
320,192,97541,1,0,0:0:0:0:
320,192,97911,1,0,0:0:0:0:
448,192,97911,1,0,0:0:0:0:
64,192,98281,1,0,0:0:0:0:
448,192,98281,1,0,0:0:0:0:
192,192,98652,1,0,0:0:0:0:
64,192,98652,1,0,0:0:0:0:
448,192,98837,1,0,0:0:0:0:
320,192,99022,1,0,0:0:0:0:
64,192,99207,1,0,0:0:0:0:
192,192,99392,1,0,0:0:0:0:
320,192,99578,1,0,0:0:0:0:
448,192,99763,1,0,0:0:0:0:
64,192,99763,1,0,0:0:0:0:
192,192,99948,128,0,101429:0:0:0:0:
