osu file format v14

[General]
AudioFilename: senpai.mp3
AudioLeadIn: 0
PreviewTime: 66800
Countdown: 0
SampleSet: Soft
StackLeniency: 0.7
Mode: 3
LetterboxInBreaks: 0
SpecialStyle: 0
WidescreenStoryboard: 0

[Editor]
DistanceSpacing: 1.2
BeatDivisor: 4
GridSize: 16
TimelineZoom: 1.6

[Metadata]
Title:Senpai.
TitleUnicode:センパイ。
Artist:Honeyworks meets TrySail
ArtistUnicode:Honeyworks meets TrySail
Creator:Amids
Version:Baka.
Source:好きになるその瞬間を。~告白実行委員会~
Tags:Suki ni Naru Sono Shuukan ~Kokuhaku Shikko Iin Kai~ opening Hamids-
BeatmapID:1405394
BeatmapSetID:664015

[Difficulty]
HPDrainRate:8
CircleSize:4
OverallDifficulty:7.5
ApproachRate:5
SliderMultiplier:1.4
SliderTickRate:1

[Events]
//Background and Video events
0,0,"senpai.jpg",0,0
//Break Periods
//Storyboard Layer 0 (Background)
//Storyboard Layer 1 (Fail)
//Storyboard Layer 2 (Pass)
//Storyboard Layer 3 (Foreground)
//Storyboard Sound Samples

[TimingPoints]
1430,370.37037037037,4,2,1,40,1,0
11615,-100,4,2,1,50,0,0
13281,-100,4,2,1,20,0,0
14022,-100,4,2,1,40,0,0
22541,-62.8930817610063,4,2,1,40,0,0
22726,-243.90243902439,4,2,1,40,0,0
22911,-100,4,2,1,40,0,0
51800,-123.456790123457,4,2,1,40,0,0
51985,-91.743119266055,4,2,1,40,0,0
52170,-123.456790123457,4,2,1,40,0,0
52355,-91.743119266055,4,2,1,40,0,0
52541,-100,4,2,1,40,0,0
67355,-100,4,2,1,40,0,1
73281,-91.743119266055,4,2,1,40,0,1
73467,-123.456790123457,4,2,1,40,0,1
73652,-91.743119266055,4,2,1,40,0,1
73837,-123.456790123457,4,2,1,40,0,1
74022,-91.743119266055,4,2,1,40,0,1
74207,-123.456790123457,4,2,1,40,0,1
74392,-91.743119266055,4,2,1,40,0,1
74578,-123.456790123457,4,2,1,40,0,1
74763,-91.743119266055,4,2,1,40,0,1
74948,-123.456790123457,4,2,1,40,0,1
75133,-91.743119266055,4,2,1,40,0,1
75318,-123.456790123457,4,2,1,40,0,1
75504,-91.743119266055,4,2,1,40,0,1
75689,-123.456790123457,4,2,1,40,0,1
75874,-100,4,2,1,40,0,1
76244,-70.9219858156028,4,2,1,40,0,1
76337,-169.491525423729,4,2,1,40,0,1
76429,-70.9219858156028,4,2,1,40,0,1
76615,-169.491525423729,4,2,1,40,0,1
76800,-70.9219858156028,4,2,1,40,0,1
76985,-169.491525423729,4,2,1,40,0,1
77170,-70.9219858156028,4,2,1,40,0,1
77355,-169.491525423729,4,2,1,40,0,1
77541,-70.9219858156028,4,2,1,40,0,1
77726,-169.491525423729,4,2,1,40,0,1
77911,-70.9219858156028,4,2,1,40,0,1
78004,-169.491525423729,4,2,1,40,0,1
78096,-70.9219858156028,4,2,1,40,0,1
78189,-169.491525423729,4,2,1,40,0,1
78281,-100,4,2,1,40,0,1
79207,-100,4,2,1,40,0,0
85133,-91.743119266055,4,2,1,40,0,1
85318,-123.456790123457,4,2,1,40,0,1
85504,-91.743119266055,4,2,1,40,0,1
85689,-123.456790123457,4,2,1,40,0,1
85874,-91.743119266055,4,2,1,40,0,1
86059,-123.456790123457,4,2,1,40,0,1
86244,-91.743119266055,4,2,1,40,0,1
86429,-123.456790123457,4,2,1,40,0,1
86615,-91.743119266055,4,2,1,40,0,1
86800,-123.456790123457,4,2,1,40,0,1
86985,-91.743119266055,4,2,1,40,0,1
87170,-123.456790123457,4,2,1,40,0,1
87355,-91.743119266055,4,2,1,40,0,1
87541,-123.456790123457,4,2,1,40,0,1
87726,-91.743119266055,4,2,1,40,0,1
87911,-123.456790123457,4,2,1,40,0,1
88096,-100,4,2,1,40,0,1
91059,-100,4,2,1,40,0,0
96985,-70.9219858156028,4,2,1,40,0,0
97078,-169.491525423729,4,2,1,40,0,0
97170,-70.9219858156028,4,2,1,40,0,0
97355,-169.491525423729,4,2,1,40,0,0
97541,-70.9219858156028,4,2,1,40,0,0
97726,-169.491525423729,4,2,1,40,0,0
97911,-70.9219858156028,4,2,1,40,0,0
98096,-169.491525423729,4,2,1,40,0,0
98281,-70.9219858156028,4,2,1,40,0,0
98467,-123.456790123457,4,2,1,40,0,0
98652,-100,4,2,1,40,0,0

[HitObjects]
448,192,1337,5,0,0:0:0:0:
320,192,1383,1,0,0:0:0:0:
192,192,1430,1,0,0:0:0:0:
64,192,1430,128,0,2726:0:0:0:0:
448,192,1800,1,0,0:0:0:0:
192,192,2170,1,0,0:0:0:0:
320,192,2541,1,0,0:0:0:0:
448,192,2726,128,0,4392:0:0:0:0:
192,192,2726,1,0,0:0:0:0:
64,192,3096,1,0,0:0:0:0:
320,192,3281,1,0,0:0:0:0:
64,192,3467,1,0,0:0:0:0:
320,192,3652,1,0,0:0:0:0:
64,192,3837,1,0,0:0:0:0:
320,192,4022,1,0,0:0:0:0:
192,192,4207,1,0,0:0:0:0:
320,192,4392,1,0,0:0:0:0:
64,192,4392,128,0,5689:0:0:0:0:
192,192,4763,1,0,0:0:0:0:
448,192,5133,1,0,0:0:0:0:
320,192,5504,1,0,0:0:0:0:
192,192,5689,128,0,7355:0:0:0:0:
448,192,5689,1,0,0:0:0:0:
320,192,6059,1,0,0:0:0:0:
64,192,6244,1,0,0:0:0:0:
448,192,6429,1,0,0:0:0:0:
320,192,6615,128,0,6800:0:0:0:0:
64,192,6800,128,0,6985:0:0:0:0:
448,192,6985,128,0,7170:0:0:0:0:
320,192,7170,128,0,7355:0:0:0:0:
64,192,7355,128,0,8652:0:0:0:0:
448,192,7355,1,0,0:0:0:0:
192,192,7726,1,0,0:0:0:0:
448,192,8096,1,0,0:0:0:0:
320,192,8467,1,0,0:0:0:0:
192,192,8652,1,0,0:0:0:0:
448,192,8652,128,0,10318:0:0:0:0:
320,192,9022,1,0,0:0:0:0:
64,192,9207,1,0,0:0:0:0:
320,192,9392,1,0,0:0:0:0:
64,192,9578,1,0,0:0:0:0:
320,192,9763,1,0,0:0:0:0:
64,192,9948,1,0,0:0:0:0:
192,192,10133,1,0,0:0:0:0:
320,192,10318,1,0,0:0:0:0:
64,192,10318,1,0,0:0:0:0:
192,192,10689,1,0,0:0:0:0:
320,192,11059,1,0,0:0:0:0:
64,192,11244,1,0,0:0:0:0:
192,192,11429,1,0,0:0:0:0:
448,192,11615,1,4,0:0:0:0:
64,192,11615,1,0,0:0:0:0:
320,192,11615,1,0,0:0:0:0:
448,192,11985,1,0,0:0:0:0:
192,192,11985,1,0,0:0:0:0:
64,192,11985,1,2,0:0:0:0:
448,192,12170,1,0,0:0:0:0:
192,192,12170,1,0,0:0:0:0:
64,192,12170,1,2,0:0:0:0:
320,192,12355,1,0,0:0:0:0:
192,192,12355,1,2,0:0:0:0:
448,192,12355,1,0,0:0:0:0:
320,192,12541,1,0,0:0:0:0:
192,192,12541,1,2,0:0:0:0:
448,192,12541,1,0,0:0:0:0:
192,192,12726,1,0,0:0:0:0:
64,192,12726,1,2,0:0:0:0:
320,192,12726,1,0,0:0:0:0:
192,192,12911,1,0,0:0:0:0:
64,192,12911,1,2,0:0:0:0:
320,192,12911,1,0,0:0:0:0:
448,192,13096,1,2,0:0:0:0:
320,192,13096,1,0,0:0:0:0:
64,192,13096,1,8,0:0:0:0:
192,192,13467,1,0,0:0:0:0:
320,192,13652,1,0,0:0:0:0:
320,192,14022,1,0,0:0:0:0:
448,192,14022,128,4,14207:0:0:0:0:
64,192,14022,1,2,0:0:0:0:
64,192,14207,128,0,14392:0:0:0:0:
320,192,14392,128,8,14578:0:0:0:0:
448,192,14392,1,0,0:0:0:0:
192,192,14578,128,0,14948:0:0:0:0:
64,192,14763,1,2,0:0:0:0:
448,192,14763,1,0,0:0:0:0:
320,192,14948,128,0,15133:0:0:0:0:
64,192,15133,128,0,15318:0:0:0:0:
448,192,15133,1,8,0:0:0:0:
192,192,15318,128,0,15504:0:0:0:0:
448,192,15504,128,0,15689:0:0:0:0:
64,192,15504,1,2,0:0:0:0:
320,192,15689,128,0,15874:0:0:0:0:
448,192,15874,128,0,16059:0:0:0:0:
64,192,15874,1,8,0:0:0:0:
192,192,16059,128,0,16244:0:0:0:0:
64,192,16244,128,0,16429:0:0:0:0:
448,192,16244,1,2,0:0:0:0:
320,192,16429,128,0,16615:0:0:0:0:
192,192,16615,128,0,16800:0:0:0:0:
64,192,16615,1,8,0:0:0:0:
448,192,16800,1,0,0:0:0:0:
320,192,16892,1,0,0:0:0:0:
64,192,16985,128,0,17170:0:0:0:0:
192,192,16985,1,2,0:0:0:0:
320,192,17170,128,0,17355:0:0:0:0:
192,192,17355,128,0,17541:0:0:0:0:
64,192,17355,1,8,0:0:0:0:
448,192,17541,128,0,17911:0:0:0:0:
320,192,17726,1,2,0:0:0:0:
64,192,17726,1,0,0:0:0:0:
192,192,17911,128,0,18096:0:0:0:0:
320,192,18096,128,0,18281:0:0:0:0:
448,192,18096,1,8,0:0:0:0:
64,192,18281,128,0,18467:0:0:0:0:
192,192,18467,1,2,0:0:0:0:
448,192,18467,128,0,18652:0:0:0:0:
320,192,18652,128,0,18837:0:0:0:0:
64,192,18837,1,8,0:0:0:0:
448,192,18837,128,0,19022:0:0:0:0:
192,192,19022,128,0,19207:0:0:0:0:
320,192,19207,1,2,0:0:0:0:
64,192,19207,1,0,0:0:0:0:
192,192,19392,1,0,0:0:0:0:
448,192,19392,1,4,0:0:0:0:
320,192,19392,1,0,0:0:0:0:
192,192,19578,1,0,0:0:0:0:
64,192,19578,1,8,0:0:0:0:
448,192,19578,1,4,0:0:0:0:
320,192,19763,1,0,0:0:0:0:
192,192,19855,1,0,0:0:0:0:
64,192,19948,1,0,0:0:0:0:
320,192,19948,1,2,0:0:0:0:
448,192,19948,128,0,20133:0:0:0:0:
192,192,20133,128,0,20318:0:0:0:0:
448,192,20318,1,0,0:0:0:0:
320,192,20318,128,8,20504:0:0:0:0:
64,192,20504,128,0,20874:0:0:0:0:
192,192,20689,1,2,0:0:0:0:
448,192,20689,1,0,0:0:0:0:
320,192,20874,128,0,21059:0:0:0:0:
64,192,21059,1,8,0:0:0:0:
192,192,21059,128,0,21244:0:0:0:0:
448,192,21244,128,0,21429:0:0:0:0:
64,192,21429,128,0,21615:0:0:0:0:
320,192,21429,1,2,0:0:0:0:
192,192,21615,128,0,21800:0:0:0:0:
448,192,21800,1,0,0:0:0:0:
320,192,21800,1,8,0:0:0:0:
64,192,21985,1,0,0:0:0:0:
192,192,21985,1,2,0:0:0:0:
320,192,22078,1,8,0:0:0:0:
448,192,22078,1,0,0:0:0:0:
64,192,22170,1,0,0:0:0:0:
192,192,22170,1,2,0:0:0:0:
320,192,22263,1,8,0:0:0:0:
448,192,22263,1,0,0:0:0:0:
192,192,22355,128,2,22541:0:0:0:0:
320,192,22541,1,8,0:0:0:0:
448,192,22541,1,4,0:0:0:0:
64,192,22541,1,0,0:0:0:0:
64,192,22911,1,0,0:0:0:0:
192,192,22911,1,8,0:0:0:0:
448,192,22911,1,0,0:0:0:0:
320,192,23096,1,2,0:0:0:0:
192,192,23096,1,0,0:0:0:0:
320,192,23281,1,2,0:0:0:0:
64,192,23281,1,0,0:0:0:0:
448,192,23467,1,0,0:0:0:0:
64,192,23467,1,0,0:0:0:0:
192,192,23467,1,8,0:0:0:0:
320,192,23652,1,2,0:0:0:0:
448,192,23652,1,0,0:0:0:0:
320,192,23837,1,2,0:0:0:0:
192,192,23837,1,0,0:0:0:0:
192,192,24022,1,0,0:0:0:0:
448,192,24022,1,8,0:0:0:0:
64,192,24022,1,0,0:0:0:0:
320,192,24207,1,2,0:0:0:0:
64,192,24207,1,0,0:0:0:0:
192,192,24392,1,0,0:0:0:0:
320,192,24392,1,2,0:0:0:0:
192,192,24578,1,0,0:0:0:0:
448,192,24578,1,8,0:0:0:0:
64,192,24578,1,0,0:0:0:0:
320,192,24763,1,0,0:0:0:0:
448,192,24763,1,8,0:0:0:0:
64,192,24763,1,0,0:0:0:0:
192,192,24948,1,0,0:0:0:0:
320,192,24948,1,2,0:0:0:0:
192,192,25133,1,0,0:0:0:0:
64,192,25133,1,0,0:0:0:0:
448,192,25133,1,8,0:0:0:0:
320,192,25318,1,2,0:0:0:0:
192,192,25411,1,8,0:0:0:0:
64,192,25411,1,0,0:0:0:0:
320,192,25504,1,2,0:0:0:0:
448,192,25504,1,0,0:0:0:0:
192,192,25596,1,8,0:0:0:0:
64,192,25596,1,0,0:0:0:0:
320,192,25689,128,2,25874:0:0:0:0:
448,192,25874,1,2,0:0:0:0:
64,192,25874,128,0,27355:0:0:0:0:
192,192,26059,1,0,0:0:0:0:
192,192,26244,1,0,0:0:0:0:
448,192,26244,1,2,0:0:0:0:
320,192,26429,1,0,0:0:0:0:
320,192,26615,1,0,0:0:0:0:
192,192,26615,1,2,0:0:0:0:
448,192,26800,1,0,0:0:0:0:
448,192,26985,1,0,0:0:0:0:
192,192,26985,1,2,0:0:0:0:
320,192,27170,1,0,0:0:0:0:
320,192,27355,1,2,0:0:0:0:
448,192,27355,128,0,28096:0:0:0:0:
64,192,27541,1,0,0:0:0:0:
64,192,27726,1,0,0:0:0:0:
192,192,27726,1,2,0:0:0:0:
320,192,27911,1,0,0:0:0:0:
64,192,28096,1,2,0:0:0:0:
320,192,28096,128,0,28837:0:0:0:0:
192,192,28281,1,0,0:0:0:0:
192,192,28467,1,0,0:0:0:0:
448,192,28467,1,2,0:0:0:0:
64,192,28652,1,0,0:0:0:0:
192,192,28837,128,0,30318:0:0:0:0:
64,192,28837,1,2,0:0:0:0:
448,192,29022,1,0,0:0:0:0:
448,192,29207,1,2,0:0:0:0:
320,192,29207,1,0,0:0:0:0:
64,192,29392,1,0,0:0:0:0:
64,192,29578,1,0,0:0:0:0:
448,192,29578,1,2,0:0:0:0:
320,192,29763,1,0,0:0:0:0:
320,192,29948,1,0,0:0:0:0:
64,192,29948,1,2,0:0:0:0:
448,192,30133,1,0,0:0:0:0:
448,192,30318,1,2,0:0:0:0:
64,192,30318,128,0,31059:0:0:0:0:
320,192,30504,1,0,0:0:0:0:
320,192,30689,1,0,0:0:0:0:
192,192,30689,1,2,0:0:0:0:
448,192,30874,1,0,0:0:0:0:
320,192,30967,1,0,0:0:0:0:
192,192,31059,1,2,0:0:0:0:
448,192,31059,128,0,31429:0:0:0:0:
64,192,31244,1,0,0:0:0:0:
64,192,31429,128,0,31800:0:0:0:0:
192,192,31429,1,2,0:0:0:0:
320,192,31615,1,0,0:0:0:0:
192,192,31707,1,0,0:0:0:0:
320,192,31800,1,0,0:0:0:0:
448,192,31800,1,2,0:0:0:0:
192,192,31985,1,0,0:0:0:0:
448,192,32170,1,2,0:0:0:0:
64,192,32170,1,0,0:0:0:0:
320,192,32355,128,0,32541:0:0:0:0:
64,192,32541,1,2,0:0:0:0:
192,192,32541,1,0,0:0:0:0:
192,192,32726,128,0,32911:0:0:0:0:
320,192,32911,1,0,0:0:0:0:
448,192,32911,1,2,0:0:0:0:
64,192,33096,1,0,0:0:0:0:
320,192,33281,1,2,0:0:0:0:
448,192,33281,128,0,33467:0:0:0:0:
64,192,33467,128,0,33652:0:0:0:0:
320,192,33652,128,0,33837:0:0:0:0:
448,192,33652,1,2,0:0:0:0:
192,192,33837,128,0,34022:0:0:0:0:
64,192,34022,1,2,0:0:0:0:
448,192,34022,1,0,0:0:0:0:
320,192,34207,128,0,34392:0:0:0:0:
192,192,34392,1,2,0:0:0:0:
64,192,34392,1,0,0:0:0:0:
448,192,34578,1,0,0:0:0:0:
64,192,34763,128,0,34948:0:0:0:0:
320,192,34763,1,2,0:0:0:0:
192,192,34948,1,0,0:0:0:0:
320,192,35133,1,0,0:0:0:0:
448,192,35133,1,2,0:0:0:0:
64,192,35318,128,0,35504:0:0:0:0:
192,192,35504,1,2,0:0:0:0:
448,192,35504,1,0,0:0:0:0:
320,192,35689,128,0,35874:0:0:0:0:
192,192,35874,1,2,0:0:0:0:
64,192,35874,1,0,0:0:0:0:
320,192,36059,1,0,0:0:0:0:
448,192,36059,1,4,0:0:0:0:
64,192,36059,1,0,0:0:0:0:
64,192,36429,1,0,0:0:0:0:
192,192,36429,1,8,0:0:0:0:
448,192,36429,1,0,0:0:0:0:
64,192,36615,1,0,0:0:0:0:
192,192,36615,1,8,0:0:0:0:
448,192,36615,1,0,0:0:0:0:
320,192,36800,1,2,0:0:0:0:
192,192,36800,1,0,0:0:0:0:
320,192,36985,1,8,0:0:0:0:
448,192,36985,1,0,0:0:0:0:
64,192,36985,1,0,0:0:0:0:
192,192,37170,1,2,0:0:0:0:
320,192,37263,1,0,0:0:0:0:
448,192,37263,1,8,0:0:0:0:
192,192,37355,1,0,0:0:0:0:
64,192,37355,1,8,0:0:0:0:
320,192,37448,1,2,0:0:0:0:
64,192,37541,1,2,0:0:0:0:
448,192,37541,1,0,0:0:0:0:
192,192,37633,1,2,0:0:0:0:
64,192,37726,1,0,0:0:0:0:
320,192,37726,1,4,0:0:0:0:
448,192,37726,1,8,0:0:0:0:
64,192,38096,1,0,0:0:0:0:
320,192,38096,1,0,0:0:0:0:
192,192,38096,1,8,0:0:0:0:
448,192,38467,1,0,0:0:0:0:
320,192,38467,1,2,0:0:0:0:
64,192,38652,1,0,0:0:0:0:
192,192,38652,1,2,0:0:0:0:
320,192,38744,1,0,0:0:0:0:
64,192,38837,1,8,0:0:0:0:
448,192,38837,1,0,0:0:0:0:
192,192,38837,1,0,0:0:0:0:
320,192,39022,1,0,0:0:0:0:
192,192,39115,1,0,0:0:0:0:
448,192,39207,1,2,0:0:0:0:
64,192,39207,1,0,0:0:0:0:
320,192,39578,1,8,0:0:0:0:
448,192,39578,1,0,0:0:0:0:
192,192,39578,1,0,0:0:0:0:
192,192,39948,1,2,0:0:0:0:
64,192,39948,1,0,0:0:0:0:
448,192,40133,1,0,0:0:0:0:
320,192,40133,1,2,0:0:0:0:
192,192,40318,1,0,0:0:0:0:
64,192,40318,1,0,0:0:0:0:
448,192,40318,1,8,0:0:0:0:
320,192,40411,1,0,0:0:0:0:
64,192,40504,1,0,0:0:0:0:
192,192,40596,1,0,0:0:0:0:
320,192,40689,1,0,0:0:0:0:
448,192,40689,1,2,0:0:0:0:
64,192,41059,1,0,0:0:0:0:
192,192,41059,1,8,0:0:0:0:
320,192,41059,1,0,0:0:0:0:
448,192,41429,1,0,0:0:0:0:
192,192,41429,1,2,0:0:0:0:
64,192,41615,1,0,0:0:0:0:
320,192,41615,1,2,0:0:0:0:
192,192,41707,1,0,0:0:0:0:
64,192,41800,1,0,0:0:0:0:
448,192,41800,1,0,0:0:0:0:
320,192,41800,1,8,0:0:0:0:
192,192,41985,1,0,0:0:0:0:
320,192,42078,1,0,0:0:0:0:
448,192,42170,1,2,0:0:0:0:
64,192,42170,1,0,0:0:0:0:
192,192,42355,1,0,0:0:0:0:
320,192,42355,1,2,0:0:0:0:
64,192,42541,1,0,0:0:0:0:
192,192,42541,1,8,0:0:0:0:
448,192,42541,1,0,0:0:0:0:
320,192,42726,1,0,0:0:0:0:
64,192,42911,1,0,0:0:0:0:
192,192,42911,1,2,0:0:0:0:
320,192,43004,1,8,0:0:0:0:
448,192,43004,1,0,0:0:0:0:
192,192,43096,1,2,0:0:0:0:
64,192,43096,1,0,0:0:0:0:
448,192,43281,1,0,0:0:0:0:
320,192,43281,1,8,0:0:0:0:
64,192,43281,1,0,0:0:0:0:
192,192,43374,1,0,0:0:0:0:
448,192,43467,1,0,0:0:0:0:
320,192,43559,1,0,0:0:0:0:
192,192,43652,1,0,0:0:0:0:
64,192,43652,1,2,0:0:0:0:
192,192,44022,1,0,0:0:0:0:
320,192,44022,1,0,0:0:0:0:
448,192,44022,1,8,0:0:0:0:
64,192,44207,1,0,0:0:0:0:
192,192,44300,1,0,0:0:0:0:
320,192,44392,1,2,0:0:0:0:
448,192,44392,1,0,0:0:0:0:
64,192,44578,1,0,0:0:0:0:
192,192,44578,1,2,0:0:0:0:
320,192,44670,1,0,0:0:0:0:
64,192,44763,1,0,0:0:0:0:
448,192,44763,1,0,0:0:0:0:
192,192,44763,1,8,0:0:0:0:
320,192,44948,1,0,0:0:0:0:
192,192,45041,1,0,0:0:0:0:
448,192,45133,1,0,0:0:0:0:
320,192,45133,1,2,0:0:0:0:
64,192,45318,1,0,0:0:0:0:
320,192,45504,1,0,0:0:0:0:
192,192,45504,1,8,0:0:0:0:
64,192,45504,1,0,0:0:0:0:
320,192,45689,1,0,0:0:0:0:
64,192,45874,1,0,0:0:0:0:
448,192,45874,1,2,0:0:0:0:
320,192,45967,1,0,0:0:0:0:
192,192,46059,1,2,0:0:0:0:
64,192,46059,1,0,0:0:0:0:
320,192,46152,1,0,0:0:0:0:
64,192,46244,1,0,0:0:0:0:
192,192,46244,1,8,0:0:0:0:
448,192,46244,1,0,0:0:0:0:
320,192,46615,1,2,0:0:0:0:
64,192,46615,1,0,0:0:0:0:
192,192,46800,1,0,0:0:0:0:
320,192,46800,1,2,0:0:0:0:
64,192,46985,1,0,0:0:0:0:
448,192,46985,1,0,0:0:0:0:
192,192,46985,1,8,0:0:0:0:
320,192,47170,1,0,0:0:0:0:
448,192,47355,1,2,0:0:0:0:
192,192,47355,1,0,0:0:0:0:
320,192,47541,1,4,0:0:0:0:
448,192,47541,1,2,0:0:0:0:
64,192,47541,1,0,0:0:0:0:
192,192,47726,1,0,0:0:0:0:
320,192,47726,1,8,0:0:0:0:
448,192,47911,1,0,0:0:0:0:
64,192,47911,1,4,0:0:0:0:
192,192,47911,1,0,0:0:0:0:
320,192,48281,1,2,0:0:0:0:
64,192,48281,1,0,0:0:0:0:
448,192,48467,1,4,0:0:0:0:
320,192,48467,1,0,0:0:0:0:
64,192,48467,1,0,0:0:0:0:
192,192,48467,1,0,0:0:0:0:
192,192,48652,1,0,0:0:0:0:
320,192,48744,1,0,0:0:0:0:
64,192,48837,1,0,0:0:0:0:
192,192,48837,1,8,0:0:0:0:
448,192,48837,1,0,0:0:0:0:
448,192,49022,1,0,0:0:0:0:
320,192,49022,1,2,0:0:0:0:
192,192,49115,1,2,0:0:0:0:
64,192,49115,1,0,0:0:0:0:
448,192,49207,1,0,0:0:0:0:
320,192,49207,1,8,0:0:0:0:
320,192,49392,1,8,0:0:0:0:
64,192,49392,1,0,0:0:0:0:
448,192,49578,1,2,0:0:0:0:
192,192,49578,1,0,0:0:0:0:
64,192,49578,1,4,0:0:0:0:
320,192,49763,1,0,0:0:0:0:
448,192,49948,1,2,0:0:0:0:
192,192,49948,1,0,0:0:0:0:
64,192,50133,1,0,0:0:0:0:
192,192,50226,1,0,0:0:0:0:
320,192,50318,1,2,0:0:0:0:
448,192,50318,1,0,0:0:0:0:
64,192,50504,1,0,0:0:0:0:
448,192,50689,1,2,0:0:0:0:
192,192,50689,1,0,0:0:0:0:
320,192,50874,1,0,0:0:0:0:
64,192,51059,1,2,0:0:0:0:
192,192,51059,1,0,0:0:0:0:
320,192,51244,1,0,0:0:0:0:
192,192,51337,1,0,0:0:0:0:
448,192,51429,1,2,0:0:0:0:
320,192,51429,1,0,0:0:0:0:
192,192,51615,1,0,0:0:0:0:
320,192,51707,1,0,0:0:0:0:
64,192,51800,128,2,51985:0:0:0:0:
192,192,51800,128,0,51985:0:0:0:0:
448,192,52170,128,0,52355:0:0:0:0:
64,192,52170,128,4,52355:0:0:0:0:
320,192,52170,128,0,52355:0:0:0:0:
448,192,52541,1,2,0:0:0:0:
64,192,52541,1,0,0:0:0:0:
320,192,52726,1,0,0:0:0:0:
192,192,52911,1,2,0:0:0:0:
64,192,52911,1,0,0:0:0:0:
448,192,53096,1,0,0:0:0:0:
320,192,53189,1,0,0:0:0:0:
64,192,53281,1,0,0:0:0:0:
192,192,53281,1,0,0:0:0:0:
64,192,53467,1,0,0:0:0:0:
192,192,53559,1,0,0:0:0:0:
448,192,53652,1,0,0:0:0:0:
320,192,53652,1,2,0:0:0:0:
64,192,53837,1,8,0:0:0:0:
192,192,53837,1,0,0:0:0:0:
448,192,53837,1,0,0:0:0:0:
320,192,54022,1,2,0:0:0:0:
64,192,54022,1,0,0:0:0:0:
192,192,54207,1,8,0:0:0:0:
448,192,54207,1,0,0:0:0:0:
320,192,54207,1,0,0:0:0:0:
192,192,54392,1,8,0:0:0:0:
320,192,54392,1,0,0:0:0:0:
448,192,54392,1,0,0:0:0:0:
64,192,54578,1,2,0:0:0:0:
448,192,54578,1,0,0:0:0:0:
192,192,54670,1,8,0:0:0:0:
320,192,54670,1,0,0:0:0:0:
448,192,54763,1,0,0:0:0:0:
64,192,54763,1,2,0:0:0:0:
192,192,54948,1,2,0:0:0:0:
64,192,54948,1,0,0:0:0:0:
320,192,55041,1,8,0:0:0:0:
448,192,55041,1,0,0:0:0:0:
64,192,55133,1,0,0:0:0:0:
192,192,55133,1,2,0:0:0:0:
192,192,55318,1,0,0:0:0:0:
320,192,55318,1,2,0:0:0:0:
448,192,55504,1,2,0:0:0:0:
64,192,55504,1,0,0:0:0:0:
448,192,55689,1,2,0:0:0:0:
64,192,55689,1,0,0:0:0:0:
320,192,55874,1,0,0:0:0:0:
448,192,55874,1,8,0:0:0:0:
192,192,55874,1,0,0:0:0:0:
64,192,56059,1,0,0:0:0:0:
320,192,56152,1,2,0:0:0:0:
448,192,56152,1,0,0:0:0:0:
192,192,56244,1,2,0:0:0:0:
64,192,56244,1,0,0:0:0:0:
192,192,56429,1,0,0:0:0:0:
320,192,56429,1,2,0:0:0:0:
448,192,56615,1,8,0:0:0:0:
320,192,56615,1,0,0:0:0:0:
64,192,56615,1,0,0:0:0:0:
192,192,56800,1,2,0:0:0:0:
448,192,56800,1,0,0:0:0:0:
320,192,56985,1,0,0:0:0:0:
192,192,57170,1,2,0:0:0:0:
64,192,57170,1,0,0:0:0:0:
320,192,57355,1,8,0:0:0:0:
448,192,57355,1,0,0:0:0:0:
192,192,57355,1,0,0:0:0:0:
64,192,57541,1,0,0:0:0:0:
192,192,57633,1,0,0:0:0:0:
320,192,57633,1,2,0:0:0:0:
448,192,57726,1,2,0:0:0:0:
64,192,57726,1,0,0:0:0:0:
448,192,57911,1,2,0:0:0:0:
192,192,57911,1,0,0:0:0:0:
192,192,58096,1,0,0:0:0:0:
320,192,58096,1,8,0:0:0:0:
64,192,58096,1,0,0:0:0:0:
448,192,58281,1,0,0:0:0:0:
64,192,58467,1,0,0:0:0:0:
192,192,58467,1,2,0:0:0:0:
192,192,58652,1,2,0:0:0:0:
320,192,58652,1,0,0:0:0:0:
64,192,58837,1,0,0:0:0:0:
448,192,58837,1,8,0:0:0:0:
320,192,58837,1,0,0:0:0:0:
192,192,59022,1,0,0:0:0:0:
320,192,59115,1,2,0:0:0:0:
448,192,59115,1,0,0:0:0:0:
192,192,59207,1,2,0:0:0:0:
64,192,59207,1,0,0:0:0:0:
320,192,59392,1,2,0:0:0:0:
192,192,59392,1,0,0:0:0:0:
448,192,59578,1,8,0:0:0:0:
64,192,59578,1,0,0:0:0:0:
320,192,59578,1,0,0:0:0:0:
64,192,59763,1,0,0:0:0:0:
448,192,59763,1,4,0:0:0:0:
192,192,59763,1,0,0:0:0:0:
192,192,60133,1,0,0:0:0:0:
320,192,60133,1,2,0:0:0:0:
320,192,60318,1,8,0:0:0:0:
448,192,60318,1,0,0:0:0:0:
64,192,60318,1,0,0:0:0:0:
64,192,60596,1,0,0:0:0:0:
192,192,60596,1,8,0:0:0:0:
320,192,60689,1,8,0:0:0:0:
448,192,60689,1,0,0:0:0:0:
192,192,60874,1,2,0:0:0:0:
320,192,60874,1,0,0:0:0:0:
448,192,61059,128,0,61244:0:0:0:0:
64,192,61059,1,2,0:0:0:0:
320,192,61152,128,0,61337:0:0:0:0:
192,192,61244,128,0,61429:0:0:0:0:
64,192,61337,128,0,61429:0:0:0:0:
320,192,61429,1,2,0:0:0:0:
448,192,61429,1,4,0:0:0:0:
192,192,61615,1,0,0:0:0:0:
448,192,61800,1,2,0:0:0:0:
64,192,61800,1,0,0:0:0:0:
320,192,61892,1,0,0:0:0:0:
192,192,61985,1,0,0:0:0:0:
448,192,62078,1,0,0:0:0:0:
64,192,62170,1,2,0:0:0:0:
320,192,62170,1,0,0:0:0:0:
192,192,62355,1,0,0:0:0:0:
320,192,62448,1,0,0:0:0:0:
448,192,62541,1,2,0:0:0:0:
192,192,62541,1,0,0:0:0:0:
64,192,62726,1,0,0:0:0:0:
192,192,62818,1,0,0:0:0:0:
448,192,62911,1,2,0:0:0:0:
320,192,62911,1,0,0:0:0:0:
192,192,63096,1,0,0:0:0:0:
320,192,63189,1,0,0:0:0:0:
64,192,63281,1,2,0:0:0:0:
192,192,63281,1,0,0:0:0:0:
448,192,63467,1,0,0:0:0:0:
320,192,63559,1,0,0:0:0:0:
64,192,63652,1,0,0:0:0:0:
192,192,63652,1,2,0:0:0:0:
320,192,63837,1,0,0:0:0:0:
192,192,63929,1,0,0:0:0:0:
448,192,64022,1,2,0:0:0:0:
64,192,64022,1,0,0:0:0:0:
320,192,64207,1,0,0:0:0:0:
192,192,64392,1,2,0:0:0:0:
64,192,64392,128,0,65689:0:0:0:0:
448,192,65133,128,0,65318:0:0:0:0:
320,192,65226,128,0,65411:0:0:0:0:
192,192,65318,128,0,65504:0:0:0:0:
320,192,65689,1,4,0:0:0:0:
192,192,65689,1,0,0:0:0:0:
448,192,65689,1,2,0:0:0:0:
192,192,66059,1,0,0:0:0:0:
64,192,66059,1,0,0:0:0:0:
448,192,66059,1,2,0:0:0:0:
448,192,66244,1,2,0:0:0:0:
192,192,66244,1,0,0:0:0:0:
64,192,66244,1,0,0:0:0:0:
192,192,66429,1,0,0:0:0:0:
64,192,66429,1,0,0:0:0:0:
448,192,66429,1,2,0:0:0:0:
448,192,66615,1,2,0:0:0:0:
64,192,66615,1,0,0:0:0:0:
320,192,66615,1,0,0:0:0:0:
448,192,66800,1,2,0:0:0:0:
64,192,66800,1,0,0:0:0:0:
320,192,66800,1,0,0:0:0:0:
448,192,66985,1,2,0:0:0:0:
64,192,66985,1,0,0:0:0:0:
320,192,66985,1,0,0:0:0:0:
64,192,67170,1,0,0:0:0:0:
448,192,67170,1,2,0:0:0:0:
320,192,67170,1,0,0:0:0:0:
448,192,67355,1,2,0:0:0:0:
320,192,67355,1,0,0:0:0:0:
192,192,67355,1,0,0:0:0:0:
64,192,67355,1,4,0:0:0:0:
192,192,67541,1,0,0:0:0:0:
320,192,67726,1,8,0:0:0:0:
448,192,67726,1,0,0:0:0:0:
64,192,67726,1,0,0:0:0:0:
320,192,67911,128,0,68096:0:0:0:0:
64,192,68096,1,0,0:0:0:0:
192,192,68096,1,2,0:0:0:0:
448,192,68281,1,0,0:0:0:0:
448,192,68467,1,8,0:0:0:0:
192,192,68467,1,0,0:0:0:0:
64,192,68467,128,0,68652:0:0:0:0:
320,192,68652,1,0,0:0:0:0:
192,192,68837,1,2,0:0:0:0:
64,192,68837,1,0,0:0:0:0:
192,192,69022,128,0,69207:0:0:0:0:
64,192,69207,1,0,0:0:0:0:
320,192,69207,1,8,0:0:0:0:
448,192,69207,1,0,0:0:0:0:
192,192,69392,1,0,0:0:0:0:
448,192,69578,1,2,0:0:0:0:
320,192,69578,128,0,69763:0:0:0:0:
64,192,69763,128,0,69948:0:0:0:0:
192,192,69948,128,8,70133:0:0:0:0:
448,192,69948,1,0,0:0:0:0:
320,192,70133,128,0,70318:0:0:0:0:
448,192,70318,128,0,70504:0:0:0:0:
64,192,70318,1,2,0:0:0:0:
192,192,70504,1,0,0:0:0:0:
320,192,70689,1,0,0:0:0:0:
448,192,70689,1,8,0:0:0:0:
64,192,70689,1,0,0:0:0:0:
320,192,70874,128,0,71059:0:0:0:0:
64,192,71059,1,2,0:0:0:0:
192,192,71059,1,0,0:0:0:0:
448,192,71244,1,0,0:0:0:0:
448,192,71429,128,0,71615:0:0:0:0:
320,192,71429,1,8,0:0:0:0:
64,192,71429,1,0,0:0:0:0:
192,192,71615,1,0,0:0:0:0:
64,192,71800,1,2,0:0:0:0:
448,192,71800,1,0,0:0:0:0:
64,192,71985,128,0,72170:0:0:0:0:
192,192,72170,1,0,0:0:0:0:
320,192,72170,1,8,0:0:0:0:
448,192,72170,1,0,0:0:0:0:
320,192,72355,128,0,72541:0:0:0:0:
192,192,72541,1,0,0:0:0:0:
64,192,72541,1,2,0:0:0:0:
192,192,72726,128,0,72911:0:0:0:0:
448,192,72911,1,0,0:0:0:0:
64,192,72911,1,0,0:0:0:0:
320,192,72911,1,8,0:0:0:0:
192,192,73096,1,0,0:0:0:0:
320,192,73189,1,0,0:0:0:0:
448,192,73281,1,0,0:0:0:0:
192,192,73281,1,2,0:0:0:0:
64,192,73281,1,0,0:0:0:0:
320,192,73467,128,0,73652:0:0:0:0:
448,192,73467,128,0,73652:0:0:0:0:
192,192,73652,1,0,0:0:0:0:
64,192,73652,1,2,0:0:0:0:
192,192,73837,128,0,74022:0:0:0:0:
320,192,73837,128,0,74022:0:0:0:0:
448,192,74022,1,2,0:0:0:0:
64,192,74022,1,0,0:0:0:0:
64,192,74207,128,0,74392:0:0:0:0:
192,192,74207,128,0,74392:0:0:0:0:
320,192,74392,1,0,0:0:0:0:
448,192,74392,1,2,0:0:0:0:
64,192,74578,128,0,74763:0:0:0:0:
448,192,74578,128,0,74763:0:0:0:0:
320,192,74763,1,0,0:0:0:0:
192,192,74763,1,2,0:0:0:0:
64,192,74948,128,0,75133:0:0:0:0:
320,192,74948,128,0,75133:0:0:0:0:
192,192,75133,1,0,0:0:0:0:
448,192,75133,1,2,0:0:0:0:
192,192,75318,128,0,75504:0:0:0:0:
320,192,75318,128,0,75504:0:0:0:0:
64,192,75504,1,2,0:0:0:0:
448,192,75504,1,0,0:0:0:0:
448,192,75689,128,0,75874:0:0:0:0:
192,192,75689,128,0,75874:0:0:0:0:
64,192,75874,1,0,0:0:0:0:
320,192,75874,1,2,0:0:0:0:
320,192,76059,1,2,0:0:0:0:
192,192,76059,1,0,0:0:0:0:
192,192,76244,1,0,0:0:0:0:
448,192,76244,1,0,0:0:0:0:
64,192,76244,1,8,0:0:0:0:
320,192,76429,1,0,0:0:0:0:
448,192,76429,1,0,0:0:0:0:
64,192,76429,1,8,0:0:0:0:
320,192,76800,1,8,0:0:0:0:
64,192,76800,1,0,0:0:0:0:
192,192,76800,1,0,0:0:0:0:
64,192,77170,1,0,0:0:0:0:
192,192,77170,1,0,0:0:0:0:
448,192,77170,1,8,0:0:0:0:
320,192,77541,1,0,0:0:0:0:
448,192,77541,1,8,0:0:0:0:
64,192,77541,1,0,0:0:0:0:
192,192,77911,1,0,0:0:0:0:
448,192,77911,1,8,0:0:0:0:
320,192,77911,1,0,0:0:0:0:
192,192,78096,1,0,0:0:0:0:
320,192,78096,1,0,0:0:0:0:
448,192,78096,1,8,0:0:0:0:
64,192,78281,1,0,0:0:0:0:
192,192,78374,1,0,0:0:0:0:
320,192,78374,1,8,0:0:0:0:
448,192,78467,1,2,0:0:0:0:
64,192,78467,1,0,0:0:0:0:
320,192,78652,1,2,0:0:0:0:
192,192,78744,1,8,0:0:0:0:
64,192,78744,1,0,0:0:0:0:
320,192,78837,1,8,0:0:0:0:
448,192,78837,1,0,0:0:0:0:
192,192,78929,1,8,0:0:0:0:
64,192,78929,1,0,0:0:0:0:
320,192,79022,1,8,0:0:0:0:
448,192,79022,1,0,0:0:0:0:
192,192,79115,1,8,0:0:0:0:
64,192,79207,1,0,0:0:0:0:
320,192,79207,1,2,0:0:0:0:
448,192,79207,1,0,0:0:0:0:
192,192,79392,1,0,0:0:0:0:
320,192,79392,1,2,0:0:0:0:
448,192,79578,1,0,0:0:0:0:
192,192,79578,1,0,0:0:0:0:
64,192,79578,1,8,0:0:0:0:
320,192,79763,1,0,0:0:0:0:
192,192,79855,1,8,0:0:0:0:
64,192,79855,1,0,0:0:0:0:
320,192,79948,1,2,0:0:0:0:
448,192,79948,1,0,0:0:0:0:
192,192,80133,1,2,0:0:0:0:
320,192,80133,1,0,0:0:0:0:
192,192,80318,1,8,0:0:0:0:
64,192,80318,1,0,0:0:0:0:
448,192,80318,1,0,0:0:0:0:
320,192,80504,1,0,0:0:0:0:
192,192,80689,1,0,0:0:0:0:
448,192,80689,1,2,0:0:0:0:
448,192,80874,1,2,0:0:0:0:
64,192,80874,1,0,0:0:0:0:
320,192,81059,1,0,0:0:0:0:
64,192,81059,1,0,0:0:0:0:
192,192,81059,1,8,0:0:0:0:
448,192,81244,1,0,0:0:0:0:
320,192,81337,1,2,0:0:0:0:
192,192,81337,1,0,0:0:0:0:
64,192,81429,1,0,0:0:0:0:
448,192,81429,1,2,0:0:0:0:
64,192,81615,1,2,0:0:0:0:
320,192,81615,1,0,0:0:0:0:
192,192,81800,1,0,0:0:0:0:
320,192,81800,1,0,0:0:0:0:
448,192,81800,1,8,0:0:0:0:
64,192,81985,1,0,0:0:0:0:
448,192,82170,1,0,0:0:0:0:
192,192,82170,1,2,0:0:0:0:
320,192,82355,1,2,0:0:0:0:
448,192,82355,1,0,0:0:0:0:
64,192,82541,1,0,0:0:0:0:
192,192,82541,1,8,0:0:0:0:
320,192,82541,1,0,0:0:0:0:
448,192,82726,1,0,0:0:0:0:
192,192,82818,1,2,0:0:0:0:
64,192,82818,1,0,0:0:0:0:
320,192,82911,1,2,0:0:0:0:
448,192,82911,1,0,0:0:0:0:
192,192,83096,1,0,0:0:0:0:
320,192,83096,1,2,0:0:0:0:
64,192,83281,1,0,0:0:0:0:
192,192,83281,1,8,0:0:0:0:
448,192,83281,1,0,0:0:0:0:
320,192,83467,1,0,0:0:0:0:
64,192,83652,1,0,0:0:0:0:
192,192,83652,1,2,0:0:0:0:
192,192,83837,1,0,0:0:0:0:
320,192,83837,1,2,0:0:0:0:
448,192,84022,1,8,0:0:0:0:
64,192,84022,1,0,0:0:0:0:
320,192,84022,1,0,0:0:0:0:
192,192,84207,1,0,0:0:0:0:
320,192,84300,1,8,0:0:0:0:
448,192,84300,1,0,0:0:0:0:
192,192,84392,1,2,0:0:0:0:
64,192,84392,1,0,0:0:0:0:
448,192,84578,1,0,0:0:0:0:
192,192,84670,1,8,0:0:0:0:
64,192,84670,1,0,0:0:0:0:
320,192,84763,1,2,0:0:0:0:
448,192,84763,1,0,0:0:0:0:
64,192,84948,1,0,0:0:0:0:
448,192,85041,1,0,0:0:0:0:
320,192,85041,1,8,0:0:0:0:
192,192,85133,1,2,0:0:0:0:
64,192,85133,1,0,0:0:0:0:
320,192,85318,128,0,85504:0:0:0:0:
448,192,85318,128,0,85504:0:0:0:0:
192,192,85504,1,0,0:0:0:0:
64,192,85504,1,2,0:0:0:0:
320,192,85689,128,0,85874:0:0:0:0:
192,192,85689,128,0,85874:0:0:0:0:
448,192,85874,1,2,0:0:0:0:
64,192,85874,1,0,0:0:0:0:
64,192,86059,128,0,86244:0:0:0:0:
192,192,86059,128,0,86244:0:0:0:0:
320,192,86244,1,2,0:0:0:0:
448,192,86244,1,0,0:0:0:0:
64,192,86429,128,0,86615:0:0:0:0:
448,192,86429,128,0,86615:0:0:0:0:
192,192,86615,1,2,0:0:0:0:
320,192,86615,1,0,0:0:0:0:
192,192,86800,128,0,86985:0:0:0:0:
448,192,86800,128,0,86985:0:0:0:0:
320,192,86985,1,2,0:0:0:0:
64,192,86985,1,0,0:0:0:0:
320,192,87170,128,0,87355:0:0:0:0:
192,192,87170,128,0,87355:0:0:0:0:
448,192,87355,1,2,0:0:0:0:
64,192,87355,1,0,0:0:0:0:
320,192,87541,128,0,87726:0:0:0:0:
64,192,87541,128,0,87726:0:0:0:0:
192,192,87726,1,0,0:0:0:0:
448,192,87726,1,2,0:0:0:0:
192,192,87911,128,0,88096:0:0:0:0:
64,192,87911,128,0,88096:0:0:0:0:
320,192,88096,1,2,0:0:0:0:
448,192,88096,1,0,0:0:0:0:
192,192,88281,1,8,0:0:0:0:
64,192,88281,1,0,0:0:0:0:
320,192,88374,1,8,0:0:0:0:
448,192,88374,1,0,0:0:0:0:
192,192,88467,1,8,0:0:0:0:
64,192,88467,1,0,0:0:0:0:
192,192,88652,1,0,0:0:0:0:
320,192,88652,1,2,0:0:0:0:
448,192,88837,1,8,0:0:0:0:
64,192,88837,1,0,0:0:0:0:
192,192,88929,1,0,0:0:0:0:
320,192,88929,1,8,0:0:0:0:
64,192,89022,1,0,0:0:0:0:
448,192,89022,1,8,0:0:0:0:
320,192,89207,1,0,0:0:0:0:
192,192,89207,1,2,0:0:0:0:
64,192,89392,1,0,0:0:0:0:
448,192,89392,1,8,0:0:0:0:
320,192,89392,1,0,0:0:0:0:
192,192,89578,1,2,0:0:0:0:
448,192,89578,1,0,0:0:0:0:
320,192,89763,1,8,0:0:0:0:
192,192,89763,1,0,0:0:0:0:
64,192,89763,1,8,0:0:0:0:
64,192,89948,1,0,0:0:0:0:
448,192,89948,1,2,0:0:0:0:
192,192,90133,1,0,0:0:0:0:
320,192,90226,1,8,0:0:0:0:
448,192,90226,1,0,0:0:0:0:
192,192,90318,1,2,0:0:0:0:
64,192,90318,1,0,0:0:0:0:
192,192,90504,1,0,0:0:0:0:
320,192,90504,1,2,0:0:0:0:
448,192,90689,1,8,0:0:0:0:
320,192,90689,1,0,0:0:0:0:
64,192,90689,1,0,0:0:0:0:
192,192,90781,1,0,0:0:0:0:
448,192,90874,1,0,0:0:0:0:
320,192,90967,1,0,0:0:0:0:
192,192,91059,1,0,0:0:0:0:
64,192,91059,1,8,0:0:0:0:
64,192,91244,1,0,0:0:0:0:
64,192,91429,1,0,0:0:0:0:
64,192,91615,1,0,0:0:0:0:
320,192,91615,1,2,0:0:0:0:
192,192,91800,1,0,0:0:0:0:
64,192,91800,1,0,0:0:0:0:
448,192,91800,1,8,0:0:0:0:
320,192,91985,1,0,0:0:0:0:
320,192,92170,1,0,0:0:0:0:
320,192,92355,1,0,0:0:0:0:
320,192,92541,1,2,0:0:0:0:
64,192,92541,1,0,0:0:0:0:
320,192,92726,1,2,0:0:0:0:
64,192,92726,1,0,0:0:0:0:
192,192,92911,1,0,0:0:0:0:
192,192,93096,1,2,0:0:0:0:
448,192,93096,1,0,0:0:0:0:
448,192,93281,1,8,0:0:0:0:
320,192,93281,1,0,0:0:0:0:
64,192,93281,1,0,0:0:0:0:
192,192,93467,1,0,0:0:0:0:
192,192,93652,1,0,0:0:0:0:
192,192,93837,1,0,0:0:0:0:
320,192,94022,1,0,0:0:0:0:
448,192,94022,1,8,0:0:0:0:
64,192,94022,1,0,0:0:0:0:
192,192,94392,1,0,0:0:0:0:
320,192,94392,1,2,0:0:0:0:
64,192,94763,1,0,0:0:0:0:
192,192,94763,1,2,0:0:0:0:
192,192,94948,1,2,0:0:0:0:
448,192,94948,1,0,0:0:0:0:
448,192,95133,1,2,0:0:0:0:
64,192,95133,1,0,0:0:0:0:
64,192,95318,1,0,0:0:0:0:
192,192,95318,1,0,0:0:0:0:
320,192,95318,1,4,0:0:0:0:
320,192,95504,1,8,0:0:0:0:
448,192,95504,1,0,0:0:0:0:
192,192,95596,1,2,0:0:0:0:
64,192,95596,1,0,0:0:0:0:
448,192,95689,1,2,0:0:0:0:
320,192,95781,1,2,0:0:0:0:
192,192,95874,1,2,0:0:0:0:
64,192,95874,1,0,0:0:0:0:
320,192,96059,1,0,0:0:0:0:
192,192,96152,1,0,0:0:0:0:
448,192,96244,1,2,0:0:0:0:
64,192,96244,1,0,0:0:0:0:
320,192,96429,1,0,0:0:0:0:
192,192,96522,1,8,0:0:0:0:
64,192,96522,1,0,0:0:0:0:
320,192,96615,1,2,0:0:0:0:
448,192,96615,128,0,96985:0:0:0:0:
192,192,96800,128,0,96985:0:0:0:0:
320,192,96985,1,0,0:0:0:0:
64,192,96985,1,8,0:0:0:0:
64,192,97170,1,8,0:0:0:0:
192,192,97170,1,0,0:0:0:0:
448,192,97170,1,0,0:0:0:0:
320,192,97541,1,8,0:0:0:0:
448,192,97541,1,0,0:0:0:0:
192,192,97541,1,0,0:0:0:0:
320,192,97911,1,8,0:0:0:0:
192,192,97911,1,0,0:0:0:0:
64,192,97911,1,0,0:0:0:0:
320,192,98281,1,8,0:0:0:0:
448,192,98281,1,4,0:0:0:0:
64,192,98281,1,0,0:0:0:0:
64,192,98652,1,0,0:0:0:0:
192,192,98652,1,0,0:0:0:0:
448,192,98652,1,0,0:0:0:0:
320,192,98837,1,2,0:0:0:0:
192,192,98837,1,0,0:0:0:0:
320,192,99022,1,2,0:0:0:0:
64,192,99022,1,0,0:0:0:0:
192,192,99207,1,8,0:0:0:0:
64,192,99207,1,0,0:0:0:0:
448,192,99207,1,0,0:0:0:0:
448,192,99392,1,0,0:0:0:0:
320,192,99392,1,0,0:0:0:0:
192,192,99392,1,8,0:0:0:0:
64,192,99578,1,0,0:0:0:0:
192,192,99578,1,8,0:0:0:0:
320,192,99578,1,0,0:0:0:0:
448,192,99763,1,8,0:0:0:0:
320,192,99763,1,4,0:0:0:0:
64,192,99763,1,0,0:0:0:0:
64,192,99948,128,0,101429:0:0:0:0:
192,192,99948,128,0,101429:0:0:0:0:
