osu file format v14

[General]
AudioFilename: Ijiwaru na Deai.mp3
AudioLeadIn: 0
PreviewTime: 77564
Countdown: 0
SampleSet: Soft
StackLeniency: 0.7
Mode: 0
LetterboxInBreaks: 0
WidescreenStoryboard: 0

[Editor]
Bookmarks: 11987,25941,37104,42685,53848,59429,67801,77569,88731,99894,111057,116638,125011,134778,145941,154313,165476,176638,187801,210127
DistanceSpacing: 1.2
BeatDivisor: 4
GridSize: 4
TimelineZoom: 1.6

[Metadata]
Title:Ijiwaru na Deai
TitleUnicode:イジワルな出会い
Artist:HoneyWorks feat. sana
ArtistUnicode:HoneyWorks feat. sana
Creator:Meg
Version:Mean
Source:
Tags:iMage-- [C_u_r_i] Curi Enjoy Ashasaki 鎖那 ハニワ 初音ミク Hatsune Miku VOCALOID 好きになるその瞬間を。 Suki ni naru sono Shunkan o. 告白実行委員会 Kokuhaku Jikkou Iinkai
BeatmapID:818666
BeatmapSetID:373696

[Difficulty]
HPDrainRate:6
CircleSize:4
OverallDifficulty:8
ApproachRate:9
SliderMultiplier:1.7
SliderTickRate:1

[Events]
//Background and Video events
0,0,"BG.png",0,0
//Break Periods
2,100094,110457
2,176838,186406
//Storyboard Layer 0 (Background)
//Storyboard Layer 1 (Fail)
//Storyboard Layer 2 (Pass)
//Storyboard Layer 3 (Foreground)
//Storyboard Sound Samples

[TimingPoints]
825,348.837209302326,4,2,2,50,1,0
825,-133.333333333333,4,2,2,50,0,0
6406,-100,4,2,2,60,0,0
10592,-100,4,2,3,30,0,0
11290,-100,4,2,3,45,0,0
11987,-100,4,2,1,60,0,0
14255,-100,4,2,2,60,0,0
14778,-100,4,2,1,60,0,0
18441,-100,4,2,2,60,0,0
18964,-100,4,2,1,60,0,0
20359,-100,4,2,1,50,0,0
25592,-66.6666666666667,4,2,1,60,0,0
25941,-100,4,2,1,60,0,0
33790,-100,4,2,2,60,0,0
33964,-100,4,2,1,60,0,0
37104,-100,4,2,3,60,0,0
37452,-100,4,2,1,60,0,0
38499,-100,4,2,3,60,0,0
38848,-100,4,2,1,60,0,0
39894,-100,4,2,3,60,0,0
40243,-100,4,2,1,60,0,0
41290,-100,4,2,3,60,0,0
41464,-100,4,2,1,60,0,0
41638,-100,4,2,2,60,0,0
41987,-100,4,2,1,60,0,0
52801,-100,4,2,2,60,0,0
52976,-100,4,2,1,60,0,0
53848,-100,4,2,3,60,0,0
54022,-100,4,2,1,60,0,0
55243,-100,4,2,3,60,0,0
55418,-100,4,2,1,60,0,0
56638,-100,4,2,3,60,0,0
56813,-100,4,2,1,60,0,0
58034,-100,4,2,3,60,0,0
58208,-100,4,2,1,60,0,0
64662,-100,4,2,2,60,0,0
65011,-100,4,2,1,60,0,0
66755,-100,4,2,2,60,0,0
67104,-100,4,2,1,60,0,0
67801,-133.333333333333,4,2,1,60,0,0
71987,-100,4,2,1,60,0,0
72336,-80,4,2,2,60,0,0
72685,-100,4,2,1,60,0,0
75999,-100,4,2,2,60,0,0
76173,-133.333333333333,4,3,1,60,0,0
77220,-100,4,2,1,60,0,0
77569,-90.9090909090909,4,2,1,70,0,1
88731,-100,4,2,1,60,0,0
98848,-80,4,2,2,60,0,0
99197,-133.333333333333,4,2,1,60,0,0
99894,-100,4,2,1,50,0,0
111057,-100,4,2,1,60,0,0
123964,-100,4,2,2,60,0,0
124138,-100,4,2,1,60,0,0
125011,-133.333333333333,4,2,1,60,0,0
129197,-79.9999999999999,4,2,2,60,0,0
129894,-100,4,2,1,60,0,0
133383,-200,4,2,2,40,0,0
134429,-100,4,2,1,55,0,0
134778,-90.9090909090909,4,2,1,70,0,1
145941,-133.333333333333,4,2,2,60,0,0
152918,-100,4,2,1,60,0,0
175941,-133.333333333333,4,2,1,60,0,0
176638,-133.333333333333,4,2,2,50,0,0
187801,-83.3333333333333,4,2,1,80,0,1
196173,-125,4,3,1,60,0,0
197569,-125,4,3,3,60,0,0
197830,-125,4,3,1,60,0,0
198266,-83.3333333333333,4,2,1,80,0,0
198964,-83.3333333333333,4,2,1,80,0,1
208731,-200,4,2,1,40,0,0
209778,-200,4,2,1,10,0,0
209865,-200,4,2,1,40,0,0
210127,333.333333333333,4,2,2,50,1,0
210127,-100,4,2,2,70,0,1
210210,480,4,2,2,50,1,0
210690,545.454545454546,4,2,2,50,1,0
211235,487.80487804878,4,2,2,50,1,0
211722,560.747663551402,4,2,2,50,1,0
212282,582.52427184466,4,2,2,50,1,0
212864,545.454545454546,4,2,2,50,1,0
213136,600,4,2,2,50,1,0
213436,571.428571428571,4,2,2,50,1,0
214007,631.578947368421,4,2,2,50,1,0
214638,600,4,2,2,50,1,0
214938,530.973451327434,4,2,2,50,1,0
215203,600,4,2,2,50,1,0
215503,631.578947368421,4,2,2,50,1,0
215818,666.666666666667,4,2,2,50,1,0
216484,631.578947368421,4,2,2,50,1,0
216799,800,4,2,2,50,1,0
217199,769.230769230769,4,2,2,50,1,0
217968,937.5,4,2,2,50,1,0
218436,1363.63636363636,4,2,2,50,1,0

[Colours]
Combo1 : 128,255,255
Combo2 : 255,128,192
Combo3 : 255,255,128
Combo4 : 201,147,255

[HitObjects]
440,92,825,6,0,P|443:155|429:217,1,127.500004863739,2|0,0:0|0:0,0:0:0:0:
272,336,1522,2,0,P|268:272|282:210,1,127.500004863739,2|0,0:0|0:0,0:0:0:0:
216,136,2045,1,0,0:0:0:0:
216,136,2220,2,0,L|152:138,1,63.7500024318696,2|0,0:0|0:0,0:0:0:0:
36,200,2569,2,0,B|56:199|56:199|78:203|78:203|99:202,1,63.7500024318696
212,264,2918,1,2,0:0:0:0:
212,264,3266,2,0,L|200:326,1,63.7500024318696,2|0,0:0|0:0,0:0:0:0:
316,276,3615,5,2,0:0:0:0:
387,204,3790,2,0,P|418:196|450:197,2,63.7500024318696
288,177,4313,2,0,P|279:114|301:55,1,127.500004863739,2|0,0:0|0:0,0:0:0:0:
408,48,4836,1,0,0:0:0:0:
472,132,5011,5,2,0:0:0:0:
467,147,5359,1,2,0:0:0:0:
463,162,5708,5,2,0:0:0:0:
340,188,5883,1,0,3:0:0:0:
492,240,6057,1,4,0:3:0:0:
384,112,6231,1,4,0:3:0:0:
384,112,6319,1,4,0:3:0:0:
384,112,6406,6,0,L|368:195,1,85,2|0,0:0|0:0,0:0:0:0:
232,248,6755,2,0,L|247:164,1,85,4|0,0:3|0:0,0:0:0:0:
240,136,7016,1,0,0:0:0:0:
216,111,7104,2,0,B|174:120|174:120|120:84|52:103,1,170,2|4,0:0|0:3,0:0:0:0:
20,208,7627,1,0,0:0:0:0:
20,208,7714,1,0,0:0:0:0:
20,208,7801,6,0,P|26:249|28:292,1,85,2|0,0:0|0:0,0:0:0:0:
204,308,8150,1,4,0:3:0:0:
112,272,8325,1,0,0:0:0:0:
220,312,8499,2,0,P|262:312|302:300,1,85,2|0,0:0|0:0,0:0:0:0:
244,192,8848,1,4,0:3:0:0:
128,232,9022,1,0,0:0:0:0:
128,232,9109,1,0,0:0:0:0:
128,232,9197,6,0,L|116:148,1,85,2|0,0:0|0:0,0:0:0:0:
176,68,9545,1,4,0:3:0:0:
216,160,9720,1,0,0:0:0:0:
64,152,9894,1,2,0:0:0:0:
216,52,10069,1,0,0:0:0:0:
226,232,10243,2,0,P|167:214|143:157,1,127.5,4|0,0:3|0:0,0:0:0:0:
218,158,10592,5,2,0:0:0:0:
220,154,10941,1,2,0:0:0:0:
222,158,11290,6,0,L|166:167,2,56.6666666666667,2|0|0,0:0|0:0|0:0,0:0:0:0:
304,244,11638,2,0,L|359:254,2,56.6666666666667,2|0|0,0:0|0:0|0:0,0:0:0:0:
216,328,11987,6,0,L|132:343,1,85,6|0,0:0|0:0,0:0:0:0:
28,204,12336,2,0,P|70:205|110:219,1,85,2|0,0:0|0:0,0:0:0:0:
257,186,12685,2,0,B|292:136|292:136|304:76|258:38,1,170,2|0,0:0|3:2,0:0:0:0:
424,112,13208,1,2,3:2:0:0:
424,112,13295,1,2,3:2:0:0:
424,112,13383,6,0,L|413:196,1,85,6|0,0:0|0:0,0:0:0:0:
298,284,13731,2,0,L|288:200,1,85,2|0,0:0|0:0,0:0:0:0:
412,312,14080,1,2,0:0:0:0:
192,164,14255,6,0,P|149:159|108:167,1,85,12|0,0:0|0:0,0:0:0:0:
376,232,14604,2,0,P|418:236|459:228,1,85,12|6,0:0|0:0,0:0:0:0:
424,112,14952,5,2,0:0:0:0:
276,160,15127,1,12,0:3:0:0:
348,52,15301,1,4,0:3:0:0:
348,52,15388,1,4,0:3:0:0:
348,52,15476,1,2,0:0:0:0:
364,188,15650,1,0,0:0:0:0:
248,64,15825,1,4,0:3:0:0:
226,66,15912,1,4,0:3:0:0:
205,69,15999,1,4,0:3:0:0:
184,72,16086,1,4,0:3:0:0:
163,75,16173,6,0,L|79:61,1,85,6|0,0:0|0:0,0:0:0:0:
64,192,16522,1,2,0:0:0:0:
161,160,16697,1,0,0:0:0:0:
220,243,16871,1,6,0:0:0:0:
64,294,17045,1,4,0:3:0:0:
64,294,17133,1,4,0:3:0:0:
64,294,17220,1,2,0:0:0:0:
64,192,17394,2,0,L|56:132,1,42.5,2|0,0:0|0:0,0:0:0:0:
161,325,17569,6,0,L|328:294,1,170,6|2,0:0|0:0,0:0:0:0:
312,164,18092,1,0,0:0:0:0:
412,248,18266,1,2,0:0:0:0:
212,124,18441,6,0,P|203:82|206:40,1,85,12|0,0:0|0:0,0:0:0:0:
299,259,18790,2,0,P|308:301|305:343,1,85,12|2,0:0|0:0,0:0:0:0:
128,328,19138,5,0,0:0:0:0:
76,244,19313,2,0,P|116:232|158:237,1,85,2|0,0:0|0:0,0:0:0:0:
232,320,19662,1,2,0:0:0:0:
304,192,19836,1,2,0:0:0:0:
356,328,20011,1,2,0:0:0:0:
428,200,20185,1,2,0:0:0:0:
480,336,20359,5,6,0:0:0:0:
428,200,21057,5,2,0:0:0:0:
356,328,21755,5,2,0:0:0:0:
304,192,22452,5,2,0:0:0:0:
175,271,22801,6,0,P|169:244|168:216,2,56.6666666666667
232,320,23150,1,2,0:0:0:0:
372,228,23499,6,0,P|378:200|379:172,2,56.6666666666667
315,276,23848,1,2,0:0:0:0:
175,184,24197,6,0,P|168:156|167:128,2,56.6666666666667
232,232,24545,2,0,L|288:224,1,56.6666666666667
312,120,24778,2,0,L|256:128,1,56.6666666666667
420,336,25156,5,0,0:0:0:0:
420,336,25243,2,0,L|433:252,1,85,2|0,0:0|0:0,0:0:0:0:
504,160,25592,6,0,P|443:225|362:187,1,191.250007295609
344,168,25941,6,0,L|259:174,1,85,6|0,0:0|0:0,0:0:0:0:
88,216,26290,2,0,P|70:254|67:296,1,85,8|0,0:0|0:0,0:0:0:0:
192,219,26638,2,0,P|160:143|83:114,1,170,2|8,0:0|0:0,0:0:0:0:
212,48,27162,1,0,0:0:0:0:
344,168,27336,5,2,0:0:0:0:
204,132,27511,1,2,0:0:0:0:
324,60,27685,2,0,L|408:53,1,85,8|0,0:0|0:0,0:0:0:0:
480,176,28034,2,0,B|412:148|368:212|368:212|376:252,1,170,2|8,0:0|0:0,0:0:0:0:
404,352,28557,1,0,0:0:0:0:
256,340,28731,6,0,P|213:334|172:324,1,85,2|0,0:0|0:0,0:0:0:0:
100,152,29080,2,0,L|107:236,1,85,8|0,0:0|0:0,0:0:0:0:
236,216,29429,2,0,P|237:173|229:132,1,85,2|0,0:0|0:0,0:0:0:0:
56,292,29778,2,0,P|93:310|135:307,1,85,8|0,0:0|0:0,0:0:0:0:
308,268,30127,5,2,0:0:0:0:
160,200,30301,1,2,0:0:0:0:
308,132,30476,2,0,L|289:49,1,85,8|0,0:0|0:0,0:0:0:0:
236,216,30825,1,2,0:0:0:0:
132,116,30999,1,8,0:0:0:0:
332,224,31173,2,0,L|415:208,1,85,8|0,0:0|0:0,0:0:0:0:
396,336,31522,6,0,L|229:303,1,170,2|8,0:0|0:0,0:0:0:0:
96,336,32045,1,0,0:0:0:0:
172,223,32220,2,0,P|172:181|160:140,1,85,2|0,0:0|0:0,0:0:0:0:
24,204,32569,2,0,P|23:246|35:287,1,85,8|0,0:0|0:0,0:0:0:0:
256,280,32918,5,2,0:0:0:0:
172,224,33092,1,2,0:0:0:0:
166,325,33266,1,8,0:0:0:0:
252,156,33441,1,0,0:0:0:0:
104,272,33615,1,2,0:0:0:0:
128,88,33790,1,12,0:0:0:0:
172,224,33964,2,0,L|147:305,1,85,8|0,0:0|0:0,0:0:0:0:
15,160,34313,6,0,P|92:126|174:144,1,170,2|8,0:0|0:0,0:0:0:0:
296,184,34836,1,0,0:0:0:0:
412,128,35011,2,0,L|422:43,1,85,0|4,0:0|0:3,0:0:0:0:
272,32,35359,2,0,P|267:95|282:156,1,127.5,8|0,0:0|0:0,0:0:0:0:
296,184,35708,5,2,0:0:0:0:
136,156,35883,1,2,0:0:0:0:
244,343,36057,2,0,P|242:301|232:260,1,85,8|0,0:0|0:0,0:0:0:0:
80,340,36406,1,2,0:0:0:0:
64,192,36580,1,0,0:0:0:0:
64,192,36668,1,0,0:0:0:0:
64,192,36755,2,0,L|21:198,1,42.5,8|0,0:0|0:0,0:0:0:0:
168,267,36929,2,0,L|210:260,1,42.5,8|0,0:0|0:0,0:0:0:0:
150,114,37104,6,0,B|144:56|100:28|100:28|60:32|54:69,1,170,6|8,0:0|0:0,0:0:0:0:
144,192,37627,1,0,0:0:0:0:
260,88,37801,1,2,0:0:0:0:
316,184,37976,1,4,0:3:0:0:
240,48,38150,1,8,0:0:0:0:
396,96,38325,1,0,0:0:0:0:
240,164,38499,6,0,B|224:216|240:272|240:272|216:288|207:321,1,170,2|8,0:0|0:0,0:0:0:0:
284,336,39022,1,0,0:0:0:0:
152,232,39197,1,2,0:0:0:0:
344,280,39371,1,4,0:3:0:0:
180,224,39545,1,8,0:0:0:0:
348,168,39720,1,0,0:0:0:0:
179,304,39894,6,0,P|110:262|115:181,1,170,2|8,0:0|0:0,0:0:0:0:
184,140,40418,1,0,0:0:0:0:
256,264,40592,1,2,0:0:0:0:
406,216,40766,1,4,0:3:0:0:
344,280,40941,1,8,0:0:0:0:
376,132,41115,1,0,0:0:0:0:
256,264,41290,5,2,0:0:0:0:
384,352,41464,1,4,0:3:0:0:
212,348,41638,2,0,P|172:331|131:324,1,85,12|0,0:0|0:0,0:0:0:0:
256,264,41987,1,0,0:0:0:0:
160,132,42162,1,2,0:0:0:0:
160,132,42249,1,2,0:0:0:0:
160,132,42336,1,8,0:0:0:0:
292,156,42511,1,2,0:0:0:0:
177,244,42685,6,0,L|92:232,1,85,6|0,0:0|0:0,0:0:0:0:
212,348,43034,2,0,P|250:329|274:294,1,85,8|0,0:0|0:0,0:0:0:0:
248,128,43383,2,0,L|257:212,1,85,2|0,0:0|0:0,0:0:0:0:
448,160,43731,2,0,P|406:152|363:153,1,85,8|0,0:0|0:0,0:0:0:0:
176,164,44080,6,0,P|183:83|257:50,1,170,2|8,0:0|0:0,0:0:0:0:
257,50,44604,1,0,0:0:0:0:
92,48,44778,1,2,0:0:0:0:
248,128,44952,1,4,0:3:0:0:
72,151,45127,2,0,P|58:192|56:234,1,85,8|0,0:0|0:0,0:0:0:0:
184,356,45476,5,2,0:0:0:0:
208,248,45650,1,0,0:0:0:0:
92,320,45825,1,8,0:0:0:0:
224,336,45999,1,0,0:0:0:0:
176,176,46173,1,2,0:0:0:0:
304,232,46348,1,0,0:0:0:0:
128,248,46522,2,0,L|44:233,1,85,8|0,0:0|0:0,0:0:0:0:
12,76,46871,6,0,L|179:105,1,170,2|8,0:0|0:0,0:0:0:0:
179,105,47394,1,0,0:0:0:0:
276,184,47569,1,2,0:0:0:0:
276,28,47743,1,4,0:3:0:0:
371,105,47918,2,0,P|413:112|455:105,1,85,8|0,0:0|0:0,0:0:0:0:
488,236,48266,6,0,L|473:319,1,85,6|0,0:0|0:0,0:0:0:0:
352,184,48615,2,0,L|366:267,1,85,8|0,0:0|0:0,0:0:0:0:
216,180,48964,2,0,L|230:96,1,85,2|4,0:0|0:3,0:0:0:0:
109,232,49313,2,0,L|94:148,1,85,8|0,0:0|0:0,0:0:0:0:
236,288,49662,5,2,0:0:0:0:
288,144,49836,1,0,0:0:0:0:
138,171,50011,1,8,0:0:0:0:
220,262,50185,5,0,0:0:0:0:
274,169,50359,1,2,0:0:0:0:
167,170,50534,1,4,0:3:0:0:
327,262,50708,1,8,0:0:0:0:
327,262,51057,6,0,P|377:223|440:218,1,127.5,2|0,0:0|0:0,0:0:0:0:
472,224,51406,2,0,L|468:136,1,85,8|0,0:0|0:0,0:0:0:0:
258,106,51755,1,2,0:0:0:0:
358,182,51929,1,0,0:0:0:0:
226,186,52104,1,8,0:0:0:0:
327,262,52278,1,0,0:0:0:0:
296,136,52452,6,0,L|305:51,1,85,2|0,0:0|0:0,0:0:0:0:
180,84,52801,1,12,0:0:0:0:
260,208,52976,2,0,P|301:216|342:205,1,85,0|2,0:0|0:0,0:0:0:0:
136,188,53325,1,2,0:0:0:0:
93,193,53412,1,4,0:3:0:0:
51,199,53499,1,8,0:0:0:0:
180,292,53673,1,4,0:3:0:0:
228,140,53848,5,6,0:0:0:0:
296,244,54022,1,4,0:3:0:0:
363,75,54197,2,0,P|364:118|350:158,1,85,8|0,0:0|0:0,0:0:0:0:
156,116,54545,1,2,0:0:0:0:
156,116,54633,1,4,0:3:0:0:
156,116,54720,1,4,0:3:0:0:
282,52,54894,2,0,L|363:75,1,85,8|0,0:0|0:0,0:0:0:0:
428,232,55243,5,2,0:0:0:0:
350,158,55418,1,4,0:3:0:0:
222,283,55592,2,0,P|262:270|295:243,1,85,8|0,0:0|0:0,0:0:0:0:
344,344,55941,1,2,0:0:0:0:
344,344,56028,1,4,0:3:0:0:
344,344,56115,1,4,0:3:0:0:
222,283,56290,2,0,P|180:274|139:283,1,85,8|0,0:0|0:0,0:0:0:0:
112,304,56551,1,0,0:0:0:0:
92,332,56638,5,2,0:0:0:0:
184,196,56813,1,4,0:3:0:0:
20,216,56987,2,0,L|104:222,1,85,8|0,0:0|0:0,0:0:0:0:
304,196,57336,1,2,0:0:0:0:
304,196,57423,1,4,0:3:0:0:
304,196,57511,1,4,0:3:0:0:
172,80,57685,2,0,P|167:122|172:164,1,85,8|0,0:0|0:0,0:0:0:0:
184,196,57947,1,0,0:0:0:0:
208,220,58034,5,2,0:0:0:0:
300,68,58208,1,4,0:3:0:0:
96,144,58383,2,0,L|12:128,1,85,12|0,0:0|0:0,0:0:0:0:
172,80,58731,1,8,0:0:0:0:
240,232,58906,1,8,0:0:0:0:
272,240,58993,1,8,0:0:0:0:
303,231,59080,2,0,P|324:229|343:219,1,42.5,8|0,0:0|0:0,0:0:0:0:
436,100,59255,2,0,L|439:142,1,42.5,2|0,0:0|0:0,0:0:0:0:
496,256,59429,6,0,P|448:190|367:197,1,170,6|8,0:0|0:0,0:0:0:0:
240,232,59952,1,0,0:0:0:0:
280,132,60127,2,0,L|296:48,1,85,2|4,0:0|0:3,0:0:0:0:
132,176,60476,2,0,L|116:92,1,85,8|0,0:0|0:0,0:0:0:0:
256,303,60825,6,0,P|312:247|283:172,1,170,2|8,0:0|0:0,0:0:0:0:
36,224,61348,1,0,0:0:0:0:
157,252,61522,2,0,L|253:228,1,85,2|4,0:0|0:3,0:0:0:0:
464,319,61871,2,0,P|403:326|364:278,1,127.5,8|0,0:0|0:0,0:0:0:0:
360,256,62220,6,0,L|352:171,1,85,2|0,0:0|0:0,0:0:0:0:
464,128,62569,2,0,L|471:212,1,85,8|0,0:0|0:0,0:0:0:0:
288,152,62918,1,2,0:0:0:0:
396,84,63092,1,4,0:3:0:0:
272,64,63266,2,0,P|224:68|176:60,1,85,8|0,0:0|0:0,0:0:0:0:
32,32,63615,6,0,B|56:68|56:68|40:200,1,170,2|8,0:0|0:0,0:0:0:0:
160,148,64138,1,0,0:0:0:0:
48,284,64313,1,2,0:0:0:0:
248,232,64487,1,4,0:3:0:0:
83,293,64662,1,12,0:0:0:0:
108,318,65011,6,0,B|128:288|116:252|116:252|172:264|216:250,1,170,6|8,0:0|0:0,0:0:0:0:
344,180,65534,1,0,0:0:0:0:
216,144,65708,1,2,0:0:0:0:
368,96,65883,1,4,0:3:0:0:
420,248,66057,1,8,0:0:0:0:
292,120,66231,1,0,0:0:0:0:
424,168,66406,5,2,0:0:0:0:
340,260,66580,1,4,0:3:0:0:
306,36,66755,2,0,L|292:120,1,85,12|0,0:0|0:0,0:0:0:0:
200,288,67104,2,0,L|217:341,2,56.6666666666667,0|0|8,0:0|0:0|0:0,0:0:0:0:
144,160,67452,2,0,L|161:106,2,56.6666666666667,8|2|2,0:0|0:0|0:0,0:0:0:0:
26,244,67801,6,0,L|153:232,1,127.500004863739,0|2,0:0|0:0,0:0:0:0:
228,148,68325,1,0,0:0:0:0:
228,148,68499,2,0,L|291:153,1,63.7500024318696,8|0,0:0|0:0,0:0:0:0:
360,216,68848,1,2,0:0:0:0:
440,132,69022,1,0,0:0:0:0:
440,132,69109,1,0,0:0:0:0:
440,132,69197,5,2,0:0:0:0:
300,96,69371,1,4,0:3:0:0:
440,212,69545,1,2,0:0:0:0:
200,360,69894,2,0,P|192:297|206:235,1,127.500004863739,8|2,0:0|0:0,0:0:0:0:
116,168,70592,6,0,L|52:161,1,63.7500024318696,4|0,0:0|0:0,0:0:0:0:
396,168,71290,2,0,L|459:161,1,63.7500024318696,4|0,0:0|0:0,0:0:0:0:
208,56,71987,6,0,L|197:140,1,85,12|0,0:0|0:0,0:0:0:0:
304,328,72336,2,0,L|317:222,1,106.25,12|0,0:0|0:0,0:0:0:0:
304,136,72685,1,2,0:0:0:0:
168,240,72859,1,4,0:3:0:0:
168,240,72947,1,4,0:3:0:0:
168,240,73034,1,4,0:3:0:0:
272,236,73208,1,2,0:0:0:0:
80,104,73383,5,6,0:0:0:0:
220,172,73557,1,0,0:0:0:0:
164,72,73731,1,8,0:0:0:0:
168,240,73906,1,0,0:0:0:0:
300,180,74080,5,8,0:0:0:0:
136,160,74255,1,0,0:0:0:0:
325,183,74429,1,8,0:0:0:0:
109,156,74604,1,0,0:0:0:0:
238,335,74778,6,0,P|247:252|220:172,1,170,12|8,0:0|0:0,0:0:0:0:
296,72,75301,1,4,0:3:0:0:
416,108,75476,2,0,L|500:101,1,85,8|0,0:0|0:0,0:0:0:0:
316,182,75825,1,8,0:0:0:0:
432,296,75999,2,0,L|420:252,1,42.5,8|8,0:0|0:0,0:0:0:0:
336,276,76173,6,0,L|273:285,1,63.7500024318696,2|0,0:2|0:0,0:0:0:0:
160,324,76522,2,0,L|182:264,1,63.7500024318696,2|0,0:0|0:0,0:0:0:0:
206,147,76871,2,0,L|246:196,1,63.7500024318696,2|0,0:2|0:0,0:0:0:0:
103,151,77220,5,2,0:1:0:0:
109,110,77307,1,2,0:1:0:0:
131,74,77394,1,2,0:1:0:0:
166,50,77481,1,2,0:1:0:0:
206,42,77569,6,0,P|248:63|294:70,1,93.5000028533936,12|0,0:0|0:0,0:0:0:0:
464,128,77918,2,0,P|419:142|382:170,1,93.5000028533936,8|0,0:0|0:0,0:0:0:0:
193,239,78266,2,0,L|205:146,1,93.5000028533936,8|4,0:0|0:3,0:0:0:0:
294,70,78615,1,8,0:0:0:0:
382,170,78790,1,0,0:0:0:0:
205,146,78964,6,0,P|158:148|120:174,1,93.5000028533936,8|0,0:0|0:0,0:0:0:0:
60,344,79313,2,0,P|64:297|52:252,1,93.5000028533936,8|0,0:0|0:0,0:0:0:0:
193,239,79662,2,0,L|301:231,1,93.5000028533936,8|4,0:0|0:3,0:0:0:0:
136,80,80011,1,8,0:0:0:0:
300,156,80185,1,0,0:0:0:0:
131,207,80359,5,8,0:0:0:0:
183,377,80534,1,0,0:0:0:0:
205,146,80708,1,8,0:0:0:0:
122,303,80883,1,0,0:0:0:0:
300,156,81057,2,0,P|346:161|390:176,1,93.5000028533936,8|4,0:0|0:3,0:0:0:0:
456,328,81406,2,0,P|409:322|365:307,1,93.5000028533936,8|0,0:0|0:0,0:0:0:0:
440,124,81755,6,0,P|461:187|422:242,1,140.25000428009,8|0,0:0|0:0,0:0:0:0:
365,307,82104,2,0,P|304:276|235:283,1,140.25000428009,8|0,0:0|0:0,0:0:0:0:
152,304,82452,2,0,L|15:272,1,140.25000428009,8|0,0:0|0:0,0:0:0:0:
92,236,82801,2,0,L|183:215,1,93.5000028533936,8|0,0:0|0:0,0:0:0:0:
44,48,83150,6,0,P|40:100|48:152,1,93.5000028533936,12|0,0:0|0:0,0:0:0:0:
260,112,83499,2,0,L|167:100,1,93.5000028533936,8|0,0:0|0:0,0:0:0:0:
92,236,83848,2,0,L|231:252,1,140.25000428009,8|0,0:0|0:0,0:0:0:0:
260,256,84197,1,8,0:0:0:0:
400,168,84371,1,0,0:0:0:0:
388,348,84545,6,0,P|367:306|364:260,1,93.5000028533936,8|0,0:0|0:0,0:0:0:0:
424,92,84894,1,8,0:0:0:0:
480,276,85069,1,0,0:0:0:0:
292,232,85243,2,0,P|246:220|200:222,1,93.5000028533936,8|4,0:0|0:3,0:0:0:0:
236,328,85592,1,8,0:0:0:0:
256,144,85766,1,0,0:0:0:0:
140,148,85941,5,8,0:0:0:0:
260,56,86115,1,0,0:0:0:0:
200,204,86290,1,8,0:0:0:0:
68,188,86464,1,0,0:0:0:0:
68,188,86551,1,4,0:3:0:0:
68,188,86638,1,8,0:0:0:0:
256,144,86813,1,0,0:0:0:0:
200,328,86987,2,0,P|184:284|187:237,1,93.5000028533936,8|0,0:0|0:0,0:0:0:0:
200,204,87249,1,0,0:0:0:0:
200,204,87336,5,8,0:0:0:0:
316,264,87511,1,0,0:0:0:0:
176,120,87685,2,0,P|104:124|68:140,1,93.5000028533936,12|0,0:0|0:0,0:0:0:0:
324,188,88034,2,0,L|327:94,1,93.5000028533936,8|0,0:0|0:0,0:0:0:0:
444,60,88383,2,0,L|440:153,1,93.5000028533936,8|0,0:0|0:0,0:0:0:0:
476,293,88731,6,0,P|400:258|317:263,1,170,6|8,0:0|0:0,0:0:0:0:
332,152,89255,1,0,0:0:0:0:
228,204,89429,2,0,P|216:163|221:121,1,85,2|4,0:0|0:3,0:0:0:0:
116,216,89778,2,0,P|127:256|122:298,1,85,8|0,0:0|0:0,0:0:0:0:
8,144,90127,6,0,L|91:130,1,85,2|0,0:0|0:0,0:0:0:0:
208,276,90476,2,0,L|291:289,1,85,8|0,0:0|0:0,0:0:0:0:
176,128,90825,2,0,L|165:43,1,85,2|4,0:0|0:3,0:0:0:0:
321,67,91173,2,0,L|331:151,1,85,8|0,0:0|0:0,0:0:0:0:
208,276,91522,6,0,B|228:216|288:215|288:215|316:232|348:225,1,170,12|2,0:0|0:0,0:0:0:0:
436,172,92045,1,2,0:0:0:0:
256,144,92220,1,4,0:3:0:0:
322,314,92394,1,4,0:3:0:0:
356,121,92569,1,4,0:3:0:0:
172,188,92743,1,4,0:3:0:0:
348,230,92918,5,2,0:0:0:0:
368,226,93005,1,2,0:0:0:0:
389,222,93092,1,2,0:0:0:0:
410,219,93179,1,2,0:0:0:0:
432,214,93266,2,0,L|435:171,1,42.5,8|0,0:0|0:0,0:0:0:0:
360,78,93441,2,0,L|356:120,1,42.5,8|0,0:0|0:0,0:0:0:0:
225,190,93615,5,8,0:0:0:0:
172,188,93702,1,8,0:0:0:0:
124,165,93790,1,8,0:0:0:0:
91,124,93877,1,8,0:0:0:0:
77,73,93964,5,2,0:0:0:0:
72,93,94051,1,0,0:0:0:0:
67,114,94138,1,2,0:0:0:0:
62,134,94226,1,0,0:0:0:0:
57,155,94313,6,0,L|141:147,1,85,12|0,0:0|0:0,0:0:0:0:
256,324,94662,2,0,L|172:332,1,85,8|0,0:0|0:0,0:0:0:0:
225,137,95011,2,0,L|309:129,1,85,8|4,0:0|0:3,0:0:0:0:
424,306,95359,2,0,L|340:314,1,85,8|2,0:0|0:0,0:0:0:0:
184,204,95708,6,0,P|156:171|147:130,1,85,8|0,0:0|0:0,0:0:0:0:
453,246,96057,2,0,P|417:268|376:272,1,85,8|0,0:0|0:0,0:0:0:0:
58,246,96406,2,0,P|94:268|136:272,1,85,8|4,0:0|0:3,0:0:0:0:
364,130,96755,2,0,P|355:171|327:204,1,85,8|2,0:0|0:0,0:0:0:0:
147,130,97104,6,0,L|62:140,1,85,12|0,0:0|0:0,0:0:0:0:
136,272,97452,1,2,0:0:0:0:
155,263,97540,1,2,0:0:0:0:
176,260,97627,1,2,0:0:0:0:
197,261,97714,1,2,0:0:0:0:
217,267,97801,1,8,0:0:0:0:
264,168,97976,1,2,0:0:0:0:
264,168,98063,1,2,0:0:0:0:
264,168,98150,1,8,0:0:0:0:
308,328,98325,1,4,0:3:0:0:
308,328,98412,1,4,0:3:0:0:
308,328,98499,6,0,P|349:336|391:331,1,85,12|0,0:0|0:0,0:0:0:0:
476,152,98848,2,0,P|424:140|371:144,1,106.25,12|0,0:0|0:0,0:0:0:0:
184,192,99197,6,0,L|177:149,2,42.5000016212464,2|2|2,0:0|0:0|0:0,0:0:0:0:
112,288,99545,2,0,L|105:330,2,42.5000016212464,2|2|2,0:0|0:0|0:0,0:0:0:0:
40,192,99894,1,6,0:0:0:0:
132,332,111057,6,0,P|132:249|196:199,1,170,6|8,0:0|0:0,0:0:0:0:
308,152,111580,1,0,0:0:0:0:
308,152,111668,1,0,0:0:0:0:
308,152,111755,2,0,L|274:125,1,42.5,2|8,0:0|0:0,0:0:0:0:
168,84,111929,1,4,0:3:0:0:
196,199,112104,1,8,0:0:0:0:
64,128,112278,1,0,0:0:0:0:
64,128,112365,1,0,0:0:0:0:
64,128,112452,6,0,L|56:212,1,85,2|0,0:0|0:0,0:0:0:0:
56,327,112801,2,0,P|92:307|134:306,1,85,8|0,0:0|0:0,0:0:0:0:
152,320,113063,1,0,0:0:0:0:
168,336,113150,2,0,P|188:342|209:344,1,42.5,2|8,0:0|0:0,0:0:0:0:
324,316,113325,1,4,0:3:0:0:
204,272,113499,1,8,0:0:0:0:
359,251,113673,1,0,0:0:0:0:
359,251,113761,1,0,0:0:0:0:
359,251,113848,6,0,P|401:247|443:252,1,85,2|0,0:0|0:0,0:0:0:0:
456,92,114197,2,0,L|469:175,1,85,8|0,0:0|0:0,0:0:0:0:
299,178,114545,1,8,0:0:0:0:
256,179,114633,1,4,0:3:0:0:
215,168,114720,1,4,0:3:0:0:
352,84,114894,2,0,L|363:43,1,42.5,12|0,0:0|0:0,0:0:0:0:
370,210,115069,2,0,L|358:250,1,42.5,4|0,0:0|0:0,0:0:0:0:
268,80,115243,5,2,0:0:0:0:
120,120,115418,1,4,0:3:0:0:
202,249,115592,1,8,0:0:0:0:
68,211,115766,1,8,0:0:0:0:
56,252,115854,1,8,0:0:0:0:
63,294,115941,1,8,0:0:0:0:
88,328,116028,1,2,0:0:0:0:
124,349,116115,1,2,0:0:0:0:
166,351,116202,1,2,0:0:0:0:
206,336,116290,5,4,0:3:0:0:
244,356,116377,1,0,0:0:0:0:
276,328,116464,1,0,0:0:0:0:
313,347,116551,1,0,0:0:0:0:
345,319,116638,6,0,L|428:333,1,85,6|0,0:0|0:0,0:0:0:0:
484,224,116987,1,8,0:0:0:0:
304,240,117162,1,0,0:0:0:0:
384,120,117336,2,0,L|399:203,1,85,2|4,0:0|0:3,0:0:0:0:
228,88,117685,2,0,L|212:171,1,85,8|0,0:0|0:0,0:0:0:0:
453,56,118034,6,0,L|483:223,1,170,2|8,0:0|0:0,0:0:0:0:
304,240,118557,1,0,0:0:0:0:
384,120,118731,1,2,0:0:0:0:
368,304,118906,1,4,0:3:0:0:
308,156,119080,2,0,B|280:140|280:140|185:147,1,127.5,8|0,0:0|0:0,0:0:0:0:
156,156,119429,6,0,P|118:136|87:107,1,85,2|0,0:0|0:0,0:0:0:0:
64,248,119778,2,0,P|77:288|77:330,1,85,8|0,0:0|0:0,0:0:0:0:
32,168,120127,1,2,0:0:0:0:
144,236,120301,1,4,0:3:0:0:
252,160,120476,2,0,L|262:75,1,85,8|0,0:0|0:0,0:0:0:0:
316,240,120825,6,0,P|244:197|163:213,1,170,2|8,0:0|0:0,0:0:0:0:
163,213,121348,1,0,0:0:0:0:
340,156,121522,1,2,0:0:0:0:
228,296,121697,1,4,0:3:0:0:
64,220,121871,1,8,0:0:0:0:
64,220,122220,6,0,B|60:136|60:136|122:77,1,170,6|8,0:0|0:0,0:0:0:0:
232,88,122743,1,0,0:0:0:0:
245,204,122918,2,0,P|204:216|162:212,1,85,2|4,0:0|0:3,0:0:0:0:
348,264,123266,2,0,P|388:251|430:255,1,85,8|0,0:0|0:0,0:0:0:0:
244,324,123615,5,2,0:0:0:0:
348,140,123790,1,0,0:0:0:0:
244,204,123964,2,0,P|239:161|242:119,1,85,12|0,0:0|0:0,0:0:0:0:
428,47,124313,2,0,P|456:47|483:55,2,56.6666666666667,2|2|2,0:0|0:0|0:0,0:0:0:0:
344,60,124662,2,0,P|315:60|288:52,2,56.6666666666667,2|2|2,0:0|0:0|0:0,0:0:0:0:
396,128,125011,6,0,P|388:190|357:246,1,127.500004863739,6|2,0:0|0:0,0:0:0:0:
256,276,125534,1,0,0:0:0:0:
256,276,125708,2,0,L|193:262,1,63.7500024318696,8|0,0:0|0:0,0:0:0:0:
96,220,126057,1,2,0:3:0:0:
108,328,126231,1,0,0:0:0:0:
108,328,126406,6,0,P|139:337|171:337,1,63.7500024318696,0|4,0:0|0:3,0:0:0:0:
256,276,126755,1,2,0:0:0:0:
272,172,126929,1,0,0:0:0:0:
363,342,127104,2,0,B|404:348|404:348|444:336|455:283,1,127.500004863739,8|0,0:0|0:0,0:0:0:0:
380,92,127801,6,0,L|370:155,1,63.7500024318696,8|4,1:2|0:3,0:0:0:0:
196,156,128325,1,2,0:0:0:0:
196,156,128499,2,0,L|205:219,1,63.7500024318696,8|0,1:2|0:0,0:0:0:0:
272,272,128848,2,0,L|262:335,1,63.7500024318696,2|0,0:0|0:0,0:0:0:0:
135,328,129197,6,0,P|83:331|37:305,1,106.25,12|0,0:0|0:0,0:0:0:0:
24,232,129458,1,0,0:0:0:0:
44,212,129545,2,0,P|65:163|69:110,1,106.25,12|0,0:0|0:0,0:0:0:0:
164,40,129894,1,12,0:0:0:0:
263,183,130069,1,2,0:0:0:0:
298,188,130156,1,2,0:0:0:0:
333,184,130243,1,10,0:0:0:0:
366,171,130330,1,2,0:0:0:0:
394,149,130418,1,2,0:0:0:0:
415,121,130505,1,2,0:0:0:0:
428,88,130592,6,0,L|454:169,1,85,12|4,0:0|0:3,0:0:0:0:
308,64,130941,2,0,P|266:55|225:63,1,85,8|4,0:0|0:3,0:0:0:0:
156,200,131290,1,8,0:0:0:0:
96,88,131464,1,4,0:3:0:0:
88,280,131638,1,8,0:0:0:0:
225,62,131813,1,4,0:3:0:0:
32,232,131987,6,0,L|200:251,1,170,12|8,0:0|0:0,0:0:0:0:
384,312,132511,1,2,0:0:0:0:
365,322,132598,1,2,0:0:0:0:
345,327,132685,1,8,0:0:0:0:
284,220,132859,1,4,0:3:0:0:
287,177,132947,1,4,0:3:0:0:
290,135,133034,2,0,L|283:93,1,42.5,8|0,0:0|0:0,0:0:0:0:
180,116,133208,2,0,L|172:74,1,42.5,8|0,0:0|0:0,0:0:0:0:
69,96,133383,6,0,L|61:54,2,42.5,2|0|0,0:0|0:0|0:0,0:0:0:0:
112,224,133906,2,0,L|119:182,2,42.5,2|0|0,0:0|0:0|0:0,0:0:0:0:
69,351,134429,5,2,0:1:0:0:
106,331,134516,1,2,0:1:0:0:
146,318,134604,1,2,0:1:0:0:
188,313,134691,1,2,0:1:0:0:
230,317,134778,6,0,P|277:324|323:319,1,93.5000028533936,12|0,0:0|0:0,0:0:0:0:
244,144,135127,2,0,P|214:181|195:223,1,93.5000028533936,8|0,0:0|0:0,0:0:0:0:
386,242,135476,2,0,P|368:197|341:160,1,93.5000028533936,8|4,0:0|0:3,0:0:0:0:
152,112,135825,1,8,0:0:0:0:
308,56,135999,1,0,0:0:0:0:
276,248,136173,6,0,B|216:216|160:244|160:244|97:222,1,187.000005706787,8|8,0:0|0:0,0:0:0:0:
44,128,136697,1,0,0:0:0:0:
219,156,136871,2,0,P|232:111|217:67,1,93.5000028533936,8|4,0:0|0:3,0:0:0:0:
97,222,137220,1,8,0:0:0:0:
204,228,137394,1,0,0:0:0:0:
152,112,137569,5,8,0:0:0:0:
304,212,137743,1,0,0:0:0:0:
141,293,137918,1,8,0:0:0:0:
280,88,138092,1,0,0:0:0:0:
113,203,138266,2,0,L|203:226,1,93.5000028533936,8|4,0:0|0:3,0:0:0:0:
272,312,138615,1,8,0:0:0:0:
316,168,138790,1,0,0:0:0:0:
395,251,138964,6,0,P|429:190|422:121,1,140.25000428009,8|0,0:0|0:0,0:0:0:0:
352,72,139313,2,0,B|332:64|304:62|304:62|263:42|263:42|240:42|218:33,1,140.25000428009,8|0,0:0|0:0,0:0:0:0:
163,95,139662,2,0,P|228:117|285:80,1,140.25000428009,8|0,0:0|0:0,0:0:0:0:
332,152,140011,2,0,L|322:244,1,93.5000028533936,8|0,0:0|0:0,0:0:0:0:
180,322,140359,6,0,P|225:311|271:311,1,93.5000028533936,12|0,0:0|0:0,0:0:0:0:
128,240,140708,2,0,P|82:250|36:250,1,93.5000028533936,8|0,0:0|0:0,0:0:0:0:
224,88,141057,2,0,L|208:227,1,140.25000428009,8|0,0:0|0:0,0:0:0:0:
208,248,141406,1,8,0:0:0:0:
332,152,141580,1,0,0:0:0:0:
152,72,141755,6,0,L|141:164,1,93.5000028533936,8|0,0:0|0:0,0:0:0:0:
44,340,142104,1,8,0:0:0:0:
40,184,142278,1,0,0:0:0:0:
208,248,142452,2,0,L|301:240,1,93.5000028533936,8|0,0:0|0:0,0:0:0:0:
332,152,142801,1,8,0:0:0:0:
264,336,142976,1,4,0:3:0:0:
441,251,143150,6,0,L|301:240,1,140.25000428009,12|0,0:0|0:0,0:0:0:0:
280,240,143499,1,8,0:0:0:0:
212,136,143673,1,2,0:0:0:0:
212,136,143761,1,2,0:0:0:0:
212,136,143848,1,8,0:0:0:0:
88,156,144022,1,2,0:0:0:0:
88,156,144109,1,2,0:0:0:0:
88,156,144197,2,0,L|80:202,1,46.7500014266968,8|0,0:0|0:0,0:0:0:0:
148,310,144371,2,0,L|156:264,1,46.7500014266968
212,136,144545,6,0,P|258:145|305:140,1,93.5000028533936,12|0,0:0|0:0,0:0:0:0:
448,96,144894,1,12,0:0:0:0:
264,28,145069,1,4,0:3:0:0:
404,208,145243,2,0,L|393:300,1,93.5000028533936,8|0,0:0|0:0,0:0:0:0:
320,336,145505,1,0,0:0:0:0:
311,311,145592,2,0,P|272:288|226:282,1,93.5000028533936,2|0,0:3|0:0,0:0:0:0:
68,336,145941,5,6,0:0:0:0:
172,148,146290,1,0,0:0:0:0:
116,216,146464,1,0,0:0:0:0:
85,133,146638,1,2,0:0:0:0:
252,249,146987,1,2,0:0:0:0:
403,67,147336,2,0,P|421:128|415:191,1,127.500004863739,2|0,0:0|0:0,0:0:0:0:
252,249,148034,2,0,P|234:188|240:125,1,127.500004863739,2|0,0:0|0:0,0:0:0:0:
408,284,148731,5,6,0:0:0:0:
320,141,149080,1,0,0:0:0:0:
240,125,149255,1,0,0:0:0:0:
160,109,149429,1,2,0:0:0:0:
400,157,149778,1,2,0:0:0:0:
144,260,150127,5,2,0:0:0:0:
224,276,150476,1,0,0:0:0:0:
64,244,150825,1,2,0:0:0:0:
304,292,151173,1,0,0:0:0:0:
268,80,151522,6,0,P|186:116|193:205,1,191.250007295609,2|0,0:0|0:0,0:0:0:0:
252,156,152220,2,0,L|344:179,2,95.6250036478044,2|2|2,0:0|0:0|0:0,0:0:0:0:
144,124,152918,6,0,P|88:93|25:93,2,127.5,6|4|4,0:0|0:3|0:3,0:0:0:0:
168,248,153615,1,8,0:0:0:0:
252,156,153790,1,0,0:0:0:0:
219,312,153964,1,8,0:0:0:0:
181,329,154051,1,8,0:0:0:0:
139,325,154138,1,8,0:0:0:0:
105,301,154226,1,8,0:0:0:0:
87,263,154313,6,0,L|103:93,1,170,12|8,0:0|0:0,0:0:0:0:
216,180,154836,1,0,0:0:0:0:
252,44,155011,2,0,P|294:40|336:45,1,85,8|0,0:0|0:0,0:0:0:0:
192,188,155359,2,0,P|149:191|107:186,1,85,8|0,0:0|0:0,0:0:0:0:
211,304,155708,6,0,P|269:280|324:306,1,127.5,8|0,0:0|0:0,0:0:0:0:
352,328,156057,2,0,L|364:243,1,85,8|0,0:0|0:0,0:0:0:0:
404,88,156406,1,8,0:0:0:0:
448,208,156580,1,0,0:0:0:0:
412,64,156755,1,8,0:0:0:0:
308,172,156929,1,4,0:3:0:0:
475,132,157104,6,0,P|392:131|327:79,1,170,12|8,0:0|0:0,0:0:0:0:
216,52,157627,1,0,0:0:0:0:
92,84,157801,2,0,L|95:168,1,85,8|0,0:0|0:0,0:0:0:0:
224,176,158150,2,0,L|220:260,1,85,8|0,0:0|0:0,0:0:0:0:
39,268,158499,6,0,P|81:259|123:262,1,85,8|0,0:0|0:0,0:0:0:0:
268,348,158848,2,0,P|226:356|184:353,1,85,8|0,0:0|0:0,0:0:0:0:
140,181,159197,2,0,P|181:172|223:175,1,85,8|0,0:0|0:0,0:0:0:0:
369,261,159546,2,0,P|327:269|285:266,1,85,8|0,0:0|0:0,0:0:0:0:
320,176,159894,6,0,L|337:49,1,127.5,12|0,0:0|0:0,0:0:0:0:
312,40,160243,2,0,L|396:32,1,85,8|0,0:0|0:0,0:0:0:0:
396,188,160592,1,8,0:0:0:0:
276,108,160766,1,0,0:0:0:0:
275,280,160941,2,0,P|296:242|302:200,1,85,8|0,0:0|0:0,0:0:0:0:
192,208,161290,6,0,L|65:222,1,127.5,12|0,0:0|0:0,0:0:0:0:
40,236,161638,2,0,P|51:276|48:319,1,85,8|0,0:0|0:0,0:0:0:0:
120,144,161987,2,0,P|108:103|111:60,1,85,8|0,0:0|0:0,0:0:0:0:
216,88,162336,1,8,0:0:0:0:
44,160,162511,1,0,0:0:0:0:
152,308,162685,5,12,0:0:0:0:
192,208,162859,1,4,0:3:0:0:
268,328,163034,2,0,L|352:315,1,85,8|0,0:0|0:0,0:0:0:0:
487,160,163383,2,0,P|426:168|387:217,1,127.5,8|4,0:0|0:3,0:0:0:0:
376,232,163731,2,0,L|291:244,1,85,8|0,0:0|0:0,0:0:0:0:
252,256,163993,1,4,0:3:0:0:
252,256,164080,6,0,L|263:171,1,85,12|0,0:0|0:0,0:0:0:0:
128,332,164429,2,0,L|116:247,1,85,8|0,0:0|0:0,0:0:0:0:
328,308,164778,1,8,0:0:0:0:
328,308,164865,1,0,0:0:0:0:
328,308,164952,1,0,0:0:0:0:
184,224,165127,1,12,0:0:0:0:
166,185,165214,1,8,0:0:0:0:
162,143,165301,1,8,0:0:0:0:
174,102,165388,1,8,0:0:0:0:
199,68,165476,6,0,L|368:86,1,170,12|8,0:0|0:0,0:0:0:0:
447,243,166173,2,0,P|448:286|439:327,1,85,8|0,0:0|0:0,0:0:0:0:
328,308,166522,2,0,P|327:265|336:224,1,85,8|0,0:0|0:0,0:0:0:0:
408,136,166871,5,8,0:0:0:0:
200,220,167220,2,0,L|115:227,2,85,8|0|8,0:0|0:0|0:0,0:0:0:0:
284,164,167743,1,0,0:0:0:0:
284,164,167918,2,0,L|290:79,1,85,8|0,0:0|0:0,0:0:0:0:
121,62,168266,6,0,B|104:89|104:89|115:227,1,170,8|8,0:0|0:0,0:0:0:0:
280,272,168790,1,0,0:0:0:0:
184,320,168964,2,0,P|141:314|99:318,1,85,8|0,0:0|0:0,0:0:0:0:
272,376,169313,1,8,0:0:0:0:
352,200,169662,6,0,L|436:212,1,85,8|0,0:0|0:0,0:0:0:0:
160,128,170011,2,0,L|76:140,1,85,8|0,0:0|0:0,0:0:0:0:
352,56,170359,1,8,0:0:0:0:
206,198,170534,1,0,0:0:0:0:
352,56,170708,1,8,0:0:0:0:
276,264,170883,1,0,0:0:0:0:
232,96,171057,6,0,P|204:64|164:51,1,85,12|0,0:0|0:0,0:0:0:0:
204,240,171406,1,8,0:0:0:0:
328,116,171580,6,0,P|330:74|312:36,1,85,0|8,0:0|0:0,0:0:0:0:
206,198,171929,1,0,0:0:0:0:
381,198,172104,6,0,P|412:170|425:130,1,85,8|0,0:0|0:0,0:0:0:0:
237,169,172453,1,12,0:0:0:0:
351,335,172801,6,0,P|269:320|187:341,1,170,8|8,0:0|0:0,0:0:0:0:
88,280,173325,1,0,0:0:0:0:
88,280,173412,1,0,0:0:0:0:
88,280,173499,2,0,L|92:196,1,85,8|0,0:0|0:0,0:0:0:0:
48,80,173848,6,0,B|112:68|112:68|160:96|212:67,1,170,8|8,0:0|0:0,0:0:0:0:
337,68,174371,1,0,0:0:0:0:
339,98,174458,1,0,0:0:0:0:
342,128,174545,6,0,L|324:211,1,85,8|0,0:0|0:0,0:0:0:0:
336,226,174807,1,0,0:0:0:0:
349,241,174894,1,0,0:0:0:0:
183,334,175069,2,0,L|223:321,1,42.5,2|0,0:0|0:0,0:0:0:0:
264,308,175243,6,0,L|182:284,1,85,12|0,0:0|0:0,0:0:0:0:
168,272,175505,1,0,0:0:0:0:
156,256,175592,1,12,0:0:0:0:
104,128,175766,1,0,0:0:0:0:
268,136,175941,6,0,L|310:130,2,42.5,6|4|4,0:0|0:3|0:3,0:0:0:0:
192,168,176290,2,0,P|186:106|229:62,1,127.500004863739,4|2,0:3|0:0,0:0:0:0:
120,148,187801,6,0,P|70:136|20:141,1,101.999996887207,12|0,0:0|0:0,0:0:0:0:
199,235,188150,2,0,P|228:193|237:143,1,101.999996887207,8|0,0:0|0:0,0:0:0:0:
63,243,188499,2,0,L|67:363,1,101.999996887207,8|4,0:0|0:3,0:0:0:0:
263,327,188848,1,8,0:0:0:0:
139,291,189022,1,0,0:0:0:0:
237,143,189197,6,0,L|338:139,1,101.999996887207,8|0,0:0|0:0,0:0:0:0:
327,255,189545,1,8,0:0:0:0:
215,67,189720,1,0,0:0:0:0:
407,107,189894,2,0,P|415:156|389:198,1,101.999996887207,8|4,0:0|0:3,0:0:0:0:
240,244,190243,1,8,0:0:0:0:
384,352,190418,1,0,0:0:0:0:
338,139,190592,5,8,0:0:0:0:
492,200,190766,1,0,0:0:0:0:
344,64,190941,1,8,0:0:0:0:
327,255,191115,1,0,0:0:0:0:
160,172,191290,2,0,L|261:161,1,101.999996887207,8|4,0:0|0:3,0:0:0:0:
44,116,191638,1,8,0:0:0:0:
156,32,191813,1,0,0:0:0:0:
72,204,191987,6,0,P|73:254|87:303,1,101.999996887207,8|0,0:0|0:0,0:0:0:0:
208,144,192336,2,0,P|183:188|171:238,1,101.999996887207,8|0,0:0|0:0,0:0:0:0:
355,160,192685,1,8,0:0:0:0:
276,264,192859,1,4,0:3:0:0:
372,147,193034,2,0,P|392:77|346:18,1,152.999995330811,8|0,0:0|0:0,0:0:0:0:
312,92,193383,6,0,L|302:193,1,101.999996887207,12|0,0:0|0:0,0:0:0:0:
452,340,193731,2,0,P|408:314|358:310,1,101.999996887207,8|0,0:0|0:0,0:0:0:0:
176,280,194080,1,8,0:0:0:0:
302,193,194255,1,4,0:3:0:0:
314,345,194429,1,8,0:0:0:0:
196,256,194604,1,0,0:0:0:0:
384,228,194778,5,8,0:0:0:0:
204,148,194952,1,0,0:0:0:0:
434,165,195127,1,8,0:0:0:0:
196,68,195301,1,0,0:0:0:0:
484,102,195476,2,0,L|473:203,1,101.999996887207,8|4,0:0|0:3,0:0:0:0:
412,328,195825,1,8,0:0:0:0:
300,256,195999,1,0,0:0:0:0:
200,304,196173,6,0,L|133:289,1,68,4|0,0:2|0:0,0:0:0:0:
44,232,196522,1,8,0:3:0:0:
112,152,196697,1,0,0:0:0:0:
112,152,196784,1,0,0:0:0:0:
112,151,196871,2,0,P|119:118|118:84,1,68,2|0,0:3|0:0,0:0:0:0:
28,108,197220,1,8,0:2:0:0:
212,124,197394,1,4,0:0:0:0:
124,232,197569,6,0,P|137:280|179:306,1,102,6|4,0:2|0:0,0:0:0:0:
200,304,197918,2,0,L|267:295,1,68,8|0,0:2|0:0,0:0:0:0:
400,300,198266,5,2,0:0:0:0:
396,325,198353,1,2,0:0:0:0:
393,350,198440,1,2,0:0:0:0:
340,240,198615,1,8,0:0:0:0:
334,195,198702,1,8,0:0:0:0:
328,152,198790,1,8,0:0:0:0:
321,105,198877,1,8,0:0:0:0:
314,60,198964,6,0,L|212:48,1,101.999996887207,12|0,0:0|0:0,0:0:0:0:
56,192,199313,2,0,P|106:191|156:180,1,101.999996887207,8|0,0:0|0:0,0:0:0:0:
88,72,199662,1,8,0:0:0:0:
248,208,199836,1,4,0:3:0:0:
96,320,200011,1,8,0:0:0:0:
176,136,200185,1,2,0:0:0:0:
176,136,200272,1,2,0:0:0:0:
176,135,200359,6,0,P|221:114|272:109,1,101.999996887207,8|0,0:0|0:0,0:0:0:0:
400,276,200708,1,8,0:0:0:0:
348,32,200883,1,0,0:0:0:0:
476,160,201057,1,8,0:0:0:0:
328,232,201231,1,2,0:0:0:0:
328,232,201319,1,2,0:0:0:0:
328,232,201406,1,8,0:0:0:0:
272,110,201580,1,0,0:0:0:0:
400,276,201755,6,0,P|362:309|312:314,1,101.999996887207,12|0,0:0|0:0,0:0:0:0:
144,200,202104,2,0,L|125:300,1,101.999996887207,8|0,0:0|0:0,0:0:0:0:
328,232,202452,1,8,0:0:0:0:
192,128,202627,1,4,0:3:0:0:
376,176,202801,2,0,L|476:161,1,101.999996887207,8|0,0:0|0:0,0:0:0:0:
372,72,203150,5,8,0:0:0:0:
275,211,203325,1,2,0:0:0:0:
275,211,203412,1,2,0:0:0:0:
275,211,203499,2,0,L|271:109,1,101.999996887207,8|0,0:0|0:0,0:0:0:0:
84,184,203848,1,8,0:0:0:0:
181,323,204023,1,2,0:0:0:0:
181,323,204110,1,2,0:0:0:0:
181,323,204197,2,0,L|184:221,1,101.999996887207,8|0,0:0|0:0,0:0:0:0:
184,87,204545,6,0,P|133:93|82:88,1,101.999996887207,12|0,0:0|0:0,0:0:0:0:
280,112,204894,2,0,P|330:106|381:111,1,101.999996887207,8|0,0:0|0:0,0:0:0:0:
204,200,205243,1,8,0:0:0:0:
324,312,205418,1,2,0:0:0:0:
324,312,205505,1,2,0:0:0:0:
324,312,205592,2,0,L|330:210,1,101.999996887207,8|0,0:0|0:0,0:0:0:0:
104,212,205941,5,8,0:0:0:0:
280,112,206115,1,0,0:0:0:0:
196,336,206290,1,8,0:0:0:0:
44,151,206464,1,0,0:0:0:0:
329,209,206638,2,0,P|380:202|426:181,1,101.999996887207,8|4,0:0|0:3,0:0:0:0:
280,112,206987,2,0,L|176:96,1,101.999996887207,8|0,0:0|0:0,0:0:0:0:
104,211,207336,6,0,P|92:261|96:312,1,101.999996887207,8|2,0:0|0:0,0:0:0:0:
108,336,207598,1,2,0:0:0:0:
128,352,207685,1,2,0:0:0:0:
228,272,207859,1,2,0:0:0:0:
228,272,207947,1,2,0:0:0:0:
228,272,208034,1,2,0:0:0:0:
176,132,208208,1,2,0:0:0:0:
176,132,208295,1,0,0:0:0:0:
176,132,208383,6,0,L|125:134,1,50.9999984436036,8|0,0:0|0:0,0:0:0:0:
336,252,208557,2,0,L|386:249,1,50.9999984436036,4|4,0:3|0:3,0:0:0:0:
296,92,209080,6,0,L|292:134,1,42.5
268,200,209429,2,0,B|248:192|236:176|236:176|208:212|164:212|140:195,1,148.75
60,192,210127,6,0,L|100:204,1,42.5
