osu file format v14

[General]
AudioFilename: Yakimochi no Kotae.mp3
AudioLeadIn: 2000
PreviewTime: 53436
Countdown: 0
SampleSet: Soft
StackLeniency: 0.7
Mode: 0
LetterboxInBreaks: 0
WidescreenStoryboard: 0

[Editor]
DistanceSpacing: 0.6
BeatDivisor: 4
GridSize: 4
TimelineZoom: 1.5

[Metadata]
Title:Yakimochi no Kotae feat.Mochizuki Souta (CV:Kaji Yuki)
TitleUnicode:ヤキモチの答え feat.望月蒼太(CV:梶裕貴)
Artist:HoneyWorks
ArtistUnicode:HoneyWorks
Creator:Synpoo
Version:Insane
Source:
Tags:a solution for jealousy cover gumi vocaloid
BeatmapID:753695
BeatmapSetID:339672

[Difficulty]
HPDrainRate:5.7
CircleSize:4
OverallDifficulty:7.5
ApproachRate:9
SliderMultiplier:1.7
SliderTickRate:1

[Events]
//Background and Video events
0,0,"BG.png",0,0
//Break Periods
2,76846,85046
2,145057,151994
2,173004,177257
//Storyboard Layer 0 (Background)
//Storyboard Layer 1 (Fail)
//Storyboard Layer 2 (Pass)
//Storyboard Layer 3 (Foreground)
//Storyboard Sound Samples

[TimingPoints]
1015,315.789473684211,4,2,1,50,1,0
2751,-100,4,3,1,50,0,0
6540,-100,4,2,2,50,0,0
7329,-100,4,2,1,30,0,0
7645,-100,4,2,1,50,0,0
18698,-100,4,2,1,35,0,0
28803,-100,4,2,1,50,0,0
38751,-100,4,3,1,50,0,0
38908,-117.647058823529,4,2,1,35,0,0
43961,-111.111111111111,4,2,1,40,0,0
49014,-100,4,3,1,50,0,0
51540,-100,4,2,1,50,0,0
52803,-100,4,2,2,50,0,0
54067,-100,4,2,2,50,0,1
63856,-100,4,2,1,40,0,1
64172,-100,4,2,2,50,0,1
73961,-100,4,2,1,50,0,1
74278,-100,4,3,1,50,0,0
75540,-100,4,2,1,35,0,0
75856,-100,4,2,1,40,0,0
76172,-100,4,2,1,60,0,0
76487,-100,4,2,1,75,0,0
85645,-100,4,2,1,50,0,0
86277,-100,4,2,1,30,0,0
86751,-100,4,2,1,10,0,0
86908,-117.647058823529,4,2,1,35,0,0
97014,-100,4,2,1,50,0,0
106961,-100,4,3,1,50,0,0
107119,-117.647058823529,4,2,1,35,0,0
112172,-111.111111111111,4,2,1,40,0,0
117224,-100,4,3,1,50,0,0
119119,-100,4,2,1,50,0,0
121014,-100,4,2,2,50,0,0
122278,-100,4,2,2,50,0,1
132066,-100,4,2,1,40,0,1
132382,-100,4,2,2,50,0,1
142172,-100,4,2,1,50,0,1
142488,-100,4,3,1,50,0,0
143751,-100,4,2,1,35,0,0
144066,-100,4,2,1,40,0,0
144382,-100,4,2,1,60,0,0
144698,-100,4,2,1,75,0,0
152593,-100,4,2,1,50,0,0
154803,-100,4,2,1,5,0,0
155119,-100,4,2,1,50,0,0
163014,-100,4,2,1,20,0,0
163329,-100,4,2,1,25,0,0
163645,-100,4,2,1,30,0,0
163961,-100,4,2,1,40,0,0
164277,-100,4,2,1,50,0,0
164593,-100,4,2,1,60,0,0
164908,-100,4,2,1,65,0,0
165066,-100,4,2,1,70,0,0
165224,-100,4,2,1,50,0,0
171540,-100,4,2,1,40,0,0
171856,-100,4,3,1,50,0,0
172172,-100,4,3,1,65,0,0
172487,-100,4,3,1,30,0,0
172803,-100,4,3,1,50,0,0
177856,-100,4,2,1,40,0,0
182908,-100,4,3,1,40,0,0
184172,-100,4,2,1,40,0,0
185435,-100,4,3,1,40,0,0
186540,-100,4,2,1,20,0,0
186698,-100,4,2,2,40,0,0
187962,-100,4,2,2,50,0,1
197751,-100,4,2,1,40,0,1
198066,-100,4,2,2,50,0,1
207856,-100,4,2,1,40,0,1
208172,-100,4,3,1,50,0,0
209435,-100,4,2,1,35,0,0
209751,-100,4,2,1,40,0,0
210066,-100,4,2,1,60,0,0
210382,-100,4,2,1,75,0,0
210619,-100,4,2,1,50,0,0
213224,-100,4,2,1,40,0,0
215751,-76.9230769230769,4,2,1,20,0,0

[Colours]
Combo1 : 45,159,253
Combo2 : 239,52,52
Combo3 : 252,133,46
Combo4 : 153,94,225
Combo5 : 255,89,172

[HitObjects]
156,144,857,5,8,0:0:0:0:
156,144,936,1,8,0:0:0:0:
156,144,1015,2,0,L|348:104,1,170,4|0,0:0|0:0,0:0:0:0:
432,44,1646,1,0,0:0:0:0:
432,44,1962,1,0,0:0:0:0:
464,152,2120,5,8,0:0:0:0:
464,152,2199,1,8,0:0:0:0:
464,152,2278,2,0,B|452:284|452:284|400:260,1,170,4|0,0:0|0:0,0:0:0:0:
244,164,2752,5,0,0:0:0:0:
312,280,2909,1,0,0:0:0:0:
304,112,3067,1,0,0:0:0:0:
216,280,3225,1,0,0:0:0:0:
372,216,3383,1,0,0:0:0:0:
180,272,3541,6,0,P|135:288|84:296,1,85,4|0,0:0|0:0,0:0:0:0:
24,128,3857,2,0,P|80:132|120:144,1,85
128,148,4094,1,0,0:0:0:0:
148,156,4173,1,0,0:0:0:0:
208,348,4330,1,0,0:0:0:0:
268,232,4488,1,0,0:0:0:0:
312,356,4646,1,0,0:0:0:0:
328,152,4804,6,0,L|236:148,1,85,4|0,0:0|0:0,0:0:0:0:
128,148,5120,1,0,0:0:0:0:
176,64,5278,2,0,L|180:16,2,42.5
272,224,5594,5,0,0:0:0:0:
288,228,5673,1,0,0:0:0:0:
304,232,5752,1,0,0:0:0:0:
320,236,5830,1,0,0:0:0:0:
336,240,5909,1,0,0:0:0:0:
352,244,5988,1,0,0:0:0:0:
368,248,6067,6,0,B|240:268|240:268|192:252,1,170,4|0,0:0|0:0,0:0:0:0:
128,148,6541,5,8,0:0:0:0:
291,111,6699,1,2,0:0:0:0:
180,234,6857,5,8,0:0:0:0:
190,49,7015,1,2,0:0:0:0:
289,217,7173,5,8,0:0:0:0:
128,148,7330,1,8,0:0:0:0:
108,286,7488,5,8,0:0:0:0:
106,303,7567,1,8,0:0:0:0:
104,320,7646,1,8,0:0:0:0:
272,336,7804,2,0,L|316:340,1,42.5,8|8,0:0|0:0,0:0:0:0:
352,344,7962,1,8,0:0:0:0:
233,161,8120,1,0,0:0:0:0:
224,168,8594,6,0,P|180:160|116:176,1,85,2|0,0:0|0:0,0:0:0:0:
19,320,8909,2,0,P|71:324|119:316,1,85,8|0,0:0|0:0,0:0:0:0:
244,260,9225,1,2,0:0:0:0:
176,364,9383,1,0,0:0:0:0:
120,212,9541,2,0,P|124:164|148:124,1,85,8|0,0:0|0:0,0:0:0:0:
312,28,9857,6,0,L|320:116,1,85,2|0,0:0|0:0,0:0:0:0:
293,290,10173,2,0,P|249:266|197:274,1,85,8|0,0:0|0:0,0:0:0:0:
104,328,10488,1,2,0:0:0:0:
228,364,10646,1,0,0:0:0:0:
124,228,10804,2,0,P|108:184|104:136,1,85,8|0,0:0|0:0,0:0:0:0:
312,72,11120,6,0,P|308:120|292:168,1,85,2|0,0:0|0:0,0:0:0:0:
228,344,11436,2,0,P|292:364|320:360,1,85,8|0,0:0|0:0,0:0:0:0:
424,340,11752,1,2,0:0:0:0:
316,276,11909,1,0,0:0:0:0:
472,180,12067,2,0,P|488:128|492:80,1,85,8|0,0:0|0:0,0:0:0:0:
245,234,12383,6,0,P|281:266|337:274,1,85,2|0,0:0|0:0,0:0:0:0:
260,64,12699,2,0,P|196:60|160:80,1,85,8|0,0:0|0:0,0:0:0:0:
64,152,13015,1,2,0:0:0:0:
96,36,13173,1,0,0:0:0:0:
136,228,13330,2,0,P|156:272|184:304,1,85,8|0,0:0|0:0,0:0:0:0:
376,192,13646,6,0,P|380:136|368:92,1,85,2|0,0:0|0:0,0:0:0:0:
304,276,13962,2,0,P|344:296|408:292,1,85,8|0,0:0|0:0,0:0:0:0:
512,276,14278,1,2,0:0:0:0:
432,376,14436,1,0,0:0:0:0:
460,200,14594,2,0,P|460:152|444:108,1,85,8|0,0:0|0:0,0:0:0:0:
224,64,14909,6,0,P|180:68|132:84,1,85,2|0,0:0|0:0,0:0:0:0:
8,248,15225,2,0,P|52:264|108:264,1,85,8|0,0:0|0:0,0:0:0:0:
232,260,15541,1,2,0:0:0:0:
133,362,15699,1,0,0:0:0:0:
180,168,15857,2,0,P|192:128|232:76,1,85,8|0,0:0|0:0,0:0:0:0:
420,160,16173,6,0,P|432:212|428:256,1,85,2|0,0:0|0:0,0:0:0:0:
348,84,16488,2,0,P|388:64|440:64,1,85,8|0,0:0|0:0,0:0:0:0:
320,264,16804,2,0,P|268:236|248:208,1,85,2|0,0:0|0:0,0:0:0:0:
232,84,17120,1,8,0:0:0:0:
340,172,17278,1,0,0:0:0:0:
148,200,17436,6,0,P|100:208|64:208,1,85,2|0,0:0|0:0,0:0:0:0:
32,204,17673,1,8,0:0:0:0:
32,204,17752,1,8,0:0:0:0:
60,24,17909,1,0,0:0:0:0:
72,32,17988,1,0,0:0:0:0:
84,40,18067,2,0,L|140:36,3,42.5,2|0|0|0,0:0|0:0|0:0|0:0,0:0:0:0:
72,120,18383,2,0,L|29:123,3,42.5,8|0|8|8,0:0|0:0|0:0|0:0,0:0:0:0:
156,112,18699,5,2,0:0:0:0:
120,224,18857,1,0,0:0:0:0:
204,188,19015,2,0,P|256:184|292:184,1,85
384,208,19330,1,2,0:0:0:0:
288,183,19488,1,0,0:0:0:0:
404,212,19646,1,0,0:0:0:0:
392,112,19804,1,0,0:0:0:0:
420,216,19962,6,0,P|428:260|428:308,1,85,2|0,0:0|0:0,0:0:0:0:
360,348,20278,1,0,0:0:0:0:
504,280,20436,1,0,0:0:0:0:
328,264,20594,2,0,P|284:260|240:252,1,85,2|0,0:0|0:0,0:0:0:0:
172,196,20909,1,0,0:0:0:0:
172,196,21067,1,0,0:0:0:0:
258,164,21225,6,0,P|268:115|270:76,1,85,2|0,0:0|0:0,0:0:0:0:
212,17,21541,1,0,0:0:0:0:
321,7,21699,1,0,0:0:0:0:
167,111,21857,2,0,P|165:154|176:210,1,85,2|0,0:0|0:0,0:0:0:0:
224,276,22173,1,0,0:0:0:0:
88,168,22330,1,0,0:0:0:0:
272,148,22488,6,0,P|324:145|372:144,1,85,2|0,0:0|0:0,0:0:0:0:
444,168,22804,1,0,0:0:0:0:
444,168,22962,1,0,0:0:0:0:
316,224,23120,1,2,0:0:0:0:
416,60,23278,1,0,0:0:0:0:
408,264,23436,2,0,L|416:356,1,85
212,256,23752,5,2,0:0:0:0:
336,244,23909,1,0,0:0:0:0:
288,128,24067,1,0,0:0:0:0:
316,224,24225,1,0,0:0:0:0:
164,168,24383,2,0,P|121:158|72:168,1,85,2|0,0:0|0:0,0:0:0:0:
224,56,24699,2,0,L|316:52,1,85
444,152,25015,6,0,P|396:152|336:148,1,85,2|0,0:0|0:0,0:0:0:0:
200,264,25330,2,0,B|324:260|324:260|264:232,1,170,0|2,0:0|0:0,0:0:0:0:
282,240,25962,6,0,L|288:156,1,85
136,24,26278,2,0,L|156:196,1,170,2|0,0:0|0:0,0:0:0:0:
155,192,26752,1,0,0:0:0:0:
340,120,26909,2,0,P|276:120|248:124,1,85,2|0,0:0|0:0,0:0:0:0:
376,32,27225,2,0,L|476:40,1,85
472,212,27541,5,2,0:0:0:0:
328,292,27699,1,0,0:0:0:0:
328,292,27778,1,0,0:0:0:0:
328,292,27857,1,8,0:0:0:0:
396,152,28015,2,0,L|392:108,2,42.5,0|0|10,0:0|0:0|0:0,0:0:0:0:
424,332,28330,1,0,0:0:0:0:
424,332,28409,1,0,0:0:0:0:
424,332,28488,1,8,0:0:0:0:
304,196,28646,2,0,L|296:144,1,42.5,8|8,0:0|0:0,0:0:0:0:
284,104,28804,6,0,P|248:108|192:108,1,85,6|0,0:0|0:0,0:0:0:0:
64,32,29120,2,0,P|96:104|104:144,1,85,8|0,0:0|0:0,0:0:0:0:
104,212,29436,1,2,0:0:0:0:
104,212,29594,1,0,0:0:0:0:
28,148,29752,1,8,0:0:0:0:
104,296,29909,1,0,0:0:0:0:
232,232,30067,6,0,P|288:228|328:232,1,85,2|0,0:0|0:0,0:0:0:0:
199,108,30383,2,0,L|115:104,1,85,8|0,0:0|0:0,0:0:0:0:
40,64,30699,1,2,0:0:0:0:
40,64,30857,1,0,0:0:0:0:
212,24,31015,1,8,0:0:0:0:
121,185,31173,1,8,0:0:0:0:
232,232,31330,6,0,L|240:324,1,85,2|0,0:0|0:0,0:0:0:0:
292,384,31646,1,8,0:0:0:0:
160,312,31804,1,0,0:0:0:0:
324,196,31962,1,2,0:0:0:0:
324,196,32120,1,0,0:0:0:0:
216,136,32278,2,0,P|180:124|132:76,1,85,8|0,0:0|0:0,0:0:0:0:
40,28,32594,6,0,L|60:224,1,170,2|8,0:0|0:0,0:0:0:0:
57,197,33067,1,0,0:0:0:0:
241,214,33225,2,0,P|317:198|341:190,1,85,2|0,0:0|0:0,0:0:0:0:
420,144,33541,1,8,0:0:0:0:
380,272,33699,1,8,0:0:0:0:
232,116,33857,5,2,0:0:0:0:
372,96,34015,1,0,0:0:0:0:
336,196,34173,1,8,0:0:0:0:
264,88,34330,1,0,0:0:0:0:
164,208,34488,5,2,0:0:0:0:
232,280,34646,1,0,0:0:0:0:
148,324,34804,1,8,0:0:0:0:
260,288,34962,1,0,0:0:0:0:
64,124,35120,6,0,L|72:312,1,170,2|8,0:0|0:0,0:0:0:0:
71,293,35594,1,0,0:0:0:0:
180,204,35752,2,0,P|244:200|288:208,1,85,2|0,0:0|0:0,0:0:0:0:
352,232,36067,1,8,0:0:0:0:
352,232,36225,1,8,0:0:0:0:
312,112,36383,6,0,P|304:64|288:24,1,85,2|0,0:0|0:0,0:0:0:0:
196,121,36699,2,0,P|180:181|180:213,1,85,8|0,0:0|0:0,0:0:0:0:
220,284,37015,1,2,0:0:0:0:
220,284,37173,1,0,0:0:0:0:
352,232,37330,2,0,P|416:220|448:208,1,85,8|0,0:0|0:0,0:0:0:0:
400,88,37646,6,0,P|328:68|208:52,1,170,6|8,0:0|0:0,0:0:0:0:
108,108,38120,1,0,0:0:0:0:
108,108,38199,1,0,0:0:0:0:
108,108,38278,1,2,0:0:0:0:
188,180,38436,2,0,L|244:172,2,42.5,0|8|8,0:0|0:0|0:0,0:0:0:0:
68,220,38752,1,0,0:0:0:0:
284,268,38909,5,2,0:0:0:0:
284,268,39067,1,0,0:0:0:0:
192,312,39225,2,0,L|108:308,1,72.2500013780594
48,232,39541,1,2,0:0:0:0:
48,232,39699,1,0,0:0:0:0:
192,184,39857,2,0,P|268:180|288:172,1,72.2500013780594
368,120,40173,5,2,0:0:0:0:
340,212,40330,1,0,0:0:0:0:
280,100,40488,2,0,P|276:60|280:20,1,72.2500013780594
278,28,40804,1,2,0:0:0:0:
184,96,40962,1,0,0:0:0:0:
184,96,41120,2,0,P|180:152|188:192,1,72.2500013780594
260,284,41436,6,0,L|112:272,1,144.500002756119,2|0,0:0|0:0,0:0:0:0:
115,272,41909,1,0,0:0:0:0:
68,164,42067,1,2,0:0:0:0:
68,164,42225,1,0,0:0:0:0:
168,196,42383,2,0,P|224:172|240:148,1,72.2500013780594
328,52,42699,6,0,L|344:152,1,72.2500013780594,2|0,0:0|0:0,0:0:0:0:
368,296,43015,2,0,P|316:280|280:280,1,72.2500013780594
424,220,43330,2,0,L|508:216,1,72.2500013780594,2|0,0:0|0:0,0:0:0:0:
300,192,43646,1,0,0:0:0:0:
292,200,43962,5,2,0:0:0:0:
380,136,44120,1,0,0:0:0:0:
236,124,44278,2,0,P|184:120|136:112,1,76.4999976654053,2|0,0:0|0:0,0:0:0:0:
80,72,44594,1,2,0:0:0:0:
172,20,44752,1,0,0:0:0:0:
152,208,44909,2,0,P|156:252|152:296,1,76.4999976654053,2|0,0:0|0:0,0:0:0:0:
108,368,45225,5,2,0:0:0:0:
52,276,45383,1,0,0:0:0:0:
272,252,45541,2,0,P|324:248|364:240,1,76.4999976654053,2|0,0:0|0:0,0:0:0:0:
484,144,45857,2,0,P|424:132|384:136,1,76.4999976654053,2|0,0:0|0:0,0:0:0:0:
256,160,46173,1,2,0:0:0:0:
248,164,46488,6,0,P|236:220|236:256,1,76.4999976654053,10|0,0:0|0:0,0:0:0:0:
268,324,46804,1,8,0:0:0:0:
268,324,46962,1,0,0:0:0:0:
164,252,47120,1,10,0:0:0:0:
328,208,47278,1,0,0:0:0:0:
168,160,47436,2,0,P|116:152|84:136,1,76.4999976654053,8|0,0:0|0:0,0:0:0:0:
48,56,47752,5,10,0:0:0:0:
56,220,47909,1,0,0:0:0:0:
56,220,47988,1,8,0:0:0:0:
56,220,48067,1,8,0:0:0:0:
220,152,48225,1,8,0:0:0:0:
212,160,48304,1,0,0:0:0:0:
205,166,48383,2,0,L|157:158,3,38.2499988327027,2|0|8|0,0:0|0:0|0:0|0:0,0:0:0:0:
168,248,48699,2,0,L|124:240,3,38.2499988327027,8|0|8|8,0:0|0:0|0:0|0:0,0:0:0:0:
88,136,49015,5,2,0:0:0:0:
100,324,49173,1,0,0:0:0:0:
100,324,49330,1,0,0:0:0:0:
256,224,49488,5,2,0:0:0:0:
92,232,49646,1,0,0:0:0:0:
92,232,49804,1,0,0:0:0:0:
188,364,49962,5,2,0:0:0:0:
176,228,50120,1,0,0:0:0:0:
176,228,50278,1,0,0:0:0:0:
332,312,50436,5,2,0:0:0:0:
436,196,50594,2,0,P|432:152|420:108,1,85
368,24,50909,1,2,0:0:0:0:
336,156,51067,2,0,L|292:152,2,42.5,0|0|2,0:0|0:0|0:0,0:0:0:0:
508,112,51383,1,4,0:0:0:0:
232,84,51541,5,2,0:0:0:0:
216,92,51620,1,0,0:0:0:0:
200,100,51699,1,0,0:0:0:0:
180,108,51778,1,0,0:0:0:0:
160,112,51857,5,2,0:0:0:0:
140,104,51936,1,0,0:0:0:0:
120,96,52015,1,0,0:0:0:0:
108,80,52094,1,0,0:0:0:0:
100,60,52173,6,0,L|84:16,3,42.5,2|0|0|0,0:0|0:0|0:0|0:0,0:0:0:0:
32,112,52488,2,0,L|48:160,3,42.5,2|0|0|0,0:0|0:0|0:0|0:0,0:0:0:0:
132,208,52804,5,8,0:0:0:0:
302,153,52962,1,8,0:0:0:0:
112,292,53436,5,8,0:0:0:0:
304,232,53594,1,8,0:0:0:0:
296,236,54067,6,0,P|308:180|296:140,1,85,6|0,0:0|0:0,0:0:0:0:
168,48,54383,2,0,P|172:120|192:164,1,85,8|0,0:0|0:0,0:0:0:0:
208,260,54699,1,2,0:0:0:0:
316,228,54857,1,0,0:0:0:0:
196,264,55015,2,0,P|152:272|96:276,1,85,8|0,0:0|0:0,0:0:0:0:
12,248,55330,6,0,P|16:180|116:144,1,170,2|8,0:0|0:0,0:0:0:0:
216,176,55804,1,0,0:0:0:0:
144,68,55962,1,2,0:0:0:0:
144,68,56120,1,0,0:0:0:0:
100,224,56278,2,0,P|104:284|112:312,1,85,8|0,0:0|0:0,0:0:0:0:
228,372,56594,6,0,P|264:324|284:276,1,85,2|0,0:0|0:0,0:0:0:0:
304,124,56909,2,0,P|360:144|396:149,1,85,8|0,0:0|0:0,0:0:0:0:
512,160,57225,1,2,0:0:0:0:
448,72,57383,1,0,0:0:0:0:
452,228,57541,2,0,P|448:300|436:340,1,85,8|0,0:0|0:0,0:0:0:0:
340,372,57857,6,0,L|152:336,1,170,2|8,0:0|0:0,0:0:0:0:
173,340,58330,1,0,0:0:0:0:
116,208,58488,2,0,P|140:140|172:120,1,85,2|0,0:0|0:0,0:0:0:0:
296,220,58804,2,0,P|256:252|204:264,1,85,8|0,0:0|0:0,0:0:0:0:
300,68,59120,6,0,P|388:72|444:140,1,170,2|8,0:0|0:0,0:0:0:0:
440,129,59594,1,0,0:0:0:0:
388,232,59752,1,2,0:0:0:0:
492,208,59909,1,0,0:0:0:0:
336,152,60067,2,0,P|280:148|232:160,1,85,8|0,0:0|0:0,0:0:0:0:
88,308,60383,6,0,P|172:304|264:288,1,170,2|8,0:0|0:0,0:0:0:0:
388,232,60857,1,0,0:0:0:0:
244,160,61015,2,0,P|260:100|300:72,1,85,2|0,0:0|0:0,0:0:0:0:
276,300,61330,2,0,P|224:304|172:288,1,85,8|0,0:0|0:0,0:0:0:0:
88,172,61646,6,0,P|136:176|180:208,1,85,2|0,0:0|0:0,0:0:0:0:
288,312,61962,2,0,P|348:320|396:308,1,85,8|0,0:0|0:0,0:0:0:0:
408,184,62278,1,2,0:0:0:0:
408,184,62436,1,0,0:0:0:0:
484,288,62594,1,8,0:0:0:0:
292,208,62752,5,8,0:0:0:0:
292,208,62830,1,8,0:0:0:0:
292,208,62909,2,0,P|292:148|304:112,1,85,2|0,0:0|0:0,0:0:0:0:
304,100,63146,1,0,0:0:0:0:
300,76,63225,1,0,0:0:0:0:
284,56,63304,1,0,0:0:0:0:
264,44,63383,1,0,0:0:0:0:
240,40,63462,1,0,0:0:0:0:
216,44,63541,6,0,L|168:52,3,42.5,2|0|0|0,0:0|0:0|0:0|0:0,0:0:0:0:
154,138,63857,2,0,L|196:132,3,42.5,8|0|8|8,0:0|0:0|0:0|0:0,0:0:0:0:
48,92,64173,6,0,P|32:168|92:240,1,170,6|8,0:0|0:0,0:0:0:0:
192,216,64646,1,0,0:0:0:0:
96,332,64804,1,2,0:0:0:0:
96,332,64962,1,0,0:0:0:0:
154,138,65120,2,0,P|158:86|154:46,1,85,8|0,0:0|0:0,0:0:0:0:
272,60,65436,6,0,L|472:96,1,170,2|8,0:0|0:0,0:0:0:0:
439,90,65909,1,0,0:0:0:0:
488,216,66067,1,2,0:0:0:0:
488,216,66225,1,0,0:0:0:0:
360,188,66383,2,0,P|312:200|288:224,1,85,8|0,0:0|0:0,0:0:0:0:
180,324,66699,6,0,L|160:224,1,85,2|0,0:0|0:0,0:0:0:0:
144,72,67015,2,0,P|184:52|240:56,1,85,8|0,0:0|0:0,0:0:0:0:
320,88,67330,1,2,0:0:0:0:
320,88,67488,1,0,0:0:0:0:
176,184,67646,2,0,P|116:184|72:176,1,85,8|0,0:0|0:0,0:0:0:0:
232,104,67962,6,0,P|272:180|224:272,1,170,2|8,0:0|0:0,0:0:0:0:
144,300,68436,1,0,0:0:0:0:
144,300,68515,1,0,0:0:0:0:
144,300,68594,1,2,0:0:0:0:
264,344,68752,1,0,0:0:0:0:
176,184,68909,1,8,0:0:0:0:
344,272,69067,1,0,0:0:0:0:
232,104,69225,6,0,P|256:60|368:80,1,170,2|8,0:0|0:0,0:0:0:0:
392,168,69699,1,0,0:0:0:0:
472,72,69857,1,2,0:0:0:0:
472,72,70015,1,0,0:0:0:0:
284,176,70173,2,0,P|232:188|176:180,1,85,8|0,0:0|0:0,0:0:0:0:
68,28,70488,6,0,L|84:216,1,170,2|8,0:0|0:0,0:0:0:0:
178,159,70962,1,0,0:0:0:0:
56,308,71120,1,2,0:0:0:0:
56,308,71278,1,0,0:0:0:0:
196,248,71436,2,0,P|252:240|288:248,1,85,8|0,0:0|0:0,0:0:0:0:
436,288,71752,6,0,P|488:220|468:140,1,170,2|8,0:0|0:0,0:0:0:0:
364,72,72225,1,0,0:0:0:0:
484,52,72383,1,2,0:0:0:0:
484,52,72541,1,0,0:0:0:0:
344,160,72699,2,0,P|300:180|256:184,1,85,8|0,0:0|0:0,0:0:0:0:
104,104,73015,5,2,0:0:0:0:
120,220,73173,2,0,L|124:288,2,42.5,0|8|8,0:0|0:0|0:0,0:0:0:0:
220,80,73488,1,0,0:0:0:0:
244,76,73567,1,0,0:0:0:0:
268,80,73646,1,2,0:0:0:0:
292,92,73725,1,0,0:0:0:0:
312,108,73804,1,0,0:0:0:0:
332,124,73883,1,0,0:0:0:0:
344,140,73962,2,0,L|392:100,3,42.5,8|0|8|8,0:0|0:0|0:0|0:0,0:0:0:0:
452,52,74278,6,0,L|456:168,1,85,2|0,0:0|0:0,0:0:0:0:
456,168,74515,1,0,0:0:0:0:
456,168,74594,1,0,0:0:0:0:
332,252,74752,1,0,0:0:0:0:
224,156,74909,6,0,P|168:120|136:120,1,85,2|0,0:0|0:0,0:0:0:0:
172,304,75225,2,0,P|224:312|276:296,1,85
368,168,75541,5,8,0:0:0:0:
280,232,75699,1,8,0:0:0:0:
412,280,75857,1,8,0:0:0:0:
332,148,76015,1,8,0:0:0:0:
288,312,76173,5,8,0:0:0:0:
452,280,76330,1,8,0:0:0:0:
292,144,76488,1,8,0:0:0:0:
364,360,76646,1,6,0:0:0:0:
256,192,85646,12,0,86752,0:0:0:0:
368,104,86909,5,2,0:0:0:0:
440,224,87067,1,0,0:0:0:0:
320,200,87225,2,0,P|276:192|220:192,1,72.2500013780594
156,204,87541,1,2,0:0:0:0:
156,204,87699,1,0,0:0:0:0:
268,268,87857,1,0,0:0:0:0:
212,108,88015,1,0,0:0:0:0:
172,288,88173,6,0,P|176:352|192:376,1,72.2500013780594,2|0,0:0|0:0,0:0:0:0:
348,288,88488,2,0,P|336:232|316:200,1,72.2500013780594
272,356,88804,2,0,P|320:372|372:372,1,72.2500013780594,2|0,0:0|0:0,0:0:0:0:
432,344,89120,1,0,0:0:0:0:
432,344,89278,1,0,0:0:0:0:
244,192,89436,6,0,P|188:184|148:192,1,72.2500013780594,2|0,0:0|0:0,0:0:0:0:
88,224,89752,1,0,0:0:0:0:
56,136,89909,1,0,0:0:0:0:
92,236,90067,2,0,P|104:284|112:328,1,72.2500013780594,2|0,0:0|0:0,0:0:0:0:
216,360,90383,2,0,P|220:304|224:272,1,72.2500013780594
300,120,90699,6,0,P|248:56|172:80,1,144.500002756119,2|0,0:0|0:0,0:0:0:0:
193,62,91173,1,0,0:0:0:0:
208,204,91330,1,2,0:0:0:0:
208,204,91488,1,0,0:0:0:0:
376,196,91646,2,0,P|400:160|408:112,1,72.2500013780594
288,244,91962,5,2,0:0:0:0:
420,288,92120,1,0,0:0:0:0:
316,344,92278,2,0,P|264:352|232:352,1,72.2500013780594
108,229,92594,2,0,P|146:220|192:225,1,72.2500013780594,2|0,0:0|0:0,0:0:0:0:
179,222,92909,1,0,0:0:0:0:
48,120,93067,1,0,0:0:0:0:
193,78,93225,6,0,L|177:242,1,144.500002756119,2|0,0:0|0:0,0:0:0:0:
248,312,93857,1,2,0:0:0:0:
312,180,94173,1,0,0:0:0:0:
324,176,94488,6,0,P|372:168|444:104,2,144.500002756119,2|0|2,0:0|0:0|0:0,0:0:0:0:
192,120,95436,1,0,0:0:0:0:
221,259,95751,1,0,0:0:0:0:
360,264,96383,6,0,L|420:256,2,48.1666675853729,2|0|0,0:0|0:0|0:0,0:0:0:0:
300,192,96699,2,0,L|248:184,2,48.1666675853729,2|0|0,0:0|0:0|0:0,0:0:0:0:
392,128,97015,6,0,P|360:60|272:60,1,170,2|8,0:0|0:0,0:0:0:0:
200,132,97488,1,0,0:0:0:0:
200,8,97646,1,2,0:0:0:0:
200,8,97804,1,0,0:0:0:0:
92,132,97962,2,0,P|81:158|80:224,1,85,8|0,0:0|0:0,0:0:0:0:
244,312,98278,6,0,P|320:304|360:288,1,85,2|0,0:0|0:0,0:0:0:0:
282,148,98594,2,0,P|230:132|198:132,1,85,8|0,0:0|0:0,0:0:0:0:
128,212,98909,1,2,0:0:0:0:
128,212,99067,1,0,0:0:0:0:
108,88,99225,2,0,P|104:32|108:4,1,85,8|8,0:0|0:0,0:0:0:0:
204,152,99541,6,0,P|236:216|332:208,1,170,2|8,0:0|0:0,0:0:0:0:
400,144,100015,1,0,0:0:0:0:
400,296,100173,1,2,0:0:0:0:
400,296,100330,1,0,0:0:0:0:
285,167,100488,2,0,P|237:151|185:155,1,85,8|0,0:0|0:0,0:0:0:0:
48,296,100804,6,0,P|128:292|220:264,1,170,2|8,0:0|0:0,0:0:0:0:
268,176,101278,1,0,0:0:0:0:
272,160,101357,1,0,0:0:0:0:
276,148,101436,1,2,0:0:0:0:
312,296,101594,1,0,0:0:0:0:
152,208,101752,1,8,0:0:0:0:
364,212,101909,5,8,0:0:0:0:
364,212,101988,1,8,0:0:0:0:
364,212,102067,2,0,P|416:208|448:196,1,85,6|0,0:0|0:0,0:0:0:0:
492,120,102383,1,8,0:0:0:0:
460,296,102541,1,0,0:0:0:0:
356,128,102699,2,0,P|336:88|336:44,1,85,2|0,0:0|0:0,0:0:0:0:
232,152,103015,2,0,P|212:204|188:232,1,85,8|0,0:0|0:0,0:0:0:0:
88,72,103330,6,0,P|144:24|260:64,1,170,2|8,0:0|0:0,0:0:0:0:
316,124,103804,1,0,0:0:0:0:
172,204,103962,2,0,P|116:192|84:172,1,85,2|0,0:0|0:0,0:0:0:0:
48,104,104278,1,8,0:0:0:0:
80,280,104436,1,8,0:0:0:0:
276,208,104594,6,0,P|336:200|368:212,1,85,2|0,0:0|0:0,0:0:0:0:
480,312,104909,2,0,P|432:336|380:336,1,85,8|0,0:0|0:0,0:0:0:0:
416,148,105225,2,0,P|436:196|432:248,1,85,2|0,0:0|0:0,0:0:0:0:
332,68,105541,2,0,P|368:36|440:32,1,85,8|0,0:0|0:0,0:0:0:0:
358,207,105857,6,0,P|270:215|184:156,1,170,2|12,0:0|0:0,0:0:0:0:
172,80,106330,1,0,0:0:0:0:
172,80,106409,1,0,0:0:0:0:
172,80,106488,1,2,0:0:0:0:
88,216,106646,2,0,L|40:228,2,42.5,0|8|8,0:0|0:0|0:0,0:0:0:0:
72,104,106962,1,0,0:0:0:0:
208,256,107120,5,2,0:0:0:0:
208,256,107278,1,0,0:0:0:0:
312,228,107436,2,0,P|360:216|392:200,1,72.2500013780594
432,136,107752,1,2,0:0:0:0:
468,288,107909,1,0,0:0:0:0:
380,206,108067,1,0,0:0:0:0:
512,224,108225,1,0,0:0:0:0:
344,120,108383,6,0,P|288:104|244:108,1,72.2500013780594,2|0,0:0|0:0,0:0:0:0:
188,128,108699,1,0,0:0:0:0:
200,16,108857,1,0,0:0:0:0:
252,200,109015,2,0,P|256:240|252:280,1,72.2500013780594,2|0,0:0|0:0,0:0:0:0:
252,292,109646,5,2,0:0:0:0:
336,224,109804,1,0,0:0:0:0:
336,348,109962,1,0,0:0:0:0:
160,256,110120,2,0,P|168:204|252:148,1,144.500002756119,4|0,0:0|0:0,0:0:0:0:
392,160,110594,1,0,0:0:0:0:
268,248,110752,1,0,0:0:0:0:
304,100,110909,6,0,P|340:68|396:68,1,72.2500013780594,2|0,0:0|0:0,0:0:0:0:
464,240,111225,2,0,P|412:248|368:236,1,72.2500013780594
224,144,111541,2,0,P|188:116|140:112,1,72.2500013780594,2|0,0:0|0:0,0:0:0:0:
28,132,111857,1,0,0:0:0:0:
40,140,112173,5,2,0:0:0:0:
96,64,112330,1,0,0:0:0:0:
116,216,112488,2,0,P|120:256|136:292,1,76.4999976654053,2|0,0:0|0:0,0:0:0:0:
204,352,112804,1,2,0:0:0:0:
204,352,112962,1,0,0:0:0:0:
352,300,113120,2,0,P|404:284|428:248,1,76.4999976654053,2|0,0:0|0:0,0:0:0:0:
216,200,113436,5,2,0:0:0:0:
208,208,113752,2,0,P|164:224|120:228,1,76.4999976654053,2|0,0:0|0:0,0:0:0:0:
268,108,114067,2,0,P|300:136|316:196,1,76.4999976654053,2|0,0:0|0:0,0:0:0:0:
276,312,114383,1,2,0:0:0:0:
268,320,114699,6,0,P|204:320|168:312,1,76.4999976654053,10|0,0:0|0:0,0:0:0:0:
116,256,115015,1,8,0:0:0:0:
116,256,115173,1,0,0:0:0:0:
132,376,115330,1,10,0:0:0:0:
228,240,115488,1,0,0:0:0:0:
32,296,115646,2,0,P|32:236|52:192,1,76.4999976654053,8|0,0:0|0:0,0:0:0:0:
144,80,115962,5,10,0:0:0:0:
168,192,116120,1,0,0:0:0:0:
168,192,116199,1,8,0:0:0:0:
168,192,116278,1,8,0:0:0:0:
304,144,116436,1,8,0:0:0:0:
312,152,116515,1,0,0:0:0:0:
319,158,116594,2,0,L|367:150,3,38.2499988327027,2|0|8|0,0:0|0:0|0:0|0:0,0:0:0:0:
356,232,116910,2,0,L|400:224,3,38.2499988327027,8|0|8|8,0:0|0:0|0:0|0:0,0:0:0:0:
468,168,117225,6,0,P|484:236|476:288,1,85,2|0,0:0|0:0,0:0:0:0:
416,332,117541,1,0,0:0:0:0:
252,264,117699,6,0,P|248:212|264:164,1,85,2|0,0:0|0:0,0:0:0:0:
308,84,118015,1,0,0:0:0:0:
148,24,118173,6,0,P|156:104|148:136,1,85,2|0,0:0|0:0,0:0:0:0:
80,192,118488,1,0,0:0:0:0:
264,176,118646,2,0,L|352:180,1,85,2|0,0:0|0:0,0:0:0:0:
444,132,118962,5,0,0:0:0:0:
444,132,119041,1,0,0:0:0:0:
444,132,119120,1,10,0:0:0:0:
328,260,119278,1,8,0:0:0:0:
336,100,119436,1,8,0:0:0:0:
440,232,119594,1,8,0:0:0:0:
264,176,119752,5,2,0:0:0:0:
240,184,119830,1,0,0:0:0:0:
216,184,119909,1,0,0:0:0:0:
192,176,119988,1,0,0:0:0:0:
172,160,120067,5,2,0:0:0:0:
156,140,120146,1,0,0:0:0:0:
136,124,120225,1,0,0:0:0:0:
112,116,120304,1,0,0:0:0:0:
88,120,120383,6,0,L|24:128,3,42.5,2|0|0|0,0:0|0:0|0:0|0:0,0:0:0:0:
45,217,120699,2,0,L|88:212,3,42.5,2|0|0|0,0:0|0:0|0:0|0:0,0:0:0:0:
156,264,121015,5,8,0:0:0:0:
232,104,121173,1,8,0:0:0:0:
240,228,121646,5,8,0:0:0:0:
316,68,121804,1,8,0:0:0:0:
308,76,122278,6,0,P|372:64|420:160,1,170,6|8,0:0|0:0,0:0:0:0:
384,236,122752,1,0,0:0:0:0:
248,152,122909,2,0,P|200:140|156:144,1,85,2|0,0:0|0:0,0:0:0:0:
48,224,123225,2,0,P|92:248|144:248,1,85,8|0,0:0|0:0,0:0:0:0:
296,214,123541,6,0,P|328:152|269:75,1,170,2|8,0:0|0:0,0:0:0:0:
151,115,124015,1,0,0:0:0:0:
245,0,124173,1,2,0:0:0:0:
248,152,124330,1,0,0:0:0:0:
408,144,124488,1,8,0:0:0:0:
260,291,124646,1,0,0:0:0:0:
460,292,124804,6,0,P|416:228|312:240,1,170,2|8,0:0|0:0,0:0:0:0:
252,332,125278,1,0,0:0:0:0:
368,312,125436,1,2,0:0:0:0:
368,312,125594,1,0,0:0:0:0:
312,152,125752,2,0,P|300:104|288:60,1,85,8|0,0:0|0:0,0:0:0:0:
184,20,126067,6,0,P|168:144|160:216,1,170,2|8,0:0|0:0,0:0:0:0:
120,272,126541,1,0,0:0:0:0:
240,264,126699,1,2,0:0:0:0:
240,264,126857,1,0,0:0:0:0:
76,176,127015,2,0,P|36:156|8:120,1,85,8|0,0:0|0:0,0:0:0:0:
299,124,127330,6,0,P|304:195|240:263,1,170,2|8,0:0|0:0,0:0:0:0:
136,312,127804,1,0,0:0:0:0:
256,356,127962,2,0,L|356:372,1,85,2|0,0:0|0:0,0:0:0:0:
148,228,128278,2,0,L|60:216,1,85,8|0,0:0|0:0,0:0:0:0:
220,128,128594,6,0,L|404:148,1,170,2|8,0:0|0:0,0:0:0:0:
496,144,129067,1,0,0:0:0:0:
380,256,129225,2,0,P|360:300|344:352,1,85,2|0,0:0|0:0,0:0:0:0:
245,208,129541,2,0,P|236:164|217:124,1,85,8|0,0:0|0:0,0:0:0:0:
172,328,129857,6,0,P|216:360|256:368,1,85,2|0,0:0|0:0,0:0:0:0:
380,256,130173,2,0,P|352:204|316:168,1,85,8|0,0:0|0:0,0:0:0:0:
232,136,130488,1,2,0:0:0:0:
324,52,130646,1,0,0:0:0:0:
252,224,130804,6,0,P|220:256|176:280,1,85,8|8,0:0|0:0,0:0:0:0:
185,275,131041,1,8,0:0:0:0:
185,275,131120,1,6,0:0:0:0:
88,200,131278,2,0,L|76:148,2,42.5,0|0|8,0:0|0:0|0:0,0:0:0:0:
64,336,131594,5,0,0:0:0:0:
64,336,131673,1,0,0:0:0:0:
64,336,131752,2,0,L|124:332,3,42.5,2|0|0|0,0:0|0:0|0:0|0:0,0:0:0:0:
180,360,132067,2,0,L|240:356,3,42.5,8|0|8|8,0:0|0:0|0:0|0:0,0:0:0:0:
316,328,132383,6,0,P|363:278|349:182,1,170,6|8,0:0|0:0,0:0:0:0:
284,116,132857,1,0,0:0:0:0:
264,240,133015,1,2,0:0:0:0:
264,240,133173,1,0,0:0:0:0:
424,152,133330,2,0,P|468:124|484:92,1,85,8|0,0:0|0:0,0:0:0:0:
284,116,133646,6,0,P|292:208|348:272,1,170,2|8,0:0|0:0,0:0:0:0:
424,328,134120,1,0,0:0:0:0:
308,356,134278,2,0,P|232:364|200:364,1,85,2|0,0:0|0:0,0:0:0:0:
68,276,134594,2,0,P|116:260|160:256,1,85,8|0,0:0|0:0,0:0:0:0:
272,276,134909,5,2,0:0:0:0:
144,344,135067,1,0,0:0:0:0:
148,184,135225,2,0,L|152:92,1,85,8|0,0:0|0:0,0:0:0:0:
140,8,135541,1,2,0:0:0:0:
140,8,135699,1,0,0:0:0:0:
264,116,135857,2,0,P|312:128|360:132,1,85,8|0,0:0|0:0,0:0:0:0:
488,216,136173,6,0,P|364:232|292:244,1,170,2|8,0:0|0:0,0:0:0:0:
220,280,136646,1,0,0:0:0:0:
356,316,136804,1,2,0:0:0:0:
252,364,136962,1,0,0:0:0:0:
304,208,137120,2,0,P|316:148|316:116,1,85,8|0,0:0|0:0,0:0:0:0:
124,8,137436,6,0,P|132:68|164:184,1,170,2|8,0:0|0:0,0:0:0:0:
204,260,137909,1,0,0:0:0:0:
64,208,138067,1,2,0:0:0:0:
64,208,138225,1,0,0:0:0:0:
232,132,138383,2,0,P|276:120|332:120,1,85,8|0,0:0|0:0,0:0:0:0:
476,256,138699,6,0,P|416:284|328:224,1,170,2|8,0:0|0:0,0:0:0:0:
376,136,139173,1,0,0:0:0:0:
244,220,139330,1,2,0:0:0:0:
244,220,139488,1,0,0:0:0:0:
276,108,139646,2,0,P|304:56|348:32,1,85,8|0,0:0|0:0,0:0:0:0:
360,228,139962,6,0,L|161:215,1,170,2|8,0:0|0:0,0:0:0:0:
88,196,140436,1,0,0:0:0:0:
160,308,140594,1,2,0:0:0:0:
32,272,140752,1,0,0:0:0:0:
176,312,140909,2,0,P|236:320|288:312,1,85,8|0,0:0|0:0,0:0:0:0:
440,188,141225,5,2,0:0:0:0:
336,136,141383,2,0,L|328:88,2,42.5,0|8|0,0:0|0:0|0:0,0:0:0:0:
304,256,141699,1,0,0:0:0:0:
284,272,141778,1,0,0:0:0:0:
264,284,141857,2,0,L|212:280,3,42.5,2|0|0|0,0:0|0:0|0:0|0:0,0:0:0:0:
170,339,142173,2,0,L|118:335,3,42.5,8|0|8|8,0:0|0:0|0:0|0:0,0:0:0:0:
52,344,142488,6,0,L|60:256,1,85,2|0,0:0|0:0,0:0:0:0:
64,220,142725,1,0,0:0:0:0:
64,220,142804,1,0,0:0:0:0:
24,124,142962,1,0,0:0:0:0:
160,164,143120,2,0,P|208:168|264:160,1,85,2|0,0:0|0:0,0:0:0:0:
328,112,143436,1,0,0:0:0:0:
288,248,143594,1,0,0:0:0:0:
408,200,143752,5,8,0:0:0:0:
220,268,143909,1,8,0:0:0:0:
360,316,144067,1,8,0:0:0:0:
256,172,144225,1,8,0:0:0:0:
284,352,144383,5,8,0:0:0:0:
356,172,144541,1,8,0:0:0:0:
208,304,144699,1,8,0:0:0:0:
416,232,144857,1,6,0:0:0:0:
256,192,152594,12,0,154804,0:0:0:0:
52,144,155120,6,0,P|128:128|168:208,1,170,6|8,0:0|0:0,0:0:0:0:
152,288,155594,1,0,0:0:0:0:
260,224,155752,2,0,P|320:216|376:212,1,85,2|0,0:0|0:0,0:0:0:0:
440,208,156067,1,8,0:0:0:0:
178,128,156225,6,0,P|143:199|159:303,1,170,4|0,0:0|0:0,0:0:0:0:
164,320,156620,1,0,0:0:0:0:
164,320,156699,1,8,0:0:0:0:
244,376,156857,1,0,0:0:0:0:
72,328,157015,1,2,0:0:0:0:
72,328,157173,1,0,0:0:0:0:
252,280,157330,2,0,P|296:272|336:252,1,85,8|0,0:0|0:0,0:0:0:0:
380,152,157646,5,2,0:0:0:0:
464,268,157804,1,0,0:0:0:0:
268,192,157962,2,0,P|216:180|168:180,1,85,8|0,0:0|0:0,0:0:0:0:
84,200,158278,1,2,0:0:0:0:
84,200,158436,1,0,0:0:0:0:
144,96,158594,1,8,0:0:0:0:
164,268,158752,6,0,P|192:304|320:296,1,170,4|0,0:0|0:0,0:0:0:0:
380,152,159225,2,0,P|344:104|296:96,1,85,8|0,0:0|0:0,0:0:0:0:
232,116,159541,1,2,0:0:0:0:
272,16,159699,1,0,0:0:0:0:
292,188,159857,2,0,P|300:240|312:296,1,85,8|0,0:0|0:0,0:0:0:0:
164,368,160173,6,0,P|169:273|176:192,1,170,2|8,0:0|0:0,0:0:0:0:
136,116,160646,1,0,0:0:0:0:
136,116,160725,1,0,0:0:0:0:
136,116,160804,1,2,0:0:0:0:
64,216,160962,1,0,0:0:0:0:
264,176,161120,6,0,P|328:164|384:184,1,85,8|0,0:0|0:0,0:0:0:0:
384,176,161357,1,0,0:0:0:0:
384,176,161436,1,2,0:0:0:0:
304,80,161594,1,0,0:0:0:0:
284,264,161752,1,8,0:0:0:0:
184,196,161909,2,0,L|136:192,2,42.5,0|0|2,0:0|0:0|0:0,0:0:0:0:
104,268,162225,1,0,0:0:0:0:
136,116,162383,1,8,0:0:0:0:
204,272,162541,1,0,0:0:0:0:
264,144,162699,6,0,P|344:132|376:216,1,170,6|0,0:0|0:0,0:0:0:0:
384,300,163173,1,8,0:0:0:0:
276,248,163330,2,0,P|224:220|160:212,1,85,8|8,0:0|0:0,0:0:0:0:
40,248,163646,2,0,P|92:268|150:267,1,85,8|8,0:0|0:0,0:0:0:0:
192,108,163962,6,0,P|220:60|236:16,1,85,8|8,0:0|0:0,0:0:0:0:
344,136,164278,2,0,P|360:192|368:244,1,85,8|8,0:0|0:0,0:0:0:0:
312,352,164594,5,8,0:0:0:0:
272,204,164752,1,8,0:0:0:0:
204,336,164909,5,8,0:0:0:0:
384,300,165067,1,8,0:0:0:0:
184,224,165225,6,0,P|192:168|288:124,1,170,6|8,0:0|0:0,0:0:0:0:
384,144,165699,2,0,L|408:108,2,42.5,0|0|2,0:0|0:0|0:0,0:0:0:0:
316,208,166015,1,0,0:0:0:0:
468,172,166173,1,8,0:0:0:0:
292,120,166330,6,0,B|116:112,1,170,4|0,0:0|0:0,0:0:0:0:
32,168,166804,1,8,0:0:0:0:
96,36,166962,1,0,0:0:0:0:
128,212,167120,1,2,0:0:0:0:
128,212,167278,1,0,0:0:0:0:
264,212,167436,2,0,P|320:204|368:180,1,85,8|0,0:0|0:0,0:0:0:0:
448,88,167752,5,2,0:0:0:0:
340,44,167909,1,0,0:0:0:0:
340,44,167988,1,0,0:0:0:0:
340,44,168067,1,8,0:0:0:0:
384,172,168225,2,0,P|388:244|288:300,1,170,2|0,0:0|0:0,0:0:0:0:
316,300,168699,1,8,0:0:0:0:
56,188,168857,6,0,L|240:160,1,170,4|0,0:0|0:0,0:0:0:0:
324,120,169330,1,8,0:0:0:0:
217,245,169646,6,0,P|245:289|321:297,2,127.5,2|0|0,0:0|0:0|0:0,0:0:0:0:
236,96,170278,6,0,P|168:52|88:96,1,170,6|8,0:0|0:0,0:0:0:0:
148,196,170752,1,0,0:0:0:0:
16,152,170909,1,2,0:0:0:0:
16,152,171067,1,0,0:0:0:0:
164,204,171225,2,0,P|208:208|268:208,1,85,8|0,0:0|0:0,0:0:0:0:
424,132,171541,1,2,0:0:0:0:
316,244,171857,5,0,0:0:0:0:
180,212,172015,1,0,0:0:0:0:
296,272,172173,5,0,0:0:0:0:
240,124,172330,1,0,0:0:0:0:
252,288,172488,5,0,0:0:0:0:
336,164,172646,1,0,0:0:0:0:
152,296,172804,5,6,0:0:0:0:
116,116,177857,6,0,P|152:136|224:128,1,85,2|0,0:0|0:0,0:0:0:0:
360,48,178173,2,0,P|316:40|272:40,1,85,2|0,0:0|0:0,0:0:0:0:
180,56,178488,1,2,0:0:0:0:
180,56,178646,1,0,0:0:0:0:
300,148,178804,2,0,P|316:192|320:248,1,85,2|0,0:0|0:0,0:0:0:0:
200,344,179120,6,0,P|184:288|176:232,1,85,2|0,0:0|0:0,0:0:0:0:
100,132,179436,2,0,P|60:112|8:120,1,85,2|0,0:0|0:0,0:0:0:0:
24,268,179752,2,0,P|84:264|124:236,1,85,2|0,0:0|0:0,0:0:0:0:
224,184,180067,1,2,0:0:0:0:
236,192,180383,6,0,P|284:192|328:188,1,85,2|0,0:0|0:0,0:0:0:0:
400,144,180699,1,0,0:0:0:0:
432,232,180857,1,0,0:0:0:0:
328,108,181015,2,0,P|296:72|280:36,1,85,2|0,0:0|0:0,0:0:0:0:
280,38,181330,1,0,0:0:0:0:
380,32,181488,1,0,0:0:0:0:
216,108,181646,5,2,0:0:0:0:
339,197,181962,1,0,0:0:0:0:
156,236,182278,1,2,0:0:0:0:
324,328,182594,1,0,0:0:0:0:
432,232,182909,6,0,P|436:168|428:136,1,85
424,112,183146,1,0,0:0:0:0:
424,112,183225,1,0,0:0:0:0:
238,219,183383,2,0,P|190:235|150:235,1,85
100,112,183699,1,0,0:0:0:0:
104,100,183778,1,0,0:0:0:0:
108,88,183857,1,0,0:0:0:0:
296,200,184015,1,0,0:0:0:0:
312,204,184094,1,0,0:0:0:0:
328,208,184173,6,0,L|384:212,3,42.5
352,132,184488,2,0,L|309:128,3,42.5
252,72,184804,2,0,P|184:64|148:56,1,85
64,152,185120,2,0,P|124:156|184:168,1,85
296,200,185436,5,0,0:0:0:0:
261,283,185593,1,0,0:0:0:0:
257,295,185672,1,0,0:0:0:0:
252,307,185751,2,0,L|194:301,3,42.5
200,377,186067,2,0,L|142:371,3,42.5
43,376,186383,2,0,P|33:338|42:292,1,85
94,228,186699,5,8,0:0:0:0:
267,268,186857,1,8,0:0:0:0:
148,168,187330,5,8,0:0:0:0:
324,212,187488,1,8,0:0:0:0:
336,220,187962,6,0,P|392:184|372:80,1,170,6|8,0:0|0:0,0:0:0:0:
316,24,188436,1,0,0:0:0:0:
224,108,188594,2,0,P|204:160|196:208,1,85,2|0,0:0|0:0,0:0:0:0:
236,276,188909,1,8,0:0:0:0:
104,224,189067,1,0,0:0:0:0:
304,136,189225,6,0,P|288:56|188:32,1,170,2|8,0:0|0:0,0:0:0:0:
120,64,189699,1,0,0:0:0:0:
168,184,189857,2,0,P|208:212|260:232,1,85,2|0,0:0|0:0,0:0:0:0:
152,312,190173,2,0,P|84:308|36:316,1,85,8|0,0:0|0:0,0:0:0:0:
296,336,190488,6,0,P|352:316|368:216,1,170,2|8,0:0|0:0,0:0:0:0:
332,124,190962,1,0,0:0:0:0:
456,188,191120,1,2,0:0:0:0:
456,188,191278,1,0,0:0:0:0:
284,216,191436,2,0,P|236:224|192:224,1,85,8|0,0:0|0:0,0:0:0:0:
72,108,191752,6,0,P|188:88|260:84,1,170,2|8,0:0|0:0,0:0:0:0:
332,124,192225,1,0,0:0:0:0:
208,168,192383,1,2,0:0:0:0:
320,24,192541,1,0,0:0:0:0:
284,216,192699,2,0,P|276:280|264:320,1,85,8|0,0:0|0:0,0:0:0:0:
208,168,193015,6,0,P|256:128|366:173,1,170,2|8,0:0|0:0,0:0:0:0:
396,256,193488,1,0,0:0:0:0:
448,120,193646,1,2,0:0:0:0:
448,120,193804,1,0,0:0:0:0:
284,216,193962,2,0,P|232:232|164:240,1,85,8|0,0:0|0:0,0:0:0:0:
80,80,194278,6,0,P|136:76|268:100,1,170,2|8,0:0|0:0,0:0:0:0:
344,136,194752,1,0,0:0:0:0:
184,196,194909,2,0,P|152:240|144:296,1,85,2|0,0:0|0:0,0:0:0:0:
284,376,195225,2,0,P|296:332|292:276,1,85,8|0,0:0|0:0,0:0:0:0:
252,132,195541,6,0,P|256:80|276:28,1,85,2|0,0:0|0:0,0:0:0:0:
428,152,195857,2,0,P|396:204|352:228,1,85,8|0,0:0|0:0,0:0:0:0:
280,228,196173,1,2,0:0:0:0:
376,332,196330,1,0,0:0:0:0:
344,136,196488,1,8,0:0:0:0:
248,308,196646,5,8,0:0:0:0:
248,308,196725,1,8,0:0:0:0:
248,308,196804,2,0,P|160:280|168:192,1,170,6|8,0:0|0:0,0:0:0:0:
124,108,197278,1,0,0:0:0:0:
48,232,197436,2,0,L|-8:252,3,42.5,2|0|0|0,0:0|0:0|0:0|0:0,0:0:0:0:
68,300,197752,2,0,L|108:285,3,42.5,8|0|8|8,0:0|0:0|0:0|0:0,0:0:0:0:
136,204,198067,6,0,P|216:172|308:132,1,170,6|8,0:0|0:0,0:0:0:0:
356,72,198541,1,0,0:0:0:0:
392,200,198699,1,2,0:0:0:0:
392,200,198857,1,0,0:0:0:0:
220,96,199015,2,0,P|172:80|120:88,1,85,8|0,0:0|0:0,0:0:0:0:
48,232,199330,6,0,P|100:284|204:268,1,170,2|8,0:0|0:0,0:0:0:0:
232,196,199804,1,0,0:0:0:0:
268,324,199962,1,2,0:0:0:0:
136,204,200120,1,0,0:0:0:0:
316,224,200278,2,0,P|368:232|420:236,1,85,8|0,0:0|0:0,0:0:0:0:
360,100,200594,6,0,P|308:84|268:80,1,85,2|0,0:0|0:0,0:0:0:0:
52,84,200909,2,0,P|36:132|48:180,1,85,8|0,0:0|0:0,0:0:0:0:
120,272,201225,1,2,0:0:0:0:
16,240,201383,1,0,0:0:0:0:
192,144,201541,2,0,P|252:132|316:132,1,85,8|0,0:0|0:0,0:0:0:0:
432,236,201857,6,0,P|408:284|296:272,1,170,2|8,0:0|0:0,0:0:0:0:
248,200,202330,1,0,0:0:0:0:
268,368,202488,1,2,0:0:0:0:
268,368,202646,1,0,0:0:0:0:
156,280,202804,2,0,P|132:236|120:188,1,85,8|0,0:0|0:0,0:0:0:0:
294,39,203120,6,0,P|286:119|242:207,1,170,2|8,0:0|0:0,0:0:0:0:
184,128,203594,1,0,0:0:0:0:
244,288,203752,1,2,0:0:0:0:
244,288,203909,1,0,0:0:0:0:
100,228,204067,2,0,P|52:216|12:192,1,85,8|0,0:0|0:0,0:0:0:0:
296,144,204383,6,0,P|356:192|340:288,1,170,2|8,0:0|0:0,0:0:0:0:
288,356,204857,1,0,0:0:0:0:
452,312,205015,1,2,0:0:0:0:
452,312,205173,1,0,0:0:0:0:
244,288,205330,2,0,P|176:272|148:260,1,85,8|0,0:0|0:0,0:0:0:0:
392,88,205646,6,0,L|380:264,1,170,2|8,0:0|0:0,0:0:0:0:
380,348,206120,1,0,0:0:0:0:
480,240,206278,1,2,0:0:0:0:
480,240,206436,1,0,0:0:0:0:
308,272,206594,2,0,P|256:288|204:288,1,85,8|0,0:0|0:0,0:0:0:0:
48,220,206909,6,0,P|60:148|156:136,1,170,2|8,0:0|0:0,0:0:0:0:
252,180,207383,2,0,L|276:124,2,42.5,0|0|2,0:0|0:0|0:0,0:0:0:0:
160,268,207699,5,0,0:0:0:0:
160,268,207778,1,0,0:0:0:0:
160,268,207857,2,0,L|216:284,3,42.5,8|0|8|8,0:0|0:0|0:0|0:0,0:0:0:0:
232,308,208173,6,0,P|300:320|344:304,1,85,2|0,0:0|0:0,0:0:0:0:
468,180,208488,2,0,P|408:168|364:172,1,85
252,180,208804,2,0,P|204:184|152:172,1,85,2|0,0:0|0:0,0:0:0:0:
140,168,209041,1,0,0:0:0:0:
140,168,209120,1,0,0:0:0:0:
160,268,209278,1,0,0:0:0:0:
208,100,209436,5,8,0:0:0:0:
252,264,209594,1,8,0:0:0:0:
308,112,209752,1,8,0:0:0:0:
340,224,209909,1,8,0:0:0:0:
212,124,210067,5,8,0:0:0:0:
160,268,210225,1,8,0:0:0:0:
328,208,210383,1,8,0:0:0:0:
108,196,210541,1,6,0:0:0:0:
256,192,210620,12,0,215752,0:0:0:0:
