osu file format v14

[General]
AudioFilename: Yakimochi no Kotae.mp3
AudioLeadIn: 2000
PreviewTime: 53436
Countdown: 0
SampleSet: Soft
StackLeniency: 0.7
Mode: 0
LetterboxInBreaks: 0
WidescreenStoryboard: 0

[Editor]
DistanceSpacing: 1
BeatDivisor: 2
GridSize: 4
TimelineZoom: 1.2

[Metadata]
Title:Yakimochi no Kotae feat.Mochizuki Souta (CV:Kaji Yuki)
TitleUnicode:ヤキモチの答え feat.望月蒼太(CV:梶裕貴)
Artist:HoneyWorks
ArtistUnicode:HoneyWorks
Creator:Synpoo
Version:Easy
Source:
Tags:a solution for jealousy cover gumi vocaloid
BeatmapID:752370
BeatmapSetID:339672

[Difficulty]
HPDrainRate:2
CircleSize:3
OverallDifficulty:2
ApproachRate:3
SliderMultiplier:0.799999999999999
SliderTickRate:1

[Events]
//Background and Video events
0,0,"BG.png",0,0
//Break Periods
2,76846,85469
2,145057,153680
2,173004,176417
//Storyboard Layer 0 (Background)
//Storyboard Layer 1 (Fail)
//Storyboard Layer 2 (Pass)
//Storyboard Layer 3 (Foreground)
//Storyboard Sound Samples

[TimingPoints]
1015,315.789473684211,4,2,1,50,1,0
2751,-100,4,3,1,50,0,0
6540,-100,4,2,2,50,0,0
7645,-100,4,2,1,50,0,0
18698,-100,4,2,1,35,0,0
28803,-100,4,2,1,50,0,0
38908,-100,4,2,1,35,0,0
43961,-100,4,2,1,40,0,0
49014,-100,4,2,1,50,0,0
54067,-100,4,2,2,50,0,1
74278,-100,4,2,1,50,0,0
86908,-100,4,2,1,35,0,0
97014,-100,4,2,1,50,0,0
107119,-100,4,2,1,35,0,0
112172,-100,4,2,1,40,0,0
117224,-100,4,2,1,50,0,0
122278,-100,4,2,2,50,0,1
142488,-100,4,3,1,50,0,0
155119,-100,4,2,1,50,0,0
177856,-100,4,2,1,40,0,0
187962,-100,4,2,2,50,0,1
208172,-100,4,2,1,50,0,0
213224,-100,4,2,1,40,0,0
215751,-76.9230769230769,4,2,1,5,0,0

[Colours]
Combo1 : 45,159,253
Combo2 : 239,52,52
Combo3 : 252,133,46
Combo4 : 153,94,225
Combo5 : 255,89,172

[HitObjects]
40,100,1015,6,0,P|20:180|48:268,1,160,2|0,0:0|0:0,0:0:0:0:
110,289,1962,1,0,0:0:0:0:
180,252,2278,2,0,P|200:172|172:84,1,160,2|0,0:0|0:0,0:0:0:0:
128,36,3225,1,0,0:0:0:0:
208,20,3541,6,0,L|380:28,1,160,4|0,0:0|0:0,0:0:0:0:
444,56,4488,1,0,0:0:0:0:
404,128,4804,2,0,B|236:144,1,160,4|0,0:0|0:0,0:0:0:0:
164,156,5752,1,0,0:0:0:0:
96,112,6067,6,0,P|84:176|125:226,2,120,4|8|8,0:0|0:0|0:0,0:0:0:0:
152,56,7330,2,0,L|236:52,1,79.9999999999999,8|8,0:0|0:0,0:0:0:0:
304,84,7962,1,4,0:0:0:0:
420,196,8594,6,0,P|324:212|248:176,1,160,2|0,0:0|0:0,0:0:0:0:
208,136,9541,1,8,0:0:0:0:
184,212,9857,2,0,P|164:292|192:380,1,160,2|0,0:0|0:0,0:0:0:0:
264,364,10804,1,8,0:0:0:0:
344,364,11120,6,0,P|363:287|343:210,1,160,2|0,0:0|0:0,0:0:0:0:
276,164,12067,1,8,0:0:0:0:
196,176,12383,2,0,P|196:228|208:272,1,79.9999999999999,2|8,0:0|0:0,0:0:0:0:
132,292,13015,2,0,P|116:248|96:212,1,79.9999999999999,0|8,0:0|0:0,0:0:0:0:
52,156,13646,5,2,0:0:0:0:
152,32,14278,2,0,L|264:36,2,79.9999999999999,0|8|0,0:0|0:0|0:0,0:0:0:0:
108,100,15225,1,8,0:0:0:0:
188,112,15541,2,0,L|192:216,1,79.9999999999999,2|8,0:0|0:0,0:0:0:0:
192,272,16173,5,2,0:0:0:0:
324,184,16804,2,0,P|368:176|412:160,1,79.9999999999999,2|8,0:0|0:0,0:0:0:0:
355,94,17436,2,0,P|461:103|390:251,1,320,2|4,0:0|0:0,0:0:0:0:
244,224,19330,6,0,P|196:220|136:204,1,79.9999999999999
84,200,19962,2,0,P|84:240|76:288,2,79.9999999999999,2|0|0,0:0|0:0|0:0,0:0:0:0:
68,120,20909,1,0,0:0:0:0:
140,88,21225,6,0,P|192:100|220:96,1,79.9999999999999,2|0,0:0|0:0,0:0:0:0:
280,44,21857,2,0,P|322:47|372:68,1,79.9999999999999
404,124,22488,1,2,0:0:0:0:
292,248,23120,6,0,P|244:240|192:240,2,79.9999999999999,0|0|2,0:0|0:0|0:0,0:0:0:0:
372,280,24067,1,0,0:0:0:0:
364,200,24383,2,0,P|356:124|288:60,1,160,0|2,0:0|0:0,0:0:0:0:
224,40,25330,1,0,0:0:0:0:
112,156,25962,5,0,0:0:0:0:
180,200,26278,2,0,P|148:232|80:224,2,79.9999999999999,2|0|0,0:0|0:0|0:0,0:0:0:0:
196,120,27225,1,0,0:0:0:0:
272,96,27541,2,0,P|368:88|420:140,1,160,2|0,0:0|0:0,0:0:0:0:
452,196,28488,1,0,0:0:0:0:
437,274,28804,6,2,L|417:366,1,79.9999999999999,2|8,0:0|0:0,0:0:0:0:
340,336,29436,2,0,P|285:323|232:320,1,79.9999999999999,0|8,0:0|0:0,0:0:0:0:
180,308,30067,2,0,P|128:332|92:336,2,79.9999999999999,2|8|0,0:0|0:0|0:0,0:0:0:0:
188,228,31015,1,8,0:0:0:0:
124,180,31330,6,0,P|88:112|120:36,1,160,2|0,0:0|0:0,0:0:0:0:
196,20,32278,1,8,0:0:0:0:
276,32,32594,2,0,P|312:100|280:176,1,160,2|0,0:0|0:0,0:0:0:0:
232,232,33541,1,8,0:0:0:0:
304,268,33857,6,0,P|344:252|400:252,2,79.9999999999999,2|8|0,0:0|0:0|0:0,0:0:0:0:
236,316,34804,1,8,0:0:0:0:
156,300,35120,2,0,P|154:220|168:120,1,160,2|0,0:0|0:0,0:0:0:0:
188,64,36067,1,8,0:0:0:0:
268,84,36383,6,0,P|276:124|284:192,1,79.9999999999999,2|8,0:0|0:0,0:0:0:0:
308,236,37015,2,0,P|316:284|328:340,1,79.9999999999999
392,356,37646,1,2,0:0:0:0:
432,200,38278,2,0,P|392:132|284:112,1,160,2|4,0:0|0:0,0:0:0:0:
164,64,39541,6,0,L|160:164,1,79.9999999999999
80,132,40173,2,0,P|104:203|185:221,1,160,2|0,0:0|0:0,0:0:0:0:
256,196,41120,1,0,0:0:0:0:
328,156,41436,6,0,P|401:179|421:253,1,160,2|0,0:0|0:0,0:0:0:0:
376,320,42383,1,0,0:0:0:0:
300,348,42699,2,0,P|219:343|136:340,1,160,2|0,0:0|0:0,0:0:0:0:
88,276,43646,1,0,0:0:0:0:
148,220,43962,6,0,P|138:177|132:112,2,79.9999999999999,2|0|0,0:0|0:0|0:0,0:0:0:0:
224,240,44909,1,0,0:0:0:0:
292,200,45225,2,0,P|332:220|376:228,2,79.9999999999999,2|0|0,0:0|0:0|0:0,0:0:0:0:
268,124,46173,1,0,0:0:0:0:
328,72,46488,6,0,P|412:64|460:136,1,160,2|0,0:0|0:0,0:0:0:0:
484,192,47436,1,0,0:0:0:0:
444,264,47752,2,0,P|352:272|280:272,1,160,2|0,0:0|0:0,0:0:0:0:
220,224,48699,1,0,0:0:0:0:
168,164,49015,6,0,P|112:156|24:164,1,120,2|4,0:0|0:0,0:0:0:0:
32,280,49962,2,0,P|92:276|168:256,1,120,2|4,0:0|0:0,0:0:0:0:
252,200,50909,2,0,P|303:213|356:220,1,79.9999999999999
408,196,51541,1,4,0:0:0:0:
328,56,52173,6,0,P|228:40|152:72,1,160,2|4,0:0|0:0,0:0:0:0:
100,200,53436,1,8,0:0:0:0:
180,340,54067,6,0,L|364:340,1,160,2|0,0:0|0:0,0:0:0:0:
396,280,55015,1,8,0:0:0:0:
348,216,55330,2,0,L|164:216,1,160,2|0,0:0|0:0,0:0:0:0:
116,248,56278,1,8,0:0:0:0:
44,212,56594,6,0,P|64:120|80:56,1,160,2|0,0:0|0:0,0:0:0:0:
156,32,57541,1,8,0:0:0:0:
232,56,57857,2,0,P|244:136|172:184,1,160,2|0,0:0|0:0,0:0:0:0:
112,156,58804,1,8,0:0:0:0:
60,216,59120,6,0,P|116:296|188:336,1,160,2|0,0:0|0:0,0:0:0:0:
248,320,60067,1,8,0:0:0:0:
328,324,60383,2,0,P|393:278|435:211,1,160,2|0,0:0|0:0,0:0:0:0:
408,136,61330,1,8,0:0:0:0:
328,120,61646,6,0,P|308:80|296:28,2,79.9999999999999,2|8|0,0:0|0:0|0:0,0:0:0:0:
344,200,62594,1,8,0:0:0:0:
328,280,62909,1,6,0:0:0:0:
180,316,63541,2,0,P|136:328|88:312,1,79.9999999999999
56,256,64173,6,0,P|28:216|20:173,2,79.9999999999999,2|8|0,0:0|0:0|0:0,0:0:0:0:
136,244,65120,1,8,0:0:0:0:
160,168,65436,2,0,P|240:160|320:164,1,160,2|0,0:0|0:0,0:0:0:0:
380,216,66383,1,8,0:0:0:0:
352,292,66699,6,0,P|308:292|244:304,2,79.9999999999999,2|8|0,0:0|0:0|0:0,0:0:0:0:
432,284,67646,1,8,0:0:0:0:
460,208,67962,2,0,P|452:124|400:60,1,160,2|0,0:0|0:0,0:0:0:0:
328,80,68909,1,8,0:0:0:0:
280,148,69225,6,0,P|168:164|108:56,1,240,2|8,0:0|0:0,0:0:0:0:
28,84,70488,2,0,P|32:124|32:176,1,79.9999999999999,2|8,0:0|0:0,0:0:0:0:
80,228,71120,2,0,P|88:292|92:340,1,79.9999999999999,0|8,0:0|0:0,0:0:0:0:
168,284,71752,6,0,P|284:260|332:220,1,160,2|0,0:0|0:0,0:0:0:0:
336,160,72699,1,8,0:0:0:0:
416,172,73015,2,0,L|440:256,2,79.9999999999999,2|8|0,0:0|0:0|0:0,0:0:0:0:
424,88,73962,1,0,0:0:0:0:
352,52,74278,5,2,0:0:0:0:
284,96,74594,2,0,P|239:98|180:96,1,79.9999999999999
136,140,75225,1,0,0:0:0:0:
168,216,75541,2,0,P|312:216|384:324,1,280,2|4,0:0|0:0,0:0:0:0:
80,232,86909,6,0,P|140:240|188:240,1,79.9999999999999,2|0,0:0|0:0,0:0:0:0:
232,212,87541,2,0,P|280:204|336:200,1,79.9999999999999
392,216,88173,2,0,P|368:140|304:124,2,120,2|0|0,0:0|0:0|0:0,0:0:0:0:
352,284,89436,6,0,L|260:296,2,79.9999999999999,2|0|0,0:0|0:0|0:0,0:0:0:0:
432,292,90383,1,0,0:0:0:0:
472,224,90699,1,2,0:0:0:0:
356,116,91330,2,0,L|248:124,1,79.9999999999999
196,104,91962,6,0,P|140:80|96:80,2,79.9999999999999,2|0|0,0:0|0:0|0:0,0:0:0:0:
224,180,92909,1,0,0:0:0:0:
152,216,93225,2,0,P|156:276|184:320,1,79.9999999999999,2|0,0:0|0:0,0:0:0:0:
304,216,94173,1,0,0:0:0:0:
352,152,94488,6,0,P|316:56|236:28,1,160,4|0,0:0|0:0,0:0:0:0:
192,20,95436,1,0,0:0:0:0:
168,96,95752,2,0,P|186:172|250:216,1,160,2|4,0:0|0:0,0:0:0:0:
376,116,97015,6,0,L|372:204,2,79.9999999999999,6|8|0,0:0|0:0|0:0,0:0:0:0:
304,80,97962,2,0,P|264:84|220:100,1,79.9999999999999,8|2,0:0|0:0,0:0:0:0:
200,176,98594,2,0,P|144:168|104:148,1,79.9999999999999,8|0,0:0|0:0,0:0:0:0:
80,92,99225,1,8,0:0:0:0:
32,156,99541,6,0,L|40:244,1,79.9999999999999,2|8,0:0|0:0,0:0:0:0:
76,308,100173,2,0,P|132:292|168:296,2,79.9999999999999,0|8|2,0:0|0:0|0:0,0:0:0:0:
196,204,101436,2,0,P|196:156|192:112,1,79.9999999999999,2|8,0:0|0:0,0:0:0:0:
192,44,102067,6,0,P|231:40|271:42,2,79.9999999999999,2|8|0,0:0|0:0|0:0,0:0:0:0:
116,64,103015,1,8,0:0:0:0:
108,144,103330,2,0,P|108:188|112:228,1,79.9999999999999,2|8,0:0|0:0,0:0:0:0:
268,256,104278,1,8,0:0:0:0:
348,248,104594,6,0,P|392:252|432:228,1,79.9999999999999,2|8,0:0|0:0,0:0:0:0:
492,196,105225,2,0,P|456:163|412:160,1,79.9999999999999,2|8,0:0|0:0,0:0:0:0:
346,169,105857,1,4,0:0:0:0:
188,144,106488,1,0,0:0:0:0:
96,276,107120,6,0,P|140:280|204:272,1,79.9999999999999,2|0,0:0|0:0,0:0:0:0:
232,220,107752,2,0,P|276:208|324:204,1,79.9999999999999
388,228,108383,2,0,P|412:160|388:60,1,160,2|0,0:0|0:0,0:0:0:0:
236,92,109646,6,0,P|188:111|140:132,1,79.9999999999999,2|0,0:0|0:0,0:0:0:0:
200,196,110278,2,0,P|247:176|296:156,1,79.9999999999999,2|0,0:0|0:0,0:0:0:0:
320,96,110909,2,0,P|396:80|460:136,1,160,2|0,0:0|0:0,0:0:0:0:
476,208,111857,1,0,0:0:0:0:
456,288,112173,6,0,B|428:328|368:344,1,79.9999999999999,2|0,0:0|0:0,0:0:0:0:
312,344,112804,2,0,P|240:328|200:328,1,79.9999999999999,2|0,0:0|0:0,0:0:0:0:
164,292,113436,1,2,0:0:0:0:
216,228,113752,2,0,L|208:148,2,79.9999999999999,0|2|0,0:0|0:0|0:0,0:0:0:0:
292,252,114699,6,0,P|388:236|428:172,1,160,2|2,0:0|0:0,0:0:0:0:
424,108,115646,1,0,0:0:0:0:
352,72,115962,2,0,P|264:60|192:56,1,160,2|2,0:0|0:0,0:0:0:0:
112,44,116909,1,0,0:0:0:0:
144,120,117225,6,0,P|160:176|168:244,1,120,2|4,0:0|0:0,0:0:0:0:
84,320,118173,2,0,P|68:264|60:196,1,120,2|4,0:0|0:0,0:0:0:0:
52,84,119120,2,0,P|102:78|144:72,1,79.9999999999999
208,48,119752,1,4,0:0:0:0:
272,196,120383,6,0,P|184:200|108:216,1,160,2|4,0:0|0:0,0:0:0:0:
204,348,121646,1,8,0:0:0:0:
364,328,122278,6,0,P|412:252|396:160,1,160,2|0,0:0|0:0,0:0:0:0:
364,116,123225,1,8,0:0:0:0:
288,140,123541,2,0,P|240:216|232:304,1,160,2|0,0:0|0:0,0:0:0:0:
204,360,124488,1,8,0:0:0:0:
148,304,124804,6,0,P|72:272|40:272,1,79.9999999999999,2|8,0:0|0:0,0:0:0:0:
44,200,125436,2,0,P|112:176|144:160,1,79.9999999999999,0|8,0:0|0:0,0:0:0:0:
156,100,126067,2,0,P|220:48|320:60,1,160,2|0,0:0|0:0,0:0:0:0:
376,60,127015,1,8,0:0:0:0:
360,140,127330,6,0,P|352:224|336:304,1,160,2|0,0:0|0:0,0:0:0:0:
264,264,128278,1,8,0:0:0:0:
240,188,128594,2,0,P|176:204|148:232,2,79.9999999999999,2|8|0,0:0|0:0|0:0,0:0:0:0:
320,192,129541,1,8,0:0:0:0:
396,168,129857,6,0,L|424:88,1,79.9999999999999,2|8,0:0|0:0,0:0:0:0:
352,52,130488,2,0,L|264:28,1,79.9999999999999,0|8,0:0|0:0,0:0:0:0:
200,60,131120,1,6,0:0:0:0:
100,184,131752,2,0,L|196:168,1,79.9999999999999
256,156,132383,6,0,P|356:164|392:224,1,160,2|0,0:0|0:0,0:0:0:0:
400,288,133330,1,8,0:0:0:0:
340,340,133646,2,0,P|240:332|204:272,1,160,2|0,0:0|0:0,0:0:0:0:
176,216,134594,1,8,0:0:0:0:
128,152,134909,6,0,P|168:136|224:156,1,79.9999999999999,2|8,0:0|0:0,0:0:0:0:
264,196,135541,2,0,P|336:192|372:180,1,79.9999999999999,0|8,0:0|0:0,0:0:0:0:
420,164,136173,2,0,L|428:248,2,79.9999999999999,2|8|0,0:0|0:0|0:0,0:0:0:0:
392,88,137120,1,8,0:0:0:0:
328,136,137436,6,0,P|272:132|160:92,1,160,2|0,0:0|0:0,0:0:0:0:
96,120,138383,1,8,0:0:0:0:
104,200,138699,2,0,P|160:204|272:244,1,160,2|0,0:0|0:0,0:0:0:0:
300,304,139646,1,8,0:0:0:0:
376,276,139962,6,0,L|400:184,1,79.9999999999999,2|8,0:0|0:0,0:0:0:0:
372,120,140594,2,0,P|332:100|272:112,1,79.9999999999999,0|8,0:0|0:0,0:0:0:0:
220,120,141225,2,0,L|208:40,2,79.9999999999999,2|8|0,0:0|0:0|0:0,0:0:0:0:
176,188,142173,1,0,0:0:0:0:
212,260,142488,6,0,P|272:280|304:272,1,79.9999999999999,2|0,0:0|0:0,0:0:0:0:
328,208,143120,2,0,P|384:188|440:196,1,79.9999999999999
484,180,143752,2,0,P|436:48|308:40,1,280,0|6,0:0|0:0,0:0:0:0:
288,288,155120,6,0,P|240:228|152:220,1,160,6|0,0:0|0:0,0:0:0:0:
84,192,156067,1,8,0:0:0:0:
92,112,156383,2,0,P|152:72|240:96,1,160,2|0,0:0|0:0,0:0:0:0:
292,148,157330,1,8,0:0:0:0:
372,132,157646,6,0,L|392:40,1,79.9999999999999,2|8,0:0|0:0,0:0:0:0:
460,92,158278,2,0,L|431:223,1,120,0|4,0:0|0:0,0:0:0:0:
320,240,159225,1,8,0:0:0:0:
248,276,159541,2,0,P|208:288|152:296,1,79.9999999999999,2|8,0:0|0:0,0:0:0:0:
96,264,160173,6,0,P|64:204|108:124,1,160,2|0,0:0|0:0,0:0:0:0:
180,112,161120,1,8,0:0:0:0:
256,136,161436,2,0,P|320:128|376:112,2,120,2|0|8,0:0|0:0|0:0,0:0:0:0:
204,196,162699,6,0,L|200:312,1,79.9999999999999,2|0,0:0|0:0,0:0:0:0:
280,296,163330,2,0,L|284:212,2,79.9999999999999
360,280,164278,1,0,0:0:0:0:
384,204,164594,2,0,P|388:148|396:96,1,79.9999999999999,8|8,0:0|0:0,0:0:0:0:
460,84,165225,6,0,P|416:48|368:52,1,79.9999999999999,6|8,0:0|0:0,0:0:0:0:
320,72,165857,1,0,0:0:0:0:
204,48,166330,2,0,L|216:172,1,120,4|8,0:0|0:0,0:0:0:0:
244,244,167120,2,0,P|308:256|348:252,1,79.9999999999999,0|8,0:0|0:0,0:0:0:0:
336,176,167752,6,0,P|380:196|400:224,1,79.9999999999999,2|8,0:0|0:0,0:0:0:0:
388,300,168383,1,0,0:0:0:0:
276,336,168857,2,0,P|200:328|136:312,1,120,2|8,0:0|0:0,0:0:0:0:
100,260,169646,2,0,P|120:192|200:208,1,160,2|4,0:0|0:0,0:0:0:0:
352,240,170909,6,0,L|340:152,1,79.9999999999999,2|8,0:0|0:0,0:0:0:0:
260,152,171541,2,0,L|236:64,1,79.9999999999999,2|0,0:0|0:0,0:0:0:0:
172,28,172173,1,0,0:0:0:0:
96,52,172488,1,0,0:0:0:0:
68,128,172804,1,4,0:0:0:0:
100,296,177857,6,0,P|168:324|200:328,1,79.9999999999999,2|0,0:0|0:0,0:0:0:0:
216,256,178488,2,0,P|276:240|316:244,1,79.9999999999999,2|0,0:0|0:0,0:0:0:0:
364,280,179120,2,0,L|388:200,2,79.9999999999999,2|0|2,0:0|0:0|0:0,0:0:0:0:
300,324,180067,1,0,0:0:0:0:
220,312,180383,6,0,P|176:304|120:308,1,79.9999999999999,2|0,0:0|0:0,0:0:0:0:
60,300,181015,2,0,P|64:249|72:208,1,79.9999999999999
88,144,181646,5,2,0:0:0:0:
148,196,181962,2,0,P|188:212|240:200,1,79.9999999999999
296,176,182594,1,0,0:0:0:0:
256,192,182909,12,0,186699,0:0:0:0:
452,300,187962,6,0,P|376:340|276:304,1,160,2|0,0:0|0:0,0:0:0:0:
256,264,188909,1,8,0:0:0:0:
188,308,189225,2,0,P|132:236|68:168,1,160,2|0,0:0|0:0,0:0:0:0:
68,108,190173,1,8,0:0:0:0:
136,68,190488,6,0,P|192:140|256:208,1,160,2|0,0:0|0:0,0:0:0:0:
260,268,191436,1,8,0:0:0:0:
328,312,191752,2,0,P|380:308|420:272,1,79.9999999999999,2|8,0:0|0:0,0:0:0:0:
472,256,192383,2,0,P|432:220|392:216,1,79.9999999999999,0|8,0:0|0:0,0:0:0:0:
336,180,193015,6,0,P|248:172|144:180,1,160,2|0,0:0|0:0,0:0:0:0:
148,248,193962,1,8,0:0:0:0:
76,284,194278,2,0,L|60:200,1,79.9999999999999,2|8,0:0|0:0,0:0:0:0:
104,136,194909,2,0,L|124:44,1,79.9999999999999,0|8,0:0|0:0,0:0:0:0:
196,84,195541,6,0,P|236:104|292:88,2,79.9999999999999,2|8|0,0:0|0:0|0:0,0:0:0:0:
252,24,196488,1,8,0:0:0:0:
328,44,196804,1,2,0:0:0:0:
424,172,197436,2,0,L|416:268,1,79.9999999999999
400,332,198067,6,0,P|336:344|224:300,1,160
200,252,199015,1,8,0:0:0:0:
252,192,199330,2,0,P|316:180|428:224,1,160,2|0,0:0|0:0,0:0:0:0:
476,172,200278,1,8,0:0:0:0:
440,100,200594,6,0,P|368:108|328:104,1,79.9999999999999,2|8,0:0|0:0,0:0:0:0:
292,68,201225,2,0,P|256:56|188:56,1,79.9999999999999,0|8,0:0|0:0,0:0:0:0:
136,52,201857,2,0,L|148:148,2,79.9999999999999,2|8|0,0:0|0:0|0:0,0:0:0:0:
60,76,202804,1,8,0:0:0:0:
61,155,203120,6,0,P|116:218|211:190,1,160,2|0,0:0|0:0,0:0:0:0:
252,164,204067,1,8,0:0:0:0:
328,136,204383,2,0,P|340:180|360:300,1,160,2|0,0:0|0:0,0:0:0:0:
300,348,205330,1,8,0:0:0:0:
232,304,205646,6,0,P|184:296|156:260,1,79.9999999999999,2|8,0:0|0:0,0:0:0:0:
88,240,206278,2,0,P|120:204|176:200,1,79.9999999999999,0|8,0:0|0:0,0:0:0:0:
224,224,206909,1,2,0:0:0:0:
304,236,207225,2,0,L|312:144,1,79.9999999999999
300,76,207857,1,8,0:0:0:0:
236,124,208173,6,0,P|180:128|128:124,1,79.9999999999999,2|0,0:0|0:0,0:0:0:0:
84,164,208804,2,0,P|124:200|172:204,1,79.9999999999999,2|0,0:0|0:0,0:0:0:0:
228,212,209436,2,0,P|376:264|360:368,1,280,2|6,0:0|0:0,0:0:0:0:
256,192,210699,12,0,215752,0:0:0:0:
