osu file format v13

[General]
AudioFilename: YakimochinoKotaeMP3.mp3
AudioLeadIn: 0
PreviewTime: 53223
Countdown: 1
SampleSet: Soft
StackLeniency: 0.7
Mode: 0
LetterboxInBreaks: 1
WidescreenStoryboard: 0

[Editor]
DistanceSpacing: 1.5
BeatDivisor: 4
GridSize: 4
TimelineZoom: 1.4

[Metadata]
Title:Yakimochi no Kotae
TitleUnicode:ヤキモチの答え
Artist:HoneyWorks
ArtistUnicode:HoneyWorks
Creator:Valgas
Version:Insane
Source:
Tags:Vocaloid Gumi A Solution for Jealousy
BeatmapID:557340
BeatmapSetID:241293

[Difficulty]
HPDrainRate:6
CircleSize:4
OverallDifficulty:7.2
ApproachRate:9
SliderMultiplier:1.7
SliderTickRate:1

[Events]
//Background and Video events
0,0,"YakimochinoKotaeBG.png",0,0
Video,0,"YakimochinoKotaePV.avi"
//Break Periods
2,76632,84832
2,144842,151779
2,172790,177043
//Storyboard Layer 0 (Background)
//Storyboard Layer 1 (Fail)
//Storyboard Layer 2 (Pass)
//Storyboard Layer 3 (Foreground)
//Storyboard Sound Samples
//Background Colour Transformations
3,100,163,162,255

[TimingPoints]
801,315.789473684211,4,2,1,80,1,0
18485,-100,4,2,1,60,0,0
28590,-100,4,2,1,70,0,0
38695,-133.333333333333,4,2,1,50,0,0
43748,-100,4,2,2,70,0,0
46274,-100,4,2,1,70,0,0
53853,-100,4,2,1,80,0,1
76432,-100,4,2,1,80,0,0
86695,-100,4,2,1,60,0,0
96801,-100,4,2,1,70,0,0
106905,-133.333333333333,4,2,1,50,0,0
111958,-100,4,2,1,70,0,0
122063,-100,4,2,1,80,0,1
144642,-100,4,2,1,90,0,0
154906,-100,4,2,1,80,0,1
172590,-133.333333333333,4,2,1,25,0,0
177643,-100,4,2,1,50,0,0
180169,-133.333333333333,4,2,1,25,0,0
182695,-100,4,2,1,70,0,0
187748,-100,4,2,1,80,0,1
210327,-100,4,2,1,75,0,0

[HitObjects]
256,112,643,6,0,L|256:69,2,42.5,8|8|8,0:0|0:0|0:0,0:0:0:0:
256,284,1116,1,0,0:0:0:0:
156,148,1432,1,0,0:0:0:0:
356,236,1748,1,0,0:0:0:0:
356,148,1906,1,8,0:0:0:0:
356,148,1985,1,8,0:0:0:0:
356,148,2064,5,8,0:0:0:0:
255,284,2379,2,0,P|238:321|202:343,1,85,0|8,0:0|0:0,0:0:0:0:
172,264,2695,2,0,P|132:278|91:268,1,85,0|8,0:0|0:0,0:0:0:0:
132,192,3011,2,0,P|94:174|72:138,1,85,0|0,0:0|0:0,0:0:0:0:
72,138,3248,1,0,0:0:0:0:
72,138,3327,5,2,0:0:0:0:
188,88,3485,1,8,0:0:0:0:
212,212,3643,1,0,0:0:0:0:
212,212,3722,1,0,0:0:0:0:
212,212,3801,1,0,0:0:0:0:
284,168,3958,2,0,L|369:168,1,85
456,316,4274,1,8,0:0:0:0:
456,316,4353,1,8,0:0:0:0:
456,316,4432,1,8,0:0:0:0:
371,316,4590,6,0,P|288:328|204:314,1,170,2|8,0:0|0:0,0:0:0:0:
168,296,4985,1,8,0:0:0:0:
168,296,5064,1,8,0:0:0:0:
256,204,5222,1,0,0:0:0:0:
284,80,5379,1,2,0:0:0:0:
308,84,5458,1,0,0:0:0:0:
332,92,5537,1,2,0:0:0:0:
352,104,5616,1,0,0:0:0:0:
368,124,5695,1,2,0:0:0:0:
380,148,5774,1,0,0:0:0:0:
384,172,5853,6,0,P|364:252|294:298,1,170,2|0,0:0|0:0,0:0:0:0:
256,176,6327,1,8,0:0:0:0:
192,120,6485,1,0,0:0:0:0:
192,120,6643,1,8,0:0:0:0:
340,40,6801,1,0,0:0:0:0:
340,40,6959,1,8,0:0:0:0:
420,68,7116,6,0,P|437:106|444:148,1,85,2|8,0:0|0:0,0:0:0:0:
444,192,7353,1,8,0:0:0:0:
444,192,7432,1,8,0:0:0:0:
320,224,7590,1,8,0:0:0:0:
320,224,7669,1,8,0:0:0:0:
320,224,7748,5,8,0:0:0:0:
256,32,7906,1,8,0:0:0:0:
256,32,8379,6,0,P|213:29|173:40,1,85,2|0,0:0|0:0,0:0:0:0:
136,208,8695,2,0,P|178:210|218:199,1,85,8|0,0:0|0:0,0:0:0:0:
200,116,9011,1,2,0:0:0:0:
284,132,9169,1,0,0:0:0:0:
256,292,9327,2,0,L|175:318,1,85,8|0,0:0|0:0,0:0:0:0:
256,292,9643,6,0,L|336:318,1,85,2|0,0:0|0:0,0:0:0:0:
412,280,9958,2,0,P|420:238|413:196,1,85,8|0,0:0|0:0,0:0:0:0:
380,116,10274,1,2,0:0:0:0:
252,136,10432,1,0,0:0:0:0:
332,236,10590,1,8,0:0:0:0:
332,236,10748,1,0,0:0:0:0:
380,116,10906,6,0,L|380:31,1,85,2|0,0:0|0:0,0:0:0:0:
296,32,11222,2,0,L|296:117,1,85,8|0,0:0|0:0,0:0:0:0:
340,280,11537,2,0,P|297:285|255:279,2,85,2|0|8,0:0|0:0|0:0,0:0:0:0:
396,216,12011,1,0,0:0:0:0:
444,144,12169,6,0,P|456:103|481:69,1,85,2|0,0:0|0:0,0:0:0:0:
352,140,12485,2,0,P|339:99|314:65,1,85,8|0,0:0|0:0,0:0:0:0:
264,136,12801,1,2,0:0:0:0:
96,120,12958,1,0,0:0:0:0:
164,276,13116,1,8,0:0:0:0:
184,108,13274,1,0,0:0:0:0:
263,135,13432,6,0,P|268:178|263:220,1,85,2|0,0:0|0:0,0:0:0:0:
224,56,13748,2,0,P|266:51|308:56,1,85,8|0,0:0|0:0,0:0:0:0:
256,308,14064,1,2,0:0:0:0:
256,308,14222,1,0,0:0:0:0:
168,164,14379,1,8,0:0:0:0:
344,164,14537,1,0,0:0:0:0:
328,248,14695,6,0,L|353:328,1,85,2|0,0:0|0:0,0:0:0:0:
184,248,15011,2,0,L|158:328,1,85,8|0,0:0|0:0,0:0:0:0:
256,192,15327,1,2,0:0:0:0:
256,192,15485,1,0,0:0:0:0:
256,276,15643,1,8,0:0:0:0:
256,108,15801,1,0,0:0:0:0:
183,152,15958,6,0,P|144:166|101:169,1,85,2|0,0:0|0:0,0:0:0:0:
124,44,16274,2,0,P|163:29|206:26,1,85,8|0,0:0|0:0,0:0:0:0:
410,169,16590,2,0,P|367:166|328:152,1,85,2|0,0:0|0:0,0:0:0:0:
305,26,16906,2,0,P|348:29|388:44,1,85,8|0,0:0|0:0,0:0:0:0:
256,152,17222,5,10,0:0:0:0:
136,192,17379,1,10,0:0:0:0:
112,200,17458,1,8,0:0:0:0:
88,208,17537,1,10,0:0:0:0:
180,352,17695,1,10,0:0:0:0:
211,364,17773,1,8,0:0:0:0:
245,367,17852,1,10,0:0:0:0:
277,359,17931,1,8,0:0:0:0:
306,342,18010,1,10,0:0:0:0:
329,316,18089,1,8,0:0:0:0:
342,285,18168,1,10,0:0:0:0:
345,251,18247,1,8,0:0:0:0:
337,218,18326,1,10,0:0:0:0:
320,189,18406,1,8,0:0:0:0:
295,167,18485,6,0,P|253:159|211:166,1,85,2|0,0:0|0:0,0:0:0:0:
168,240,18801,2,0,P|209:247|251:240,1,85,2|0,0:0|0:0,0:0:0:0:
320,192,19116,1,2,0:0:0:0:
320,192,19274,1,0,0:0:0:0:
340,108,19432,1,2,0:0:0:0:
340,108,19590,1,0,0:0:0:0:
404,164,19748,5,2,0:0:0:0:
256,132,19906,1,0,0:0:0:0:
296,280,20064,1,2,0:0:0:0:
236,340,20222,2,0,P|216:302|218:260,1,85,0|2,0:0|0:0,0:0:0:0:
256,184,20537,1,0,0:0:0:0:
296,108,20695,2,0,P|254:100|212:106,1,85,0|0,0:0|0:0,0:0:0:0:
140,152,21011,5,2,0:0:0:0:
52,239,21169,1,0,0:0:0:0:
174,220,21327,1,2,0:0:0:0:
65,164,21485,1,0,0:0:0:0:
120,275,21643,1,2,0:0:0:0:
140,152,21801,1,0,0:0:0:0:
52,239,21958,2,0,P|36:278|49:317,1,85,2|0,0:0|0:0,0:0:0:0:
120,274,22274,6,0,P|204:269|283:299,1,170,2|0,0:0|0:0,0:0:0:0:
364,328,22748,1,0,0:0:0:0:
411,256,22906,2,0,P|436:221|473:200,2,85,2|0|2,0:0|0:0|0:0,0:0:0:0:
492,280,23379,1,0,0:0:0:0:
492,103,23537,6,0,P|496:61|492:19,1,85,2|0,0:0|0:0,0:0:0:0:
335,63,23853,2,0,P|377:67|420:64,1,85,2|0,0:0|0:0,0:0:0:0:
416,148,24169,1,2,0:0:0:0:
416,148,24327,1,0,0:0:0:0:
280,216,24485,1,2,0:0:0:0:
408,300,24643,1,0,0:0:0:0:
367,224,24801,6,0,P|320:290|349:366,1,170,2|2,0:0|0:0,0:0:0:0:
444,196,25274,1,0,0:0:0:0:
444,196,25432,2,0,P|377:148|301:177,1,170,2|2,0:0|0:0,0:0:0:0:
256,248,25906,1,0,0:0:0:0:
172,248,26064,6,0,P|139:220|124:181,1,85,2|0,0:0|0:0,0:0:0:0:
160,105,26379,2,0,P|192:132|208:172,1,85,2|0,0:0|0:0,0:0:0:0:
172,248,26695,2,0,P|144:280|105:295,1,85,2|0,0:0|0:0,0:0:0:0:
160,104,27011,2,0,P|187:71|226:56,1,85,2|0,0:0|0:0,0:0:0:0:
312,56,27327,5,10,0:0:0:0:
412,136,27485,1,8,0:0:0:0:
424,160,27564,1,8,0:0:0:0:
436,184,27643,1,10,0:0:0:0:
359,336,27801,1,8,0:0:0:0:
328,347,27879,1,8,0:0:0:0:
294,351,27958,1,10,0:0:0:0:
260,348,28037,1,8,0:0:0:0:
228,337,28116,1,8,0:0:0:0:
199,320,28195,1,8,0:0:0:0:
174,297,28274,1,10,0:0:0:0:
155,269,28353,1,8,0:0:0:0:
142,237,28432,1,8,0:0:0:0:
137,204,28511,1,8,0:0:0:0:
139,170,28590,6,0,P|189:104|271:99,1,170,2|8,0:0|0:0,0:0:0:0:
348,132,29064,1,0,0:0:0:0:
428,100,29222,2,0,P|470:95|512:100,2,85,2|0|8,0:0|0:0|0:0,0:0:0:0:
468,176,29695,1,0,0:0:0:0:
388,200,29853,6,0,L|351:276,1,85,2|0,0:0|0:0,0:0:0:0:
231,328,30169,2,0,L|268:252,1,85,8|0,0:0|0:0,0:0:0:0:
300,172,30485,1,2,0:0:0:0:
312,340,30643,1,0,0:0:0:0:
395,328,30801,2,0,P|430:304|456:270,1,85,8|0,0:0|0:0,0:0:0:0:
492,192,31116,6,0,B|480:148|480:148|420:148|359:121,1,170,2|8,0:0|0:0,0:0:0:0:
276,136,31590,1,0,0:0:0:0:
220,200,31748,2,0,P|195:234|157:252,1,85,2|0,0:0|0:0,0:0:0:0:
212,80,32064,2,0,P|194:41|197:0,1,85,10|0,0:0|0:0,0:0:0:0:
356,83,32379,6,0,P|428:123|449:203,1,170,2|8,0:0|0:0,0:0:0:0:
384,260,32853,1,0,0:0:0:0:
268,156,33011,1,2,0:0:0:0:
236,304,33169,1,0,0:0:0:0:
384,260,33327,2,0,P|420:238|449:207,1,85,8|0,0:0|0:0,0:0:0:0:
372,172,33643,5,2,0:0:0:0:
372,34,33801,1,0,0:0:0:0:
291,145,33958,1,10,0:0:0:0:
421,103,34116,1,0,0:0:0:0:
291,60,34274,1,2,0:0:0:0:
372,172,34432,1,0,0:0:0:0:
372,34,34590,1,10,0:0:0:0:
291,145,34748,1,0,0:0:0:0:
421,103,34906,6,0,P|432:187|439:271,2,170,2|8|2,0:0|0:0|0:0,0:0:0:0:
372,36,35695,1,0,0:0:0:0:
292,60,35853,2,0,P|254:79|212:84,1,85,8|0,0:0|0:0,0:0:0:0:
132,112,36169,6,0,P|143:152|169:186,1,85,2|0,0:0|0:0,0:0:0:0:
132,264,36485,2,0,P|157:298|169:338,1,85,8|0,0:0|0:0,0:0:0:0:
342,338,36801,2,0,P|354:298|380:264,1,85,2|0,0:0|0:0,0:0:0:0:
342,186,37116,2,0,P|368:152|380:112,1,85,10|0,0:0|0:0,0:0:0:0:
256,28,37432,5,2,0:0:0:0:
256,28,37590,1,0,0:0:0:0:
256,112,37748,2,0,L|256:197,1,85,8|0,0:0|0:0,0:0:0:0:
256,197,37985,1,0,0:0:0:0:
256,197,38064,5,2,0:0:0:0:
256,284,38222,1,8,0:0:0:0:
256,284,38301,1,8,0:0:0:0:
256,284,38379,1,8,0:0:0:0:
180,152,38537,1,0,0:0:0:0:
331,152,38695,6,0,P|360:137|391:134,1,63.7500024318696,2|0,0:0|0:0,0:0:0:0:
388,216,39011,2,0,P|418:226|442:245,1,63.7500024318696,2|0,0:0|0:0,0:0:0:0:
380,300,39327,1,2,0:0:0:0:
380,300,39485,1,0,0:0:0:0:
296,300,39643,2,0,P|264:295|232:299,1,63.7500024318696,2|0,0:0|0:0,0:0:0:0:
164,348,39958,5,2,0:0:0:0:
112,284,40116,1,0,0:0:0:0:
180,236,40274,1,2,0:0:0:0:
232,300,40432,1,0,0:0:0:0:
104,204,40590,5,2,0:0:0:0:
104,204,40748,1,0,0:0:0:0:
167,152,40906,2,0,P|199:155|229:165,1,63.7500024318696,2|0,0:0|0:0,0:0:0:0:
256,244,41222,5,2,0:0:0:0:
256,244,41379,1,0,0:0:0:0:
316,300,41537,2,0,P|347:300|379:296,1,63.7500024318696,2|0,0:0|0:0,0:0:0:0:
408,220,41853,2,0,P|376:219|344:223,1,63.7500024318696,2|0,0:0|0:0,0:0:0:0:
264,236,42169,6,0,L|236:111,3,127.500004863739,2|2|2|2,0:0|0:0|0:0|0:0,0:0:0:0:
172,60,43274,1,0,0:0:0:0:
172,60,43353,1,0,0:0:0:0:
172,60,43432,1,2,0:0:0:0:
264,236,43590,1,0,0:0:0:0:
347,240,43748,6,0,P|352:197|346:155,1,85,10|0,0:0|0:0,0:0:0:0:
262,43,44064,2,0,P|258:85|264:128,1,85,8|0,0:0|0:0,0:0:0:0:
336,84,44379,2,0,P|378:78|420:82,1,85,10|0,0:0|0:0,0:0:0:0:
276,200,44695,2,0,P|233:205|191:201,1,85,8|0,0:0|0:0,0:0:0:0:
232,124,45011,6,0,L|232:294,2,170,10|0|10,0:0|0:0|0:0,0:0:0:0:
232,124,45958,1,8,0:0:0:0:
232,124,46116,1,0,0:0:0:0:
312,96,46274,6,0,P|354:95|391:114,1,85,2|8,0:0|0:0,0:0:0:0:
391,114,46511,1,8,0:0:0:0:
391,114,46590,1,8,0:0:0:0:
332,176,46748,1,0,0:0:0:0:
204,260,46906,1,2,0:0:0:0:
340,328,47064,1,8,0:0:0:0:
340,328,47143,1,8,0:0:0:0:
340,328,47222,1,8,0:0:0:0:
292,256,47379,1,8,0:0:0:0:
292,256,47458,1,8,0:0:0:0:
292,256,47537,6,8,L|281:214,3,42.5,0|8|8|8,0:0|0:0|0:0|0:0,0:0:0:0:
220,156,47853,2,8,L|209:114,3,42.5,10|8|8|8,0:0|0:0|0:0|0:0,0:0:0:0:
124,116,48169,2,8,L|113:157,3,42.5,10|8|8|8,0:0|0:0|0:0|0:0,0:0:0:0:
52,216,48485,2,8,L|41:257,3,42.5,10|8|8|8,0:0|0:0|0:0|0:0,0:0:0:0:
28,300,48801,5,8,0:0:0:0:
48,328,48879,1,8,0:0:0:0:
76,344,48958,2,0,P|117:352|159:348,1,85,8|0,0:0|0:0,0:0:0:0:
224,188,49275,5,8,0:0:0:0:
257,182,49353,1,8,0:0:0:0:
289,190,49432,2,0,P|324:213|351:245,1,85,8|0,0:0|0:0,0:0:0:0:
464,372,49748,5,8,0:0:0:0:
492,352,49826,1,8,0:0:0:0:
508,324,49906,2,0,P|516:282|512:240,1,85,8|0,0:0|0:0,0:0:0:0:
440,84,50222,1,8,0:0:0:0:
440,84,50301,1,8,0:0:0:0:
440,84,50379,2,0,P|398:77|355:76,1,85,8|0,0:0|0:0,0:0:0:0:
300,144,50695,2,0,P|257:143|215:136,1,85,2|0,0:0|0:0,0:0:0:0:
144,88,51011,1,2,0:0:0:0:
144,88,51169,1,0,0:0:0:0:
96,176,51327,6,0,L|84:216,3,42.5,10|8|8|8,0:0|0:0|0:0|0:0,0:0:0:0:
168,240,51643,2,0,L|180:200,3,42.5,10|8|8|8,0:0|0:0|0:0|0:0,0:0:0:0:
224,124,51958,5,10,0:0:0:0:
248,100,52037,1,8,0:0:0:0:
280,88,52116,1,8,0:0:0:0:
312,84,52195,1,8,0:0:0:0:
344,88,52274,1,8,0:0:0:0:
376,100,52353,1,8,0:0:0:0:
400,124,52432,1,8,0:0:0:0:
412,156,52511,1,8,0:0:0:0:
412,192,52590,6,0,B|408:260|408:260|399:274,1,85,10|8,0:0|0:0,0:0:0:0:
112,274,53222,2,0,B|104:260|104:260|100:192,1,85,10|8,0:0|0:0,0:0:0:0:
100,108,53537,5,2,0:0:0:0:
99,108,53853,6,0,P|128:77|169:68,1,85,2|0,0:0|0:0,0:0:0:0:
184,240,54169,2,0,P|155:270|114:279,1,85,8|0,0:0|0:0,0:0:0:0:
108,196,54485,1,2,0:0:0:0:
108,196,54643,1,0,0:0:0:0:
236,192,54801,2,0,L|321:192,1,85,8|0,0:0|0:0,0:0:0:0:
408,192,55116,6,0,P|440:115|407:39,2,170,2|8|2,0:0|0:0|0:0,0:0:0:0:
304,116,55906,1,0,0:0:0:0:
300,32,56064,2,0,P|257:27|215:32,1,85,8|0,0:0|0:0,0:0:0:0:
208,116,56379,6,0,L|196:200,1,85,2|0,0:0|0:0,0:0:0:0:
128,348,56695,2,0,L|140:264,1,85,8|0,0:0|0:0,0:0:0:0:
104,188,57011,1,2,0:0:0:0:
224,284,57169,1,0,0:0:0:0:
248,132,57327,1,8,0:0:0:0:
248,132,57485,1,0,0:0:0:0:
304,68,57643,6,0,B|392:48|392:76|472:68,2,170,2|8|2,0:0|0:0|0:0,0:0:0:0:
352,140,58432,1,0,0:0:0:0:
300,207,58590,2,0,P|296:250|299:292,1,85,8|0,0:0|0:0,0:0:0:0:
460,248,58906,6,0,P|417:244|375:247,1,85,2|0,0:0|0:0,0:0:0:0:
52,264,59222,2,0,P|94:267|136:264,1,85,8|0,0:0|0:0,0:0:0:0:
256,136,59537,1,2,0:0:0:0:
256,136,59695,1,0,0:0:0:0:
256,219,59853,2,0,P|251:262|255:304,1,85,8|0,0:0|0:0,0:0:0:0:
336,259,60169,6,0,P|404:215|407:134,2,170,2|8|2,0:0|0:0|0:0,0:0:0:0:
332,176,60958,1,0,0:0:0:0:
296,100,61116,2,0,P|253:94|211:98,1,85,8|0,0:0|0:0,0:0:0:0:
144,147,61432,6,0,P|137:189|136:232,1,85,2|0,0:0|0:0,0:0:0:0:
199,364,61748,2,0,P|208:322|207:279,1,85,10|0,0:0|0:0,0:0:0:0:
300,203,62064,2,0,L|216:196,1,85,2|0,0:0|0:0,0:0:0:0:
43,300,62379,2,0,L|128:308,1,85,10|0,0:0|0:0,0:0:0:0:
256,320,62695,5,10,0:0:0:0:
356,240,62853,1,8,0:0:0:0:
376,224,62932,1,8,0:0:0:0:
396,208,63011,1,8,0:0:0:0:
364,84,63169,1,8,0:0:0:0:
344,100,63248,1,8,0:0:0:0:
324,116,63327,1,8,0:0:0:0:
200,84,63485,1,8,0:0:0:0:
220,68,63564,1,8,0:0:0:0:
240,52,63643,1,8,0:0:0:0:
80,108,63801,1,8,0:0:0:0:
80,108,63879,1,8,0:0:0:0:
79,108,63958,6,0,P|113:183|191:208,1,170,2|8,0:0|0:0,0:0:0:0:
276,212,64432,1,2,0:0:0:0:
276,212,64511,1,0,0:0:0:0:
275,211,64590,2,0,P|311:231|336:265,1,85,2|0,0:0|0:0,0:0:0:0:
252,288,64906,1,8,0:0:0:0:
252,136,65064,1,0,0:0:0:0:
336,136,65222,6,0,P|416:137|456:67,2,170,2|8|2,0:0|0:0|0:0,0:0:0:0:
296,60,66011,1,0,0:0:0:0:
212,40,66169,2,0,P|173:57|141:85,1,85,8|0,0:0|0:0,0:0:0:0:
216,213,66485,2,0,L|216:128,1,85,2|0,0:0|0:0,0:0:0:0:
224,304,66801,2,0,P|262:286|294:258,1,85,8|0,0:0|0:0,0:0:0:0:
348,192,67116,1,2,0:0:0:0:
348,364,67274,1,0,0:0:0:0:
444,280,67432,1,8,0:0:0:0:
444,280,67590,1,0,0:0:0:0:
484,204,67748,6,0,B|500:120|472:120|483:34,2,170,2|8|2,0:0|0:0|0:0,0:0:0:0:
408,168,68537,1,0,0:0:0:0:
384,84,68695,2,0,P|347:105|320:137,1,85
191,246,69011,6,0,P|164:278|128:300,1,85,2|0,0:0|0:0,0:0:0:0:
320,137,69327,2,0,P|347:105|384:84,1,85,8|0,0:0|0:0,0:0:0:0:
179,227,69643,2,0,P|145:252|104:263,1,85,2|0,0:0|0:0,0:0:0:0:
332,156,69959,2,0,P|366:131|407:120,1,85,8|0,0:0|0:0,0:0:0:0:
172,206,70274,6,0,P|155:167|148:125,1,85,2|0,0:0|0:0,0:0:0:0:
340,176,70590,2,0,P|356:137|364:95,1,85,8|0,0:0|0:0,0:0:0:0:
172,208,70906,2,0,P|155:246|147:288,1,85,2|0,0:0|0:0,0:0:0:0:
339,177,71222,2,0,P|356:216|363:258,1,85,8|0,0:0|0:0,0:0:0:0:
256,76,71537,5,2,0:0:0:0:
256,76,71695,1,0,0:0:0:0:
240,204,71853,1,8,0:0:0:0:
240,204,72011,1,0,0:0:0:0:
256,332,72169,1,2,0:0:0:0:
256,332,72327,1,0,0:0:0:0:
356,256,72485,1,8,0:0:0:0:
164,280,72643,1,0,0:0:0:0:
244,128,72801,5,10,0:0:0:0:
352,64,72958,1,8,0:0:0:0:
376,52,73037,1,8,0:0:0:0:
400,40,73116,1,8,0:0:0:0:
380,164,73274,1,8,0:0:0:0:
356,176,73353,1,8,0:0:0:0:
332,188,73432,5,8,0:0:0:0:
299,178,73510,1,0,0:0:0:0:
265,179,73589,1,8,0:0:0:0:
233,190,73668,1,8,0:0:0:0:
206,210,73747,1,8,0:0:0:0:
186,238,73826,1,0,0:0:0:0:
176,270,73905,1,8,0:0:0:0:
176,304,73984,1,8,0:0:0:0:
184,335,74064,6,0,P|141:336|104:316,2,85,10|0|0,0:0|0:0|0:0,0:0:0:0:
256,232,74537,1,0,0:0:0:0:
327,335,74695,2,0,P|370:336|407:316,1,85,2|0,0:0|0:0,0:0:0:0:
256,232,75011,1,0,0:0:0:0:
256,232,75327,5,10,0:0:0:0:
207,70,75485,1,8,0:0:0:0:
338,172,75643,1,10,0:0:0:0:
173,166,75801,1,8,0:0:0:0:
310,74,75958,1,10,0:0:0:0:
256,232,76116,1,8,0:0:0:0:
207,70,76274,1,10,0:0:0:0:
340,172,76432,5,2,0:0:0:0:
256,192,85432,5,0,0:0:0:0:
255,63,85590,2,0,P|235:57|214:55,1,42.5
176,144,85748,1,0,0:0:0:0:
168,176,85827,1,0,0:0:0:0:
172,212,85906,1,0,0:0:0:0:
186,242,85984,1,0,0:0:0:0:
211,265,86063,1,0,0:0:0:0:
242,276,86142,1,0,0:0:0:0:
276,275,86221,1,0,0:0:0:0:
307,260,86300,1,0,0:0:0:0:
329,235,86379,1,0,0:0:0:0:
340,203,86458,1,0,0:0:0:0:
338,169,86537,1,0,0:0:0:0:
323,139,86616,1,0,0:0:0:0:
298,117,86695,6,0,P|259:99|218:89,1,85
152,144,87011,2,0,P|190:161|231:171,1,85
296,116,87327,1,0,0:0:0:0:
296,116,87485,1,0,0:0:0:0:
356,56,87643,1,0,0:0:0:0:
356,56,87801,1,0,0:0:0:0:
272,36,87958,5,0,0:0:0:0:
384,140,88116,1,0,0:0:0:0:
236,184,88274,1,0,0:0:0:0:
236,184,88432,1,0,0:0:0:0:
152,204,88590,2,0,P|174:239|211:259,1,85
296,260,88906,2,0,P|333:240|355:204,1,85
316,128,89222,5,0,0:0:0:0:
217,54,89380,1,0,0:0:0:0:
255,173,89538,1,0,0:0:0:0:
293,54,89696,1,0,0:0:0:0:
193,127,89854,1,0,0:0:0:0:
316,128,90011,1,0,0:0:0:0:
219,54,90169,2,0,P|188:24|149:9,1,85
255,173,90485,6,0,B|276:252|244:252|255:341,1,170,0|0,0:0|0:0,0:0:0:0:
328,300,90958,1,0,0:0:0:0:
400,252,91116,2,0,P|441:245|483:251,2,85,0|0|0,0:0|0:0|0:0,0:0:0:0:
440,328,91590,1,0,0:0:0:0:
440,56,91748,6,0,L|440:141,1,85,0|0,0:0|0:0,0:0:0:0:
360,104,92064,2,0,L|317:177,1,85,0|0,0:0|0:0,0:0:0:0:
260,112,92379,2,0,L|186:154,1,85,0|0,0:0|0:0,0:0:0:0:
144,80,92695,1,0,0:0:0:0:
68,212,92853,1,0,0:0:0:0:
219,211,93011,6,0,P|285:262|291:344,2,170,0|0|0,0:0|0:0|0:0,0:0:0:0:
219,211,93958,1,0,0:0:0:0:
218,211,94274,2,0,P|232:170|254:134,1,85,0|0,0:0|0:0,0:0:0:0:
367,91,94590,2,0,P|354:131|332:168,1,85,0|0,0:0|0:0,0:0:0:0:
292,64,94906,1,0,0:0:0:0:
292,64,95064,1,0,0:0:0:0:
212,92,95222,1,0,0:0:0:0:
212,92,95379,1,0,0:0:0:0:
212,92,95537,5,0,0:0:0:0:
212,92,96169,2,0,L|169:88,3,42.5,0|0|0|0,0:0|0:0|0:0|0:0,0:0:0:0:
156,172,96485,2,0,L|198:175,3,42.5,0|0|0|0,0:0|0:0|0:0|0:0,0:0:0:0:
187,259,96801,6,0,P|267:289|351:287,1,170
412,228,97274,1,0,0:0:0:0:
492,252,97432,2,0,P|499:293|496:335,2,85,0|0|0,0:0|0:0|0:0,0:0:0:0:
472,168,97906,1,0,0:0:0:0:
388,152,98064,6,0,P|354:125|337:87,1,85,0|0,0:0|0:0,0:0:0:0:
174,87,98379,2,0,P|157:125|123:152,1,85,0|0,0:0|0:0,0:0:0:0:
92,72,98695,1,0,0:0:0:0:
92,244,98853,1,0,0:0:0:0:
232,152,99011,1,0,0:0:0:0:
232,152,99169,1,0,0:0:0:0:
315,155,99327,6,0,P|321:198|313:239,1,85
360,76,99643,2,0,P|393:50|433:36,1,85
268,76,99958,2,0,P|229:59|196:32,1,85
360,76,100274,1,0,0:0:0:0:
360,76,100432,1,0,0:0:0:0:
388,200,100590,6,0,P|316:239|243:204,1,170
192,136,101064,1,0,0:0:0:0:
220,288,101222,1,0,0:0:0:0:
316,168,101379,1,0,0:0:0:0:
383,119,101537,2,0,P|424:130|459:154,1,85
388,200,101853,5,0,0:0:0:0:
388,338,102011,1,0,0:0:0:0:
307,227,102168,1,0,0:0:0:0:
437,269,102326,1,0,0:0:0:0:
307,312,102484,1,0,0:0:0:0:
388,200,102642,1,0,0:0:0:0:
388,338,102800,1,0,0:0:0:0:
307,227,102958,1,0,0:0:0:0:
437,268,103116,6,0,P|473:196|430:126,2,170,0|0|0,0:0|0:0|0:0,0:0:0:0:
388,200,103906,1,0,0:0:0:0:
343,127,104064,2,0,P|301:126|263:144,1,85
204,204,104379,6,0,P|193:244|167:277,1,85
80,284,104695,2,0,P|90:243|116:210,1,85
395,210,105011,2,0,P|421:243|432:284,1,85
344,277,105327,2,0,P|318:244|308:204,1,85
256,136,105643,5,0,0:0:0:0:
256,136,105801,1,0,0:0:0:0:
212,64,105958,2,0,P|172:49|129:49,1,85
300,64,106274,1,0,0:0:0:0:
264,212,106432,1,0,0:0:0:0:
264,212,106511,1,0,0:0:0:0:
264,212,106590,1,0,0:0:0:0:
412,168,106748,1,0,0:0:0:0:
376,311,106906,6,0,P|351:331|322:345,1,63.7500024318696
240,344,107222,2,0,P|208:340|178:330,1,63.7500024318696
228,264,107537,1,0,0:0:0:0:
228,264,107695,1,0,0:0:0:0:
304,292,107853,5,0,0:0:0:0:
288,212,108011,1,0,0:0:0:0:
208,187,108169,2,0,P|179:201|157:224,1,63.7500024318696
208,188,108485,2,0,P|236:174|258:151,1,63.7500024318696
184,116,108801,5,0,0:0:0:0:
287,211,108958,2,0,P|350:224|413:215,1,127.500004863739
464,148,109432,5,0,0:0:0:0:
464,148,109590,1,0,0:0:0:0:
499,219,109748,2,0,P|501:251|487:280,1,63.7500024318696,0|0,0:0|0:0,0:0:0:0:
404,276,110064,2,0,P|402:244|416:215,1,63.7500024318696,0|0,0:0|0:0,0:0:0:0:
464,148,110379,1,0,0:0:0:0:
464,148,110537,1,0,0:0:0:0:
488,68,110695,6,0,P|425:72|384:119,3,127.500004863739,0|0|0|0,0:0|0:0|0:0|0:0,0:0:0:0:
360,196,111801,1,0,0:0:0:0:
300,136,111958,6,0,P|274:101|242:74,1,85
156,64,112274,1,0,0:0:0:0:
188,144,112432,1,0,0:0:0:0:
156,64,112590,2,0,P|113:66|73:79,1,85
24,148,112906,1,0,0:0:0:0:
24,148,113064,1,0,0:0:0:0:
108,172,113222,6,0,L|74:338,2,170,0|0|0,0:0|0:0|0:0,0:0:0:0:
108,172,114169,1,0,0:0:0:0:
108,172,114327,1,0,0:0:0:0:
132,92,114485,6,0,P|159:60|197:41,1,85
197,41,114722,1,0,0:0:0:0:
197,41,114801,1,0,0:0:0:0:
276,172,114958,1,0,0:0:0:0:
368,48,115116,1,0,0:0:0:0:
368,48,115195,1,0,0:0:0:0:
368,48,115274,1,0,0:0:0:0:
452,176,115432,1,0,0:0:0:0:
451,260,115590,1,0,0:0:0:0:
451,260,115669,1,0,0:0:0:0:
451,260,115748,6,0,P|438:275|419:285,3,42.5,0|0|0|0,0:0|0:0|0:0|0:0,0:0:0:0:
371,211,116064,2,0,P|353:221|339:237,3,42.5,0|0|0|0,0:0|0:0|0:0|0:0,0:0:0:0:
352,320,116379,2,0,P|338:335|319:345,3,42.5,0|0|0|0,0:0|0:0|0:0|0:0,0:0:0:0:
272,271,116695,2,0,P|253:280|239:296,3,42.5,0|0|0|0,0:0|0:0|0:0|0:0,0:0:0:0:
204,320,117011,5,0,0:0:0:0:
172,328,117090,1,0,0:0:0:0:
140,328,117169,2,0,P|98:324|65:298,1,85
64,128,117485,5,0,0:0:0:0:
96,120,117564,1,0,0:0:0:0:
128,120,117643,2,0,P|169:123|202:149,1,85
204,320,117958,5,0,0:0:0:0:
236,328,118037,1,0,0:0:0:0:
268,328,118116,2,0,P|309:324|342:298,1,85
344,128,118432,1,0,0:0:0:0:
344,128,118511,1,0,0:0:0:0:
344,128,118590,2,0,P|339:85|344:43,1,85
428,44,118906,2,0,P|432:86|428:128,1,85
388,204,119222,1,0,0:0:0:0:
388,204,119379,1,0,0:0:0:0:
304,204,119537,6,0,L|261:204,3,42.5,0|0|0|0,0:0|0:0|0:0|0:0,0:0:0:0:
260,292,119853,2,0,L|217:292,3,42.5,0|0|0|0,0:0|0:0|0:0|0:0,0:0:0:0:
132,292,120169,5,0,0:0:0:0:
124,260,120248,1,0,0:0:0:0:
120,228,120327,1,0,0:0:0:0:
124,196,120406,1,0,0:0:0:0:
136,164,120485,1,0,0:0:0:0:
156,136,120564,1,0,0:0:0:0:
184,116,120643,1,0,0:0:0:0:
216,100,120722,1,0,0:0:0:0:
248,100,120801,6,0,B|316:104|316:104|330:113,1,85
264,284,121432,2,0,B|196:280|196:280|182:271,1,85
104,236,121748,5,0,0:0:0:0:
103,235,122064,6,0,P|95:194|103:153,1,85,0|0,0:0|0:0,0:0:0:0:
268,112,122379,2,0,P|276:153|268:194,1,85,0|0,0:0|0:0,0:0:0:0:
192,236,122695,1,0,0:0:0:0:
192,236,122853,1,0,0:0:0:0:
315,267,123011,2,0,P|358:271|400:267,1,85
472,224,123327,6,0,P|504:147|471:71,2,170,0|0|0,0:0|0:0|0:0,0:0:0:0:
368,148,124116,1,0,0:0:0:0:
284,148,124274,2,0,L|284:233,1,85,0|0,0:0|0:0,0:0:0:0:
284,320,124590,6,0,P|253:349|213:361,1,85
92,240,124906,2,0,P|122:210|162:198,1,85
240,232,125222,1,0,0:0:0:0:
240,232,125379,1,0,0:0:0:0:
340,116,125537,1,0,0:0:0:0:
392,260,125695,1,0,0:0:0:0:
460,208,125853,6,0,P|471:123|478:39,2,170,0|0|0,0:0|0:0|0:0,0:0:0:0:
392,260,126643,1,0,0:0:0:0:
308,244,126801,2,0,P|266:251|223:250,1,85
164,192,127116,6,0,P|168:149|179:108,1,85,0|0,0:0|0:0,0:0:0:0:
348,192,127432,2,0,P|343:234|332:275,1,85,0|0,0:0|0:0,0:0:0:0:
256,312,127748,1,0,0:0:0:0:
256,312,127906,1,0,0:0:0:0:
256,184,128064,2,0,P|252:141|255:99,1,85,0|0,0:0|0:0,0:0:0:0:
336,128,128379,6,0,P|417:121|456:50,2,170,0|0|0,0:0|0:0|0:0,0:0:0:0:
368,48,129169,1,0,0:0:0:0:
455,51,129327,2,0,P|485:81|502:120,1,85,0|0,0:0|0:0,0:0:0:0:
504,208,129643,6,0,P|487:247|457:276,1,85,0|0,0:0|0:0,0:0:0:0:
288,252,129958,2,0,P|304:212|334:183,1,85,0|0,0:0|0:0,0:0:0:0:
512,216,130274,2,0,P|495:255|465:284,1,85,0|0,0:0|0:0,0:0:0:0:
280,244,130590,2,0,P|296:204|326:175,1,85,0|0,0:0|0:0,0:0:0:0:
436,104,130906,5,0,0:0:0:0:
412,228,131064,1,0,0:0:0:0:
408,252,131143,1,0,0:0:0:0:
404,276,131222,1,0,0:0:0:0:
280,244,131379,1,0,0:0:0:0:
276,268,131458,1,0,0:0:0:0:
272,292,131537,1,0,0:0:0:0:
148,264,131695,1,0,0:0:0:0:
144,288,131774,1,0,0:0:0:0:
140,312,131853,5,0,0:0:0:0:
120,340,131932,1,0,0:0:0:0:
88,352,132011,1,0,0:0:0:0:
56,344,132090,1,0,0:0:0:0:
31,319,132169,6,0,P|25:236|63:161,1,170,0|0,0:0|0:0,0:0:0:0:
136,116,132643,1,0,0:0:0:0:
136,116,132722,1,0,0:0:0:0:
136,116,132801,2,0,P|178:117|218:104,1,85
256,28,133116,1,0,0:0:0:0:
256,180,133274,1,0,0:0:0:0:
340,179,133432,6,0,P|395:121|366:45,2,170,0|0|0,0:0|0:0|0:0,0:0:0:0:
256,180,134222,1,0,0:0:0:0:
196,240,134379,2,0,P|172:275|160:315,1,85
228,100,134695,6,0,P|209:61|179:31,1,85,0|0,0:0|0:0,0:0:0:0:
344,188,135011,2,0,P|386:190|427:180,1,85,0|0,0:0|0:0,0:0:0:0:
376,112,135327,1,0,0:0:0:0:
376,112,135485,1,0,0:0:0:0:
328,44,135643,2,0,P|285:41|244:51,1,85,0|0,0:0|0:0,0:0:0:0:
180,104,135958,6,0,L|164:273,2,170,0|0|0,0:0|0:0|0:0,0:0:0:0:
116,44,136748,1,0,0:0:0:0:
96,128,136906,2,0,L|88:212,1,85
140,280,137222,6,0,P|181:287|223:282,1,85
371,103,137537,2,0,P|330:96|288:101,1,85
166,307,137853,2,0,P|208:303|247:287,1,85
345,76,138168,2,0,P|303:80|264:96,1,85
264,287,138485,6,0,P|303:303|345:307,1,85
247,96,138800,2,0,P|208:80|166:76,1,85
288,282,139116,2,0,P|330:287|371:280,1,85
223,101,139431,2,0,P|181:96|140:103,1,85
310,270,139748,5,0,0:0:0:0:
310,270,139906,1,0,0:0:0:0:
201,113,140064,1,0,0:0:0:0:
201,113,140222,1,0,0:0:0:0:
136,268,140379,1,0,0:0:0:0:
136,268,140537,1,0,0:0:0:0:
376,116,140695,1,0,0:0:0:0:
376,116,140853,1,0,0:0:0:0:
256,344,141011,5,0,0:0:0:0:
256,172,141169,1,0,0:0:0:0:
256,148,141248,1,0,0:0:0:0:
256,124,141327,1,0,0:0:0:0:
408,48,141485,1,0,0:0:0:0:
432,56,141564,1,0,0:0:0:0:
452,72,141643,5,0,0:0:0:0:
462,104,141721,1,0,0:0:0:0:
463,137,141800,1,0,0:0:0:0:
450,169,141879,1,0,0:0:0:0:
428,194,141958,1,0,0:0:0:0:
404,219,142037,1,0,0:0:0:0:
387,248,142116,1,0,0:0:0:0:
381,282,142195,1,0,0:0:0:0:
385,315,142274,6,0,P|424:299|458:274,2,85,0|0|0,0:0|0:0|0:0,0:0:0:0:
256,204,142748,1,0,0:0:0:0:
126,315,142906,2,0,P|87:299|53:274,1,85,0|0,0:0|0:0,0:0:0:0:
256,204,143222,1,0,0:0:0:0:
256,204,143537,5,0,0:0:0:0:
305,42,143695,1,0,0:0:0:0:
174,144,143853,1,0,0:0:0:0:
339,138,144011,1,0,0:0:0:0:
202,46,144168,1,0,0:0:0:0:
256,204,144326,1,0,0:0:0:0:
305,42,144484,1,0,0:0:0:0:
172,144,144642,5,0,0:0:0:0:
256,192,152379,12,0,154590,0:0:0:0:
255,280,154906,6,0,P|175:265|136:193,2,170,0|0|0,0:0|0:0|0:0,0:0:0:0:
256,196,155695,1,0,0:0:0:0:
256,111,155853,1,0,0:0:0:0:
289,116,155931,1,0,0:0:0:0:
318,134,156010,1,0,0:0:0:0:
337,162,156089,1,0,0:0:0:0:
342,195,156169,6,0,P|424:216|506:196,1,170
424,48,156643,2,0,P|342:27|260:46,1,170
260,46,157116,1,0,0:0:0:0:
256,172,157274,1,0,0:0:0:0:
256,172,157353,1,0,0:0:0:0:
256,172,157432,6,0,P|291:246|255:320,1,170
84,324,157906,1,0,0:0:0:0:
61,298,157984,1,0,0:0:0:0:
49,266,158063,1,0,0:0:0:0:
49,233,158142,1,0,0:0:0:0:
61,201,158221,1,0,0:0:0:0:
83,175,158300,1,0,0:0:0:0:
116,164,158379,1,0,0:0:0:0:
148,156,158458,1,0,0:0:0:0:
180,140,158537,1,0,0:0:0:0:
204,116,158616,1,0,0:0:0:0:
224,88,158695,6,0,P|284:68|346:76,1,127.5
346,76,159011,2,0,L|393:5,1,85
468,44,159327,2,0,L|399:151,1,127.5
399,151,159643,2,0,P|438:166|470:194,1,85
480,280,159958,6,0,P|409:323|330:301,1,170,0|0,0:0|0:0,0:0:0:0:
292,224,160432,1,0,0:0:0:0:
208,240,160590,1,0,0:0:0:0:
212,324,160748,1,0,0:0:0:0:
292,224,160906,2,0,P|292:181|287:139,1,85
256,60,161222,5,0,0:0:0:0:
256,60,161379,1,0,0:0:0:0:
180,192,161537,1,0,0:0:0:0:
332,192,161695,1,0,0:0:0:0:
256,152,161853,1,0,0:0:0:0:
256,152,161932,1,0,0:0:0:0:
256,152,162011,1,0,0:0:0:0:
256,152,162090,1,0,0:0:0:0:
256,152,162169,5,0,0:0:0:0:
256,236,162327,1,0,0:0:0:0:
256,60,162485,1,0,0:0:0:0:
256,60,162801,5,8,0:0:0:0:
172,208,162958,1,8,0:0:0:0:
340,208,163116,1,8,0:0:0:0:
256,40,163274,1,8,0:0:0:0:
155,217,163431,1,8,0:0:0:0:
356,217,163589,1,8,0:0:0:0:
170,109,163748,5,8,0:0:0:0:
256,256,163905,1,8,0:0:0:0:
340,110,164063,1,8,0:0:0:0:
153,217,164222,1,8,0:0:0:0:
256,41,164379,1,8,0:0:0:0:
357,216,164537,1,8,0:0:0:0:
153,89,164695,1,8,0:0:0:0:
256,269,164853,1,8,0:0:0:0:
358,92,165011,6,0,P|437:117|475:190,1,170
392,340,165485,1,0,0:0:0:0:
392,340,165564,1,0,0:0:0:0:
391,339,165643,2,0,P|307:348|222:340,1,170,0|0,0:0|0:0,0:0:0:0:
184,320,166037,1,0,0:0:0:0:
151,291,166116,6,0,P|131:210|146:127,1,170
256,192,166590,1,0,0:0:0:0:
324,84,166748,1,0,0:0:0:0:
396,188,166906,1,0,0:0:0:0:
468,84,167064,1,0,0:0:0:0:
468,255,167222,1,0,0:0:0:0:
460,288,167300,1,0,0:0:0:0:
440,316,167379,1,0,0:0:0:0:
410,332,167458,1,0,0:0:0:0:
375,331,167537,6,0,P|294:311|212:331,1,170,0|0,0:0|0:0,0:0:0:0:
148,276,168011,2,0,P|167:194|147:112,1,170,0|0,0:0|0:0,0:0:0:0:
172,32,168485,1,0,0:0:0:0:
232,92,168643,1,0,0:0:0:0:
292,32,168801,6,0,P|330:49|372:55,1,85,0|0,0:0|0:0,0:0:0:0:
448,96,169116,2,0,P|456:179|416:253,1,170,0|0,0:0|0:0,0:0:0:0:
188,296,169669,1,0,0:0:0:0:
256,76,169906,1,0,0:0:0:0:
284,200,170064,5,0,0:0:0:0:
284,200,170222,1,0,0:0:0:0:
212,244,170379,2,0,P|175:265|133:269,1,85,0|0,0:0|0:0,0:0:0:0:
44,124,170695,2,0,P|80:102|122:98,1,85,0|0,0:0|0:0,0:0:0:0:
184,160,171011,1,0,0:0:0:0:
184,160,171169,1,0,0:0:0:0:
256,56,171327,5,0,0:0:0:0:
308,216,171485,1,0,0:0:0:0:
308,216,171564,1,0,0:0:0:0:
308,216,171643,1,0,0:0:0:0:
172,116,171801,1,0,0:0:0:0:
172,116,171880,1,0,0:0:0:0:
172,116,171959,1,0,0:0:0:0:
340,116,172116,1,0,0:0:0:0:
340,116,172195,1,0,0:0:0:0:
340,116,172274,1,0,0:0:0:0:
204,216,172432,1,0,0:0:0:0:
204,216,172511,1,0,0:0:0:0:
204,216,172590,5,0,0:0:0:0:
208,56,177643,6,0,P|131:91|84:160,1,170
304,56,178274,2,0,P|380:91|427:160,1,170
303,327,178906,6,0,P|367:276|361:194,1,170
208,327,179537,2,0,P|144:276|150:194,1,170
228,112,180169,6,0,B|216:88|96:76|100:224|204:224|256:312|256:312|308:224|412:224|416:76|296:88|284:112,1,637.500024318696
256,312,182064,1,0,0:0:0:0:
256,72,182379,1,0,0:0:0:0:
256,312,182695,6,0,B|220:252|208:184|208:184|200:200|188:210,1,170
323,210,183169,2,0,B|312:200|304:184|304:184|292:252|256:312,1,170,0|0,0:0|0:0,0:0:0:0:
188,210,183643,2,0,P|177:126|142:49,1,170
369,49,184116,2,0,P|334:126|323:210,1,170
323,210,184511,1,0,0:0:0:0:
323,210,184590,5,0,0:0:0:0:
256,264,184748,1,0,0:0:0:0:
188,208,184906,2,0,P|170:169|156:129,1,85,0|0,0:0|0:0,0:0:0:0:
256,64,185222,6,0,L|256:21,3,42.5,0|0|0|0,0:0|0:0|0:0|0:0,0:0:0:0:
340,20,185537,2,0,L|340:62,3,42.5,0|0|0|0,0:0|0:0|0:0|0:0,0:0:0:0:
340,148,185853,1,0,0:0:0:0:
340,172,185932,1,0,0:0:0:0:
340,196,186011,1,0,0:0:0:0:
340,220,186090,1,0,0:0:0:0:
340,248,186169,5,0,0:0:0:0:
340,284,186248,1,0,0:0:0:0:
340,320,186327,1,0,0:0:0:0:
340,356,186406,1,0,0:0:0:0:
308,356,186485,6,0,B|240:352|240:352|226:343,1,85
204,28,187116,2,0,B|272:32|272:32|286:41,1,85
340,108,187432,5,0,0:0:0:0:
339,107,187748,6,0,P|364:142|375:183,1,85
252,300,188064,2,0,P|227:265|216:224,1,85
256,148,188379,1,0,0:0:0:0:
256,148,188537,1,0,0:0:0:0:
328,284,188695,1,0,0:0:0:0:
176,280,188853,1,0,0:0:0:0:
256,147,189011,6,0,P|332:115|411:143,2,170,0|0|0,0:0|0:0|0:0,0:0:0:0:
336,248,189801,1,0,0:0:0:0:
400,304,189958,2,0,P|440:316|482:313,1,85
252,268,190274,6,0,P|221:297|202:334,1,85
364,164,190590,2,0,P|354:122|330:87,1,85
256,44,190906,1,0,0:0:0:0:
256,44,191064,1,0,0:0:0:0:
181,87,191222,2,0,P|157:122|148:164,1,85
180,244,191537,6,0,B|220:236|256:208|256:208|292:236|332:244,2,170,0|0|0,0:0|0:0|0:0,0:0:0:0:
184,160,192327,1,0,0:0:0:0:
328,160,192485,1,0,0:0:0:0:
256,36,192643,1,0,0:0:0:0:
256,208,192801,6,0,P|250:289|177:325,2,170,0|0|0,0:0|0:0|0:0,0:0:0:0:
184,160,193590,1,0,0:0:0:0:
104,192,193748,2,0,L|104:277,1,85,0|0,0:0|0:0,0:0:0:0:
107,104,194064,6,0,P|184:71|260:104,1,170,0|0,0:0|0:0,0:0:0:0:
256,188,194537,1,0,0:0:0:0:
212,260,194695,2,0,P|193:298|164:328,1,85,0|0,0:0|0:0,0:0:0:0:
300,260,195011,2,0,P|318:298|347:328,1,85,0|0,0:0|0:0,0:0:0:0:
401,169,195327,6,0,P|397:211|383:252,1,85
276,68,195643,2,0,P|303:100|321:138,1,85
114,84,195958,2,0,P|156:88|197:102,1,85
140,168,196274,1,0,0:0:0:0:
140,168,196432,1,0,0:0:0:0:
96,240,196590,5,0,0:0:0:0:
216,280,196748,1,0,0:0:0:0:
240,288,196827,1,0,0:0:0:0:
264,296,196906,1,0,0:0:0:0:
312,176,197064,1,0,0:0:0:0:
288,168,197143,1,0,0:0:0:0:
264,160,197222,1,0,0:0:0:0:
312,44,197379,1,0,0:0:0:0:
336,52,197458,1,0,0:0:0:0:
360,60,197537,5,0,0:0:0:0:
392,64,197616,1,0,0:0:0:0:
424,52,197695,1,0,0:0:0:0:
456,52,197774,1,0,0:0:0:0:
484,68,197853,6,0,P|498:150|459:224,1,170,0|0,0:0|0:0,0:0:0:0:
372,224,198327,1,0,0:0:0:0:
372,224,198406,1,0,0:0:0:0:
372,223,198485,2,0,P|332:239|300:267,1,85
376,308,198801,1,0,0:0:0:0:
376,308,198958,1,0,0:0:0:0:
448,264,199116,6,0,L|448:88,2,170,0|0|0,0:0|0:0|0:0,0:0:0:0:
376,308,199906,1,0,0:0:0:0:
292,324,200064,2,0,P|249:326|211:309,1,85
240,160,200379,6,0,P|263:195|268:237,1,85,0|0,0:0|0:0,0:0:0:0:
124,292,200695,2,0,P|143:254|176:229,2,85,0|0|0,0:0|0:0|0:0,0:0:0:0:
208,308,201169,1,0,0:0:0:0:
256,240,201327,2,0,L|256:155,1,85,0|0,0:0|0:0,0:0:0:0:
300,84,201643,6,0,P|373:122|395:201,2,170,0|0|0,0:0|0:0|0:0,0:0:0:0:
212,84,202432,1,0,0:0:0:0:
212,168,202590,1,0,0:0:0:0:
300,168,202748,1,0,0:0:0:0:
88,60,202906,6,0,P|64:95|45:133,1,85
124,168,203222,2,0,P|100:203|81:241,1,85
160,276,203537,2,0,P|136:311|117:349,2,85,0|0|0,0:0|0:0|0:0,0:0:0:0:
160,276,204011,1,0,0:0:0:0:
352,276,204169,6,0,P|375:311|394:349,1,85,0|0,0:0|0:0,0:0:0:0:
388,168,204485,2,0,P|411:203|430:241,1,85,0|0,0:0|0:0,0:0:0:0:
424,59,204801,2,0,P|447:95|466:133,2,85,0|0|0,0:0|0:0|0:0,0:0:0:0:
424,59,205274,1,0,0:0:0:0:
256,92,205432,5,0,0:0:0:0:
256,92,205590,1,0,0:0:0:0:
172,240,205748,1,0,0:0:0:0:
340,240,205906,1,0,0:0:0:0:
256,188,206064,5,0,0:0:0:0:
256,188,206222,1,0,0:0:0:0:
168,96,206379,1,0,0:0:0:0:
256,280,206537,1,0,0:0:0:0:
344,96,206695,5,0,0:0:0:0:
376,220,206853,1,0,0:0:0:0:
384,244,206932,1,0,0:0:0:0:
392,268,207011,1,0,0:0:0:0:
256,368,207169,1,0,0:0:0:0:
232,372,207248,1,0,0:0:0:0:
200,368,207327,5,0,0:0:0:0:
169,353,207405,1,0,0:0:0:0:
144,330,207484,1,0,0:0:0:0:
126,301,207563,1,0,0:0:0:0:
118,268,207642,1,0,0:0:0:0:
119,234,207721,1,0,0:0:0:0:
129,202,207801,1,0,0:0:0:0:
148,174,207879,1,0,0:0:0:0:
174,152,207958,6,0,P|171:110|175:68,2,85,0|0|0,0:0|0:0|0:0,0:0:0:0:
256,252,208432,1,0,0:0:0:0:
337,153,208590,2,0,P|340:111|336:69,1,85,0|0,0:0|0:0,0:0:0:0:
256,196,208906,1,0,0:0:0:0:
256,196,209222,5,0,0:0:0:0:
256,28,209379,1,0,0:0:0:0:
156,108,209537,1,0,0:0:0:0:
356,108,209695,1,0,0:0:0:0:
152,204,209853,1,0,0:0:0:0:
360,204,210011,1,0,0:0:0:0:
256,28,210169,1,0,0:0:0:0:
256,284,210327,5,0,0:0:0:0:
256,192,210406,12,0,215379,0:0:0:0:
