osu file format v13

[General]
AudioFilename: YakimochinoKotaeMP3.mp3
AudioLeadIn: 0
PreviewTime: 53223
Countdown: 1
SampleSet: Soft
StackLeniency: 0.7
Mode: 0
LetterboxInBreaks: 1
WidescreenStoryboard: 1

[Editor]
DistanceSpacing: 1.2
BeatDivisor: 4
GridSize: 4
TimelineZoom: 2.1

[Metadata]
Title:Yakimochi no Kotae
TitleUnicode:ヤキモチの答え
Artist:HoneyWorks
ArtistUnicode:HoneyWorks
Creator:Valgas
Version:Hard
Source:
Tags:Vocaloid Gumi A Solution for Jealousy
BeatmapID:557339
BeatmapSetID:241293

[Difficulty]
HPDrainRate:4.5
CircleSize:3.5
OverallDifficulty:5.5
ApproachRate:7.5
SliderMultiplier:1.4
SliderTickRate:1

[Events]
//Background and Video events
0,0,"YakimochinoKotaeBG.png",0,0
Video,0,"YakimochinoKotaePV.avi"
//Break Periods
//Storyboard Layer 0 (Background)
//Storyboard Layer 1 (Fail)
//Storyboard Layer 2 (Pass)
//Storyboard Layer 3 (Foreground)
//Storyboard Sound Samples
//Background Colour Transformations
3,100,163,162,255

[TimingPoints]
801,315.789473684211,4,2,1,80,1,0
18485,-100,4,2,1,60,0,0
28590,-100,4,2,1,70,0,0
38695,-133.333333333333,4,2,1,50,0,0
43748,-100,4,2,2,70,0,0
46274,-100,4,2,1,70,0,0
53853,-100,4,2,1,80,0,1
76432,-100,4,2,1,80,0,0
86695,-100,4,2,1,60,0,0
96801,-100,4,2,1,70,0,0
106905,-133.333333333333,4,2,1,50,0,0
111958,-100,4,2,1,70,0,0
122063,-100,4,2,1,80,0,1
144642,-100,4,2,1,90,0,0
154906,-100,4,2,1,80,0,1
172590,-133.333333333333,4,2,1,25,0,0
177643,-100,4,2,1,50,0,0
180169,-133.333333333333,4,2,1,25,0,0
182695,-100,4,2,1,70,0,0
187748,-100,4,2,1,80,0,1
210327,-100,4,2,1,75,0,0

[HitObjects]
256,104,643,6,0,L|256:69,2,35,8|8|8,0:0|0:0|0:0,0:0:0:0:
256,244,1116,2,0,P|187:234|139:185,1,140
256,104,1748,1,0,0:0:0:0:
324,52,1906,1,0,0:0:0:0:
332,136,2064,5,0,0:0:0:0:
248,24,2379,1,0,0:0:0:0:
164,136,2695,1,0,0:0:0:0:
164,136,2853,1,0,0:0:0:0:
88,176,3011,2,0,P|107:204|139:217,1,70
224,220,3327,6,0,P|293:211|362:221,1,140,0|0,0:0|0:0,0:0:0:0:
364,304,3801,1,0,0:0:0:0:
364,304,3958,2,0,P|294:313|225:305,1,140,0|0,0:0|0:0,0:0:0:0:
152,264,4432,1,0,0:0:0:0:
224,220,4590,5,0,0:0:0:0:
256,84,4906,2,0,P|290:79|325:83,1,70
324,168,5222,2,0,P|358:172|393:168,1,70
456,112,5537,1,0,0:0:0:0:
472,196,5695,1,0,0:0:0:0:
324,168,5853,6,0,P|257:163|224:220,1,140,0|0,0:0|0:0,0:0:0:0:
256,300,6327,1,0,0:0:0:0:
180,332,6485,2,0,P|145:333|111:325,1,70
52,264,6801,1,0,0:0:0:0:
52,264,6958,1,0,0:0:0:0:
96,192,7116,6,0,P|133:133|133:64,1,140,0|0,0:0|0:0,0:0:0:0:
212,36,7590,1,0,0:0:0:0:
212,36,7669,1,0,0:0:0:0:
212,36,7748,5,0,0:0:0:0:
256,156,7906,1,0,0:0:0:0:
255,156,8379,6,0,P|325:155|388:183,1,140
432,256,8853,1,0,0:0:0:0:
384,324,9011,2,0,P|349:325|315:318,1,70,0|0,0:0|0:0,0:0:0:0:
268,248,9327,2,0,P|233:246|199:253,1,70,0|0,0:0|0:0,0:0:0:0:
124,296,9643,6,0,L|95:159,1,140,0|0,0:0|0:0,0:0:0:0:
80,76,10116,1,0,0:0:0:0:
0,104,10274,2,0,L|18:171,2,70,0|0|0,0:0|0:0|0:0,0:0:0:0:
80,76,10748,1,0,0:0:0:0:
159,103,10906,6,0,P|228:115|297:106,1,140
360,52,11379,1,0,0:0:0:0:
436,84,11537,1,0,0:0:0:0:
440,168,11695,1,0,0:0:0:0:
380,223,11853,2,0,P|349:240|314:244,1,70
231,244,12169,6,0,P|162:239|92:243,1,140
32,304,12643,1,0,0:0:0:0:
32,304,12801,1,0,0:0:0:0:
32,304,12958,1,0,0:0:0:0:
32,176,13116,2,0,P|34:141|50:110,1,70,0|0,0:0|0:0,0:0:0:0:
135,115,13432,6,0,P|205:121|271:99,1,140
340,52,13906,1,0,0:0:0:0:
356,136,14064,2,0,L|368:204,1,70
452,224,14379,2,0,L|439:155,1,70
423,27,14695,6,0,P|410:95|355:136,1,140
188,136,15327,2,0,L|118:136,1,70
32,136,15643,1,0,0:0:0:0:
32,220,15801,1,0,0:0:0:0:
116,223,15958,6,0,P|185:222|246:254,1,140
308,312,16432,1,0,0:0:0:0:
392,308,16590,2,0,P|424:246|422:177,1,140
384,100,17064,1,0,0:0:0:0:
384,100,17222,5,0,0:0:0:0:
276,68,17379,1,0,0:0:0:0:
276,68,17458,1,0,0:0:0:0:
276,68,17537,1,0,0:0:0:0:
168,100,17695,1,0,0:0:0:0:
168,128,17774,1,0,0:0:0:0:
168,156,17853,2,0,L|168:204,7,35,0|0|0|0|0|0|0|0,0:0|0:0|0:0|0:0|0:0|0:0|0:0|0:0,0:0:0:0:
168,220,18485,6,0,P|219:266|287:278,1,140
368,256,18958,1,0,0:0:0:0:
448,280,19116,2,0,P|427:308|398:327,2,70,0|0|0,0:0|0:0|0:0,0:0:0:0:
428,200,19590,1,0,0:0:0:0:
428,116,19748,6,0,P|424:72|408:40,1,70
348,100,20064,2,0,P|322:63|292:44,1,70
268,124,20379,2,0,P|220:173|152:177,1,140,0|0,0:0|0:0,0:0:0:0:
72,148,20853,1,0,0:0:0:0:
40,224,21011,6,0,P|29:257|28:292,1,70
92,348,21327,1,0,0:0:0:0:
92,348,21485,1,0,0:0:0:0:
168,312,21643,2,0,P|202:313|236:323,1,70,0|0,0:0|0:0,0:0:0:0:
316,348,21958,1,0,0:0:0:0:
296,268,22116,1,0,0:0:0:0:
380,284,22274,6,0,P|442:257|464:193,1,140,0|0,0:0|0:0,0:0:0:0:
464,108,22748,1,0,0:0:0:0:
380,124,22906,2,0,P|346:133|311:136,1,70
308,52,23222,2,0,P|274:42|239:39,1,70
204,115,23537,6,0,P|142:146|76:127,1,140,0|0,0:0|0:0,0:0:0:0:
136,64,24011,1,0,0:0:0:0:
136,64,24169,2,0,L|147:203,1,140,0|0,0:0|0:0,0:0:0:0:
156,288,24643,1,0,0:0:0:0:
232,256,24801,2,0,P|266:252|301:253,1,70
268,332,25116,6,0,P|335:328|378:275,1,140
392,192,25590,1,0,0:0:0:0:
380,108,25748,2,0,P|352:86|319:74,1,70,0|0,0:0|0:0,0:0:0:0:
256,128,26064,6,0,P|224:142|190:138,1,70,0|0,0:0|0:0,0:0:0:0:
78,57,26379,2,0,P|112:53|144:68,1,70,0|0,0:0|0:0,0:0:0:0:
90,209,26695,2,0,L|100:140,1,70,0|0,0:0|0:0,0:0:0:0:
256,128,27011,2,0,L|246:197,1,70,0|0,0:0|0:0,0:0:0:0:
