osu file format v14

[General]
AudioFilename: 14.Miraizu.mp3
AudioLeadIn: 1500
PreviewTime: 68788
Countdown: 0
SampleSet: Soft
StackLeniency: 0.7
Mode: 0
LetterboxInBreaks: 0
WidescreenStoryboard: 0

[Editor]
DistanceSpacing: 1.4
BeatDivisor: 4
GridSize: 4
TimelineZoom: 2.999999

[Metadata]
Title:Miraizu feat.Aida Miou(CV:Toyosaki Aki)
TitleUnicode:未来図 feat.合田 美桜(CV:豊崎 愛生)
Artist:HoneyWorks
ArtistUnicode:HoneyWorks
Creator:Fycho
Version:Special
Source:
Tags:僕じゃダメですか? ~「告白実行委員会」キャラクターソング集~ 告白実行委員会 Kokuhaku Jikkou Iinkai Boku ja Dame desuka?
BeatmapID:696225
BeatmapSetID:306591

[Difficulty]
HPDrainRate:7
CircleSize:4
OverallDifficulty:8
ApproachRate:9.3
SliderMultiplier:1.7
SliderTickRate:1

[Events]
//Background and Video events
0,0,"48897080_p0.png",0,0
//Break Periods
//Storyboard Layer 0 (Background)
//Storyboard Layer 1 (Fail)
//Storyboard Layer 2 (Pass)
//Storyboard Layer 3 (Foreground)
//Storyboard Sound Samples

[TimingPoints]
362,337.078651685393,4,2,1,30,1,0
5755,-133.333333333333,4,2,1,40,0,0
10474,-166.666666666667,4,2,1,50,0,0
11148,-125,4,2,1,60,0,0
15024,-100,4,2,1,80,0,0
15699,-100,4,2,1,40,0,0
15867,-100,4,2,1,50,0,0
16204,-100,4,2,1,60,0,0
16541,-100,4,2,1,80,0,0
22609,-100,4,2,1,45,0,0
24631,-100,4,2,1,80,0,0
26148,-100,4,2,1,65,0,0
31373,-100,4,2,1,50,0,0
36766,-100,4,2,1,65,0,0
42159,-125,4,2,1,50,0,0
50249,-125,4,2,1,40,0,0
50586,-125,4,2,1,30,0,0
55979,-125,4,2,1,40,0,0
56317,-125,4,2,1,50,0,0
56654,-125,4,2,1,60,0,0
56991,-200,4,2,1,40,0,0
58339,-100,4,2,1,80,0,1
73845,-100,4,2,1,50,0,1
74182,-100,4,2,1,65,0,1
74519,-100,4,2,1,80,0,1
79912,-100,4,2,1,50,0,0
82609,-100,4,2,1,70,0,0
89350,-200,4,2,1,50,0,0
90024,-200,4,2,1,30,0,0
108227,-200,4,2,1,40,0,0
110923,-100,4,2,1,80,0,0
131822,-100,4,2,1,70,0,0
132496,-100,4,2,1,50,0,0
140923,-100,4,2,1,30,0,0
146317,-100,4,2,1,40,0,0
146654,-100,4,2,1,50,0,0
146991,-100,4,2,1,60,0,0
147328,-200,4,2,1,50,0,0
151036,-66.6666666666667,4,2,1,50,0,0
151373,-100,4,2,1,80,0,1
172946,-100,4,2,1,50,0,0
175642,-100,4,2,1,70,0,0
179013,-100,4,2,1,50,0,0
179687,-100,4,2,1,60,0,0

[Colours]
Combo1 : 2,255,66
Combo2 : 6,255,255
Combo3 : 255,60,157
Combo4 : 183,111,189

[HitObjects]
256,192,362,12,0,5081,0:0:0:0:
403,57,5755,6,0,P|333:73|268:69,1,127.500004863739,2|0,0:0|0:0,0:0:0:0:
196,83,6260,1,0,0:0:0:0:
120,117,6429,2,0,P|110:175|109:244,1,127.500004863739
259,350,7103,6,0,P|269:292|270:223,1,127.500004863739
200,178,7609,1,0,0:0:0:0:
142,119,7777,2,0,P|137:87|136:55,1,63.7500024318696
257,14,8114,2,0,P|256:45|251:77,1,63.7500024318696
351,211,8451,6,0,P|352:128|362:84,1,127.500004863739,2|0,0:0|0:0,0:0:0:0:
453,43,8957,1,0,0:0:0:0:
473,135,9126,5,0,0:0:0:0:
473,135,9294,1,0,0:0:0:0:
361,84,9463,1,0,0:0:0:0:
361,84,9631,1,0,0:0:0:0:
142,117,9800,5,2,0:0:0:0:
16,275,10474,6,0,B|70:249|119:297|170:268,1,152.999995330811,2|0,0:0|0:0,0:0:0:0:
232,96,11148,5,4,0:0:0:0:
232,96,11822,1,2,0:0:0:0:
301,180,12159,5,0,0:0:0:0:
382,175,12328,1,0,0:0:0:0:
446,125,12496,2,0,P|479:183|482:250,1,136,2|0,0:0|0:0,0:0:0:0:
403,272,13002,1,0,0:0:0:0:
325,296,13170,2,0,L|308:361,1,68,2|0,0:0|0:0,0:0:0:0:
195,238,13508,2,0,L|274:236,1,68,2|0,0:0|0:0,0:0:0:0:
364,140,13845,6,0,L|211:143,1,136,4|0,0:0|0:0,0:0:0:0:
197,51,14350,1,0,0:0:0:0:
127,168,14519,1,8,0:0:0:0:
127,168,14687,2,0,L|126:86,1,68,8|0,0:0|0:0,0:0:0:0:
18,107,15024,6,0,P|8:172|8:280,1,170,4|0,0:0|0:0,0:0:0:0:
120,210,15530,2,0,L|129:163,1,42.5,8|0,0:0|0:0,0:0:0:0:
222,130,15699,2,0,L|213:191,1,42.5,8|8,0:0|0:0,0:0:0:0:
187,282,15867,5,8,0:0:0:0:
214,249,15951,1,8,0:0:0:0:
255,237,16036,1,8,0:0:0:0:
294,251,16120,1,8,0:0:0:0:
316,287,16204,1,8,0:0:0:0:
347,314,16288,1,8,0:0:0:0:
388,322,16373,1,8,0:0:0:0:
428,310,16457,1,8,0:0:0:0:
459,281,16541,5,4,0:0:0:0:
249,330,16710,1,2,0:0:0:0:
381,239,16878,1,8,0:0:0:0:
493,355,17047,1,2,0:0:0:0:
493,355,17131,1,8,0:0:0:0:
493,355,17215,2,0,P|508:306|494:267,1,85,0|2,0:0|0:0,0:0:0:0:
412,112,17553,1,8,0:0:0:0:
487,185,17721,1,2,0:0:0:0:
313,282,17890,6,0,P|301:227|316:197,1,85,8|2,0:0|0:0,0:0:0:0:
230,77,18227,1,8,0:0:0:0:
177,240,18395,1,2,0:0:0:0:
177,240,18479,1,8,0:0:0:0:
177,240,18564,2,0,P|188:295|175:328,1,85,8|2,0:0|0:0,0:0:0:0:
121,119,18901,1,8,0:0:0:0:
121,119,19069,1,2,0:0:0:0:
252,126,19238,6,0,L|353:108,1,85,8|2,0:0|0:0,0:0:0:0:
440,257,19575,2,0,L|356:271,1,85,8|2,0:0|0:0,0:0:0:0:
313,282,19828,1,10,0:0:0:0:
313,282,19912,2,0,L|211:278,1,85,8|2,0:0|0:0,0:0:0:0:
110,205,20249,2,0,L|211:187,1,85,8|2,0:0|0:0,0:0:0:0:
419,163,20586,5,4,0:0:0:0:
250,72,20755,1,8,0:0:0:0:
250,72,20839,1,8,0:0:0:0:
250,72,20923,1,8,0:0:0:0:
453,17,21092,1,8,0:0:0:0:
453,17,21176,1,8,0:0:0:0:
453,17,21260,6,0,L|440:80,2,56.6666666666667,8|8|4,0:0|0:3|0:3,0:0:0:0:
352,44,21597,2,0,L|341:99,2,56.6666666666667,4|4|4,1:3|0:3|0:3,0:0:0:0:
250,72,21935,5,4,0:0:0:0:
336,290,22609,1,2,0:0:0:0:
186,288,22946,1,0,0:0:0:0:
265,204,23283,5,2,0:0:0:0:
331,124,23451,1,0,0:0:0:0:
208,84,23620,1,2,0:0:0:0:
358,28,23788,1,0,0:0:0:0:
464,132,23957,6,0,L|451:187,2,56.6666666666667,8|8|8,0:0|0:0|0:0,0:0:0:0:
359,225,24294,1,4,0:0:0:0:
88,67,24631,6,0,L|71:157,1,85,4|0,0:0|0:0,0:0:0:0:
72,150,24884,1,8,0:0:0:0:
72,150,24968,1,8,0:0:0:0:
342,343,25137,2,0,P|363:305|370:264,1,85,4|0,0:0|0:0,0:0:0:0:
226,125,25474,2,0,P|263:145|304:152,1,85,12|0,0:0|0:0,0:0:0:0:
501,120,25811,5,4,0:0:0:0:
501,120,26148,1,0,0:0:0:0:
426,49,26317,2,0,P|383:49|343:62,1,85,8|0,0:0|0:0,0:0:0:0:
261,123,26654,1,2,0:0:0:0:
164,91,26822,1,0,0:0:0:0:
261,220,26991,2,0,P|273:261|268:303,1,85,8|0,0:0|0:0,0:0:0:0:
59,335,27328,5,2,0:0:0:0:
161,275,27496,1,0,0:0:0:0:
72,209,27665,1,8,0:0:0:0:
211,107,27833,2,0,B|155:88|89:115|89:115|58:96|59:62,1,170,2|2,0:0|0:0,0:0:0:0:
228,10,28339,1,8,0:0:0:0:
221,271,28508,6,0,P|198:174|214:98,1,170,4|0,0:0|0:0,0:0:0:0:
113,232,29013,2,0,P|125:276|118:325,1,85,8|0,0:0|0:0,0:0:0:0:
221,271,29350,1,2,0:0:0:0:
312,218,29519,1,0,0:0:0:0:
397,353,29687,2,0,P|411:297|397:253,1,85,8|0,0:0|0:0,0:0:0:0:
345,136,30024,6,0,L|457:161,1,85,4|0,0:0|0:0,0:0:0:0:
196,102,30361,1,8,0:0:0:0:
228,199,30530,2,0,L|310:217,1,85,4|0,0:0|0:0,0:0:0:0:
460,46,30867,1,8,0:0:0:0:
460,46,30951,1,8,0:0:0:0:
460,46,31036,2,0,L|399:50,1,42.5,8|0,0:0|0:0,0:0:0:0:
322,49,31204,1,8,0:0:0:0:
322,49,31288,1,8,0:0:0:0:
322,49,31373,6,0,B|274:26|203:76|151:49,1,170,4|8,0:0|0:0,0:0:0:0:
154,50,32047,1,0,0:0:0:0:
78,110,32215,2,0,P|72:161|71:290,1,170,2|0,0:0|0:0,0:0:0:0:
166,141,32721,5,2,0:0:0:0:
166,141,33227,2,0,B|214:166|285:116|333:139,1,170,2|0,0:0|0:0,0:0:0:0:
152,235,33732,1,8,0:0:0:0:
152,235,34069,5,2,0:0:0:0:
248,280,34238,1,2,0:0:0:0:
345,187,34406,2,0,P|377:262|373:332,1,127.5,8|8,0:0|0:0,0:0:0:0:
365,346,34744,2,0,L|271:355,1,85,2|0,0:0|0:0,0:0:0:0:
280,354,35249,1,2,0:0:0:0:
172,336,35418,6,0,P|118:328|3:367,1,170,2|0,0:0|0:0,0:0:0:0:
208,228,35923,1,2,0:0:0:0:
208,228,36260,1,2,0:0:0:0:
321,175,36429,1,8,0:0:0:0:
207,111,36597,1,2,0:0:0:0:
321,175,36766,6,0,P|371:183|423:171,1,85,12|2,0:0|0:0,0:0:0:0:
208,228,37103,2,0,P|234:271|276:303,1,85,8|2,0:0|0:0,0:0:0:0:
92,179,37440,2,0,P|75:226|78:280,1,85,8|2,0:0|0:0,0:0:0:0:
85,58,37777,2,0,P|37:76|-1:112,1,85,8|10,0:0|0:0,0:0:0:0:
0,136,38030,1,8,0:0:0:0:
0,136,38114,6,0,L|20:229,1,85,12|2,0:0|0:0,0:0:0:0:
71,364,38451,2,0,L|124:297,1,85,8|2,0:0|0:0,0:0:0:0:
222,168,38788,2,0,L|138:157,1,85,8|2,0:0|0:0,0:0:0:0:
240,282,39126,2,0,L|323:295,1,85,8|2,0:0|0:0,0:0:0:0:
361,303,39378,1,8,0:0:0:0:
361,303,39463,5,4,0:0:0:0:
422,238,39631,1,2,0:0:0:0:
512,243,39800,5,8,0:0:0:0:
388,153,39968,1,2,0:0:0:0:
456,336,40137,5,8,0:0:0:0:
488,140,40305,1,2,0:0:0:0:
304,209,40474,1,8,0:0:0:0:
278,237,40558,1,2,0:0:0:0:
277,275,40642,1,0,0:0:0:0:
298,306,40727,1,2,0:0:0:0:
335,313,40811,6,0,L|451:276,1,113.333333333333,10|10,0:0|0:0,0:0:0:0:
505,209,41148,1,8,0:0:0:0:
306,27,41373,1,10,0:0:0:0:
301,49,41485,2,0,L|282:170,1,113.333333333333,10|0,0:0|0:0,0:0:0:0:
211,274,41822,5,8,0:0:0:0:
211,274,41935,2,0,L|267:303,1,56.6666666666667,8|8,0:0|0:0,0:0:0:0:
122,155,42159,6,0,L|45:177,1,68,4|0,0:0|0:0,0:0:0:0:
165,41,42496,2,0,L|230:59,1,68,2|0,0:0|0:0,0:0:0:0:
0,75,42833,2,0,L|65:56,1,68,2|0,0:0|0:0,0:0:0:0:
280,161,43170,2,0,L|214:142,1,68,8|0,0:1|0:0,0:0:0:0:
382,115,43508,6,0,L|459:137,1,68
202,269,43845,2,0,L|268:251,1,68,2|0,0:0|0:0,0:0:0:0:
460,228,44182,2,0,L|394:209,1,68,2|0,0:0|0:0,0:0:0:0:
279,160,44519,2,0,L|214:179,1,68,8|0,0:0|0:0,0:0:0:0:
373,361,44856,6,0,L|354:295,1,68
478,162,45193,2,0,L|459:227,1,68,2|0,0:0|0:0,0:0:0:0:
267,297,45530,2,0,L|286:363,1,68,2|0,0:0|0:0,0:0:0:0:
373,224,45867,2,0,L|392:159,1,68,8|0,0:1|0:0,0:0:0:0:
450,270,46204,6,0,L|468:335,1,68
280,212,46541,2,0,L|298:146,1,68,2|0,0:0|0:0,0:0:0:0:
439,92,46878,2,0,L|420:26,1,68,2|8,0:0|0:0,0:0:0:0:
420,26,47215,1,8,0:0:0:0:
140,320,47553,6,0,L|205:301,1,68,4|0,0:0|0:0,0:0:0:0:
368,251,47890,2,0,L|302:232,1,68,2|0,0:0|0:0,0:0:0:0:
199,196,48227,2,0,L|133:214,1,68,2|0,0:0|0:0,0:0:0:0:
291,339,48564,2,0,L|357:358,1,68,8|0,0:0|0:0,0:0:0:0:
481,206,48901,6,0,L|415:187,1,68
278,91,49238,2,0,L|212:109,1,68,2|0,0:0|0:0,0:0:0:0:
431,80,49575,2,0,L|497:99,1,68,2|0,0:0|0:0,0:0:0:0:
265,192,49912,2,0,L|199:210,1,68,8|0,0:0|0:0,0:0:0:0:
481,206,50249,6,0,L|334:163,1,136,12|8,0:0|0:0,0:0:0:0:
279,91,50699,2,0,L|212:108,1,45.3333333333333,8|8,0:0|0:0,0:0:0:0:
149,163,50923,2,0,L|146:24,1,136,8|8,0:0|0:0,0:0:0:0:
64,100,51373,2,0,L|58:152,1,45.3333333333333,8|8,0:0|0:0,0:0:0:0:
22,257,51597,6,0,P|111:242|158:242,1,136,8|8,0:0|0:0,0:0:0:0:
248,228,52047,2,0,L|297:261,1,45.3333333333333,8|8,0:0|0:0,0:0:0:0:
371,288,52272,2,0,L|365:194,1,68,8|8,0:0|0:0,0:0:0:0:
197,302,52609,2,0,L|201:369,1,68,8|8,0:0|0:0,0:0:0:0:
297,160,52946,5,0,0:0:0:0:
297,160,53114,1,0,0:0:0:0:
222,228,54294,5,0,0:0:0:0:
222,228,54463,1,0,0:0:0:0:
195,135,54968,1,0,0:0:0:0:
195,135,55137,1,0,0:0:0:0:
195,135,55642,5,8,0:0:0:0:
129,65,55811,1,8,0:0:0:0:
231,45,55979,1,8,0:0:0:0:
100,163,56148,1,8,0:0:0:0:
273,213,56317,1,8,0:0:0:0:
129,65,56486,1,8,0:0:0:0:
302,112,56654,1,8,0:0:0:0:
100,163,56823,1,8,0:0:0:0:
11,202,56991,6,0,B|13:267|130:287|167:233|167:233|161:349,1,297.5,2|0,0:0|0:0,0:0:0:0:
375,180,58339,6,0,P|385:102|385:79,1,85,4|0,0:0|0:0,0:0:0:0:
154,146,58676,2,0,P|156:188|164:230,1,85,8|0,0:0|0:0,0:0:0:0:
347,17,59013,5,2,0:0:0:0:
226,93,59182,1,0,0:0:0:0:
385,95,59350,1,8,0:0:0:0:
261,16,59519,1,2,0:0:0:0:
154,146,59687,6,0,P|208:206|296:205,1,170,2|8,0:0|0:0,0:0:0:0:
413,185,60193,2,0,L|407:282,1,85,2|0,0:0|0:0,0:0:0:0:
311,108,60530,1,2,0:0:0:0:
415,50,60699,2,0,L|505:64,1,85,8|2,0:0|0:0,0:0:0:0:
225,64,61036,5,2,0:0:0:0:
222,252,61204,1,0,0:0:0:0:
311,108,61373,1,8,0:0:0:0:
224,157,61541,1,8,0:0:0:0:
224,157,61626,1,8,0:0:0:0:
224,157,61710,1,4,1:3:0:0:
144,19,61878,2,0,P|132:59|140:101,1,85,12|0,0:0|0:0,0:0:0:0:
303,184,62215,6,0,L|127:187,1,170,4|0,0:0|0:0,0:0:0:0:
111,279,62721,2,0,P|103:320|112:361,1,85,12|2,0:0|0:0,0:0:0:0:
113,361,62974,1,8,0:0:0:0:
113,361,63058,1,8,0:0:0:0:
242,294,63227,1,2,0:0:0:0:
242,294,63311,1,8,0:0:0:0:
242,294,63395,1,8,0:0:0:0:
383,333,63564,2,0,L|380:384,1,42.5,8|8,0:0|0:0,0:0:0:0:
461,288,63732,6,0,P|481:250|480:208,1,85,4|0,0:0|0:0,0:0:0:0:
328,130,64069,2,0,L|436:106,1,85,8|2,0:0|0:0,0:0:0:0:
410,111,64322,1,8,0:0:0:0:
410,111,64406,1,0,0:0:0:0:
284,44,64575,1,2,0:0:0:0:
191,212,64744,2,0,P|203:171|193:131,1,85,8|0,0:0|0:0,0:0:0:0:
74,345,65081,5,4,0:0:0:0:
120,175,65249,1,2,0:0:0:0:
297,165,65418,1,8,0:0:0:0:
137,98,65586,2,0,L|95:270,1,170,4|0,0:0|0:0,0:0:0:0:
260,347,66092,2,0,L|278:255,1,85,8|0,0:0|0:0,0:0:0:0:
286,45,66429,6,0,P|209:44|125:119,1,170,4|8,0:0|0:0,0:0:0:0:
86,258,66935,1,2,0:0:0:0:
86,258,67019,1,8,0:0:0:0:
86,258,67103,2,0,L|170:232,1,85
300,201,67440,1,8,0:0:0:0:
197,353,67609,1,2,0:0:0:0:
453,228,67777,6,0,P|363:184|283:211,1,170,4|8,0:0|0:0,0:0:0:0:
197,353,68283,1,8,0:0:0:0:
197,353,68367,1,8,0:0:0:0:
197,353,68451,2,0,L|214:253,1,85,8|0,0:0|0:0,0:0:0:0:
235,172,68704,1,8,0:0:0:0:
235,172,68788,2,0,L|184:188,1,42.5,8|8,0:0|0:0,0:0:0:0:
319,243,68957,2,0,L|361:253,1,42.5,8|8,0:0|0:0,0:0:0:0:
463,234,69126,6,0,L|483:335,1,85,4|0,0:0|0:0,0:0:0:0:
319,243,69463,2,0,L|330:139,1,85,8|0,0:0|0:0,0:0:0:0:
501,135,69800,5,2,0:0:0:0:
399,100,69968,1,0,0:0:0:0:
235,172,70137,1,8,0:0:0:0:
295,35,70305,1,2,0:0:0:0:
135,74,70474,6,0,P|94:122|105:227,1,170,2|8,0:0|0:0,0:0:0:0:
279,188,70980,2,0,L|284:103,1,85,2|0,0:0|0:0,0:0:0:0:
135,74,71317,1,2,0:0:0:0:
186,246,71486,2,0,L|180:330,1,85,8|0,0:0|0:0,0:0:0:0:
179,137,71822,5,2,0:0:0:0:
279,188,71991,1,0,0:0:0:0:
272,79,72159,1,8,0:0:0:0:
186,246,72328,1,8,0:0:0:0:
186,246,72412,1,8,0:0:0:0:
186,246,72496,1,4,1:3:0:0:
376,237,72665,2,0,P|387:196|379:154,1,85,12|0,0:0|0:0,0:0:0:0:
301,7,73002,6,0,L|481:27,1,170,12|0,0:0|0:0,0:0:0:0:
508,168,73508,2,0,P|513:209|500:249,1,85,12|0,0:0|0:0,0:0:0:0:
405,350,73845,1,8,0:0:0:0:
369,336,73929,1,8,0:0:0:0:
330,336,74013,1,8,0:0:0:0:
292,344,74097,1,8,0:0:0:0:
253,345,74182,6,0,L|213:330,1,42.5,8|8,0:0|0:0,0:0:0:0:
131,361,74350,2,0,L|111:316,1,42.5,8|8,0:0|0:0,0:0:0:0:
27,304,74519,6,0,L|43:211,1,85,4|2,0:0|0:0,0:0:0:0:
228,195,74856,1,8,0:0:0:0:
129,163,75024,1,2,0:0:0:0:
129,163,75109,1,8,0:0:0:0:
129,163,75193,1,0,0:0:0:0:
296,124,75361,1,2,0:0:0:0:
157,265,75530,1,8,0:0:0:0:
201,92,75699,1,2,0:0:0:0:
321,221,75867,6,0,L|415:188,1,85,4|2,0:0|0:0,0:0:0:0:
383,4,76204,1,8,0:0:0:0:
265,59,76373,1,2,0:0:0:0:
265,59,76457,1,8,0:0:0:0:
265,59,76541,1,0,0:0:0:0:
470,103,76710,1,2,0:0:0:0:
272,188,76878,1,8,0:0:0:0:
383,4,77047,1,2,0:0:0:0:
407,219,77215,5,12,0:0:0:0:
172,126,77384,1,2,0:0:0:0:
410,123,77553,5,8,0:0:0:0:
148,221,77721,1,2,0:0:0:0:
453,306,77890,5,12,0:0:0:0:
85,162,78058,1,2,0:0:0:0:
429,113,78227,5,8,0:0:0:0:
58,256,78395,1,2,0:0:0:0:
470,316,78564,5,4,0:0:0:0:
85,162,78732,1,8,0:0:0:0:
85,162,78817,1,8,0:0:0:0:
85,162,78901,1,8,0:0:0:0:
437,74,79069,1,8,0:0:0:0:
437,74,79154,1,8,0:0:0:0:
437,74,79238,6,0,L|505:57,2,56.6666666666667,8|4|4,0:0|0:3|0:3,0:0:0:0:
174,17,79575,2,0,L|119:5,2,56.6666666666667,4|4|4,1:3|0:3|0:3,0:0:0:0:
512,108,79912,5,4,0:0:0:0:
157,208,81935,5,8,0:0:0:0:
229,199,82047,5,8,0:0:0:0:
302,192,82159,5,8,0:0:0:0:
375,183,82272,5,4,0:0:0:0:
34,230,82609,6,0,L|130:213,1,85,4|0,0:0|0:0,0:0:0:0:
157,208,82861,1,8,0:0:0:0:
157,208,82946,1,8,0:0:0:0:
375,183,83114,2,0,P|369:220|366:290,1,85,4|0,0:0|0:0,0:0:0:0:
260,148,83451,2,0,P|264:105|264:63,1,85,4|0,0:0|0:0,0:0:0:0:
101,115,83788,6,0,P|83:178|87:289,1,170,4|0,0:0|0:0,0:0:0:0:
260,148,84294,1,8,0:0:0:0:
256,255,84463,1,0,0:0:0:0:
340,203,84631,1,2,0:0:0:0:
170,193,84800,1,0,0:0:0:0:
141,348,84968,2,0,P|180:359|236:344,1,85,8|0,0:0|0:0,0:0:0:0:
340,203,85305,5,2,0:0:0:0:
256,255,85474,1,0,0:0:0:0:
343,305,85642,1,8,0:0:0:0:
276,68,85811,2,0,P|257:107|260:149,1,85,2|0,0:0|0:0,0:0:0:0:
417,261,86148,2,0,P|434:222|432:180,1,85,2|8,0:0|0:0,0:0:0:0:
256,255,86485,6,0,P|173:255|109:328,1,170,4|0,0:0|0:0,0:0:0:0:
309,368,86991,1,8,0:0:0:0:
432,370,87159,2,0,L|440:282,1,85,2|0,0:0|0:0,0:0:0:0:
478,130,87496,1,2,0:0:0:0:
366,224,87665,1,8,0:0:0:0:
512,206,87833,1,8,0:0:0:0:
512,206,87918,1,8,0:0:0:0:
512,206,88002,5,0,0:0:0:0:
385,137,88170,2,0,L|392:40,1,85,2|8,0:0|0:0,0:0:0:0:
247,138,88508,1,8,0:0:0:0:
247,138,88592,1,8,0:0:0:0:
247,138,88676,2,0,L|126:144,2,113.333333333333,4|4|4,1:3|0:3|0:3,0:0:0:0:
245,301,89350,5,2,0:0:0:0:
389,225,90024,1,0,0:0:0:0:
247,138,90699,5,2,0:0:0:0:
112,221,91373,1,2,0:0:0:0:
112,221,91710,1,0,0:0:0:0:
112,221,92047,6,0,P|104:170|122:133,1,85,2|0,0:0|0:0,0:0:0:0:
20,281,92721,2,0,P|28:332|10:369,1,85,2|0,0:0|0:0,0:0:0:0:
114,330,93395,5,2,0:0:0:0:
108,79,94069,1,2,0:0:0:0:
213,123,94406,1,0,0:0:0:0:
284,60,94744,6,0,P|422:43|457:51,1,170,2|2,0:0|0:0,0:0:0:0:
482,135,95755,1,0,0:0:0:0:
426,243,96092,5,2,0:0:0:0:
303,235,96429,2,0,L|307:145,2,85,0|2|0,0:0|0:0|0:0,0:0:0:0:
411,106,97440,6,0,L|237:114,1,170,2|2,0:0|0:0,0:0:0:0:
88,119,98451,1,0,0:0:0:0:
48,184,98620,1,2,0:0:0:0:
63,258,98788,6,0,L|52:300,1,42.5,0|2,0:0|0:0,0:0:0:0:
180,175,99126,2,0,L|169:129,1,42.5,0|2,0:0|0:0,0:0:0:0:
115,350,99463,1,0,0:0:0:0:
174,289,99631,1,2,0:0:0:0:
259,273,99800,1,0,0:0:0:0:
316,335,99968,1,2,0:0:0:0:
399,351,100137,6,0,P|447:292|453:190,1,170,2|2,0:0|0:0,0:0:0:0:
286,190,101148,1,0,0:0:0:0:
308,30,101485,6,0,L|482:37,1,170,2|2,0:0|0:0,0:0:0:0:
374,171,102496,1,0,0:0:0:0:
204,158,102833,6,0,B|197:182|208:208|208:208|174:254|184:339,1,170,2|2,0:0|0:0,0:0:0:0:
328,234,103845,1,0,0:0:0:0:
204,157,104182,6,0,L|76:182,1,127.5,2|2,0:0|0:0,0:0:0:0:
8,222,104856,2,0,P|-1:169|14:133,1,85,2|0,0:0|0:0,0:0:0:0:
236,59,105530,5,2,0:0:0:0:
80,95,105867,2,0,P|89:42|73:6,1,85,0|2,0:0|0:0,0:0:0:0:
180,150,106541,1,0,0:0:0:0:
165,268,106878,6,0,L|66:254,1,85,2|0,0:0|0:0,0:0:0:0:
347,268,107553,2,0,L|446:254,1,85,2|0,0:0|0:0,0:0:0:0:
177,88,108227,6,0,P|168:125|176:184,1,85,2|0,0:0|0:0,0:0:0:0:
335,88,108901,2,0,P|344:125|336:184,1,85,2|0,0:0|0:0,0:0:0:0:
212,303,109575,2,0,P|182:311|119:306,1,85,2|0,0:0|0:0,0:0:0:0:
300,303,110249,2,0,P|330:311|393:306,1,85,2|0,0:0|0:0,0:0:0:0:
256,224,110755,1,2,0:0:0:0:
59,204,110923,6,0,P|127:148|208:154,1,170,4|8,0:0|0:0,0:0:0:0:
341,215,111429,1,0,0:0:0:0:
341,215,111513,1,8,0:0:0:0:
341,215,111597,2,0,P|358:169|354:132,1,85,2|0,0:0|0:0,0:0:0:0:
190,56,111935,1,8,0:0:0:0:
204,152,112103,1,2,0:0:0:0:
59,204,112272,6,0,B|41:248|37:295|37:295|79:324|116:324,1,170,2|8,0:0|0:0,0:0:0:0:
260,247,112777,2,0,L|160:265,1,85,2|0,0:0|0:0,0:0:0:0:
450,216,113114,1,2,0:0:0:0:
343,167,113283,1,8,0:0:0:0:
442,116,113451,1,2,0:0:0:0:
329,336,113620,6,0,L|344:146,1,170,2|8,0:0|0:0,0:0:0:0:
228,344,114126,1,8,0:0:0:0:
228,344,114210,1,8,0:0:0:0:
228,344,114294,1,8,0:0:0:0:
54,220,114463,2,0,P|107:234|169:188,1,127.5,12|0,0:0|0:0,0:0:0:0:
199,117,114800,6,0,L|173:317,1,170,4|0,0:0|0:0,0:0:0:0:
303,347,115305,2,0,L|296:250,1,85,8|0,0:0|0:0,0:0:0:0:
284,143,115642,2,0,L|390:160,1,85,8|0,0:0|0:0,0:0:0:0:
403,163,115895,1,8,0:0:0:0:
403,163,115979,1,8,0:0:0:0:
210,245,116148,1,8,0:0:0:0:
210,245,116232,1,8,0:0:0:0:
210,245,116317,6,0,L|21:271,2,170,4|8|2,0:0|0:0|0:0,0:0:0:0:
403,163,117159,1,0,0:0:0:0:
335,255,117328,1,8,0:0:0:0:
479,216,117496,1,2,0:0:0:0:
445,58,117665,6,0,P|367:53|301:133,1,170,2|8,0:0|0:0,0:0:0:0:
197,299,118170,2,0,L|214:202,1,85,2|0,0:0|0:0,0:0:0:0:
236,85,118508,1,2,0:0:0:0:
115,155,118676,1,8,0:0:0:0:
141,42,118845,1,2,0:0:0:0:
49,199,119013,6,0,L|233:183,1,170,2|8,0:0|0:0,0:0:0:0:
347,159,119519,1,2,0:0:0:0:
347,159,119603,1,2,0:0:0:0:
347,159,119687,2,0,P|357:216|344:247,1,85
208,107,120024,1,8,0:0:0:0:
160,196,120193,1,2,0:0:0:0:
55,178,120361,6,0,L|61:72,1,85,2|0,0:0|0:0,0:0:0:0:
5,271,120699,1,8,0:0:0:0:
98,334,120867,1,8,0:0:0:0:
98,334,120951,1,8,0:0:0:0:
98,334,121036,1,8,0:0:0:0:
205,262,121204,1,8,0:0:0:0:
246,252,121288,1,8,0:0:0:0:
288,258,121373,1,8,0:0:0:0:
326,276,121457,1,8,0:0:0:0:
366,287,121541,1,8,0:0:0:0:
408,285,121626,1,8,0:0:0:0:
440,257,121710,6,0,P|454:184|450:167,1,85,4|2,0:0|0:0,0:0:0:0:
345,175,122047,1,8,0:0:0:0:
176,103,122215,6,0,P|212:126|254:133,1,85,2|0,0:0|0:0,0:0:0:0:
339,70,122552,1,2,0:0:0:0:
98,30,122721,6,0,P|74:65|66:106,1,85,10|0,0:0|0:0,0:0:0:0:
208,17,123058,1,0,0:0:0:0:
339,70,123227,6,0,L|425:53,1,85,2|8,0:0|0:0,0:0:0:0:
253,127,123564,1,2,0:0:0:0:
331,327,123732,2,0,B|340:248|316:201|316:201|328:184|350:170,1,170,2|8,0:0|0:0,0:0:0:0:
331,327,124238,1,2,0:0:0:0:
230,364,124406,6,0,L|141:352,1,85,4|0,0:0|0:0,0:0:0:0:
414,270,124744,1,8,0:0:0:0:
239,204,124912,1,8,0:0:0:0:
246,179,124996,1,8,0:0:0:0:
253,154,125081,1,8,0:0:0:0:
125,39,125249,2,0,P|81:96|85:155,1,127.5,12|0,0:0|0:0,0:0:0:0:
165,121,125586,6,0,L|132:287,1,170,4|0,0:0|0:0,0:0:0:0:
62,88,126092,2,0,L|42:175,1,85,8|0,0:0|0:0,0:0:0:0:
250,32,126429,1,8,0:0:0:0:
247,143,126597,1,2,0:0:0:0:
235,175,126682,1,10,0:0:0:0:
231,208,126766,1,8,0:0:0:0:
238,241,126850,1,8,0:0:0:0:
244,274,126935,1,8,0:0:0:0:
235,306,127019,1,8,0:0:0:0:
222,337,127103,6,0,L|332:319,1,85,4|0,0:0|0:0,0:0:0:0:
138,270,127440,1,10,0:0:0:0:
138,270,127524,1,2,0:0:0:0:
138,270,127609,1,2,0:0:0:0:
320,197,127777,1,0,0:0:0:0:
171,142,127946,1,2,0:0:0:0:
285,87,128114,1,8,0:0:0:0:
215,29,128283,1,2,0:0:0:0:
285,87,128451,5,2,0:0:0:0:
171,142,128620,1,2,0:0:0:0:
171,142,128704,1,2,0:0:0:0:
171,142,128788,2,0,L|100:152,1,42.5,10|0,0:0|0:0,0:0:0:0:
277,190,128957,2,0,L|337:199,1,42.5,2|0,0:0|0:0,0:0:0:0:
424,268,129126,6,0,L|381:273,1,42.5,2|0,0:0|0:0,0:0:0:0:
225,267,129295,2,0,L|285:276,1,42.5,2|0,0:0|0:0,0:0:0:0:
392,356,129463,6,0,L|349:361,1,42.5,10|0,0:0|0:0,0:0:0:0:
186,346,129632,2,0,L|246:355,1,42.5,2|0,0:0|0:0,0:0:0:0:
89,288,129800,6,0,L|76:375,1,85,2|0,0:0|0:0,0:0:0:0:
225,267,130137,2,0,B|238:207|238:207|223:172|223:172|240:140|234:95,1,170,8|2,0:0|0:0,0:0:0:0:
89,288,130642,1,0,0:0:0:0:
314,166,130811,1,8,0:0:0:0:
148,103,130979,1,2,0:0:0:0:
84,180,131148,5,0,0:0:0:0:
246,54,131317,1,8,0:0:0:0:
279,44,131401,1,8,0:0:0:0:
312,36,131485,1,8,0:0:0:0:
283,192,131654,1,8,0:0:0:0:
319,193,131738,1,8,0:0:0:0:
356,193,131822,6,0,L|341:278,2,56.6666666666667,8|4|4,0:0|0:3|0:3,0:0:0:0:
471,90,132159,2,0,L|485:22,2,56.6666666666667,4|4|4,0:3|0:3|0:3,0:0:0:0:
283,192,132496,5,4,0:0:0:0:
283,192,133002,1,0,0:0:0:0:
502,101,133170,1,0,0:0:0:0:
502,101,133508,5,8,1:0:0:0:
459,22,133676,1,0,0:0:0:0:
459,22,133760,1,0,0:0:0:0:
459,22,133845,1,0,0:0:0:0:
459,22,134350,5,0,0:0:0:0:
510,254,134519,1,0,0:0:0:0:
510,254,134856,5,8,0:0:0:0:
438,313,135024,1,0,0:0:0:0:
438,313,135193,1,0,0:0:0:0:
438,313,135699,5,0,0:0:0:0:
203,357,135867,1,0,0:0:0:0:
203,357,136204,5,8,1:0:0:0:
120,316,136373,1,0,0:0:0:0:
120,316,136457,1,0,0:0:0:0:
120,316,136541,1,0,0:0:0:0:
120,316,137047,5,0,0:0:0:0:
354,357,137215,1,0,0:0:0:0:
382,270,137384,1,8,0:0:0:0:
382,270,137468,1,8,0:0:0:0:
382,270,137553,1,8,0:0:0:0:
382,270,137890,5,4,0:0:0:0:
382,270,138395,1,0,0:0:0:0:
246,70,138564,1,0,0:0:0:0:
164,110,138732,2,0,L|114:108,2,42.5,8|8|8,0:0|0:0|0:0,0:0:0:0:
164,110,139238,5,0,0:0:0:0:
164,110,139744,1,0,0:0:0:0:
47,317,139912,1,0,0:0:0:0:
47,317,140249,1,8,0:0:0:0:
134,281,140418,1,0,0:0:0:0:
134,281,140502,1,0,0:0:0:0:
134,281,140586,1,8,0:0:0:0:
134,281,140923,6,0,L|158:197,2,56.6666666666667,8|8|8,0:0|0:0|0:0,0:0:0:0:
248,275,141260,1,8,0:0:0:0:
248,275,141597,6,0,L|272:191,2,56.6666666666667,8|8|8,0:0|0:0|0:0,0:0:0:0:
361,272,141934,1,8,0:0:0:0:
361,272,142272,6,0,L|385:188,2,56.6666666666667,8|8|8,0:0|0:0|0:0,0:0:0:0:
478,270,142609,1,8,0:0:0:0:
439,142,142777,1,8,0:0:0:0:
248,275,142946,1,8,0:0:0:0:
361,272,143114,1,8,0:0:0:0:
375,59,143283,5,0,0:0:0:0:
375,59,143451,1,0,0:0:0:0:
267,124,144631,5,0,0:0:0:0:
267,124,144800,1,0,0:0:0:0:
377,182,145305,1,0,0:0:0:0:
377,182,145474,1,0,0:0:0:0:
105,274,145979,5,8,0:0:0:0:
202,247,146148,1,8,0:0:0:0:
126,180,146317,1,8,0:0:0:0:
271,317,146485,1,8,0:0:0:0:
270,179,146654,1,8,0:0:0:0:
176,345,146822,1,8,0:0:0:0:
340,256,146991,1,8,0:0:0:0:
197,109,147159,1,8,0:0:0:0:
375,25,147328,5,2,0:0:0:0:
256,192,147412,12,0,148170,0:0:0:0:
98,143,148676,6,0,B|178:172|178:172|100:220,1,170,0|2,0:0|0:0,0:0:0:0:
414,143,150024,2,0,B|334:172|334:172|412:220,1,170,0|2,0:0|0:0,0:0:0:0:
190,286,151036,6,0,L|318:286,1,127.500004863739,2|0,0:0|0:0,0:0:0:0:
472,240,151373,6,0,P|462:318|462:341,1,85,4|0,0:0|0:0,0:0:0:0:
365,204,151710,2,0,P|363:162|355:120,1,85,8|0,0:0|0:0,0:0:0:0:
441,116,152047,5,2,0:0:0:0:
280,195,152216,1,0,0:0:0:0:
414,30,152384,1,8,0:0:0:0:
472,240,152553,1,2,0:0:0:0:
321,93,152721,6,0,P|244:88|182:152,1,170,2|8,0:0|0:0,0:0:0:0:
248,364,153227,2,0,L|262:280,1,85,2|0,0:0|0:0,0:0:0:0:
185,178,153564,1,2,0:0:0:0:
81,327,153732,2,0,L|164:304,1,85,8|0,0:0|0:0,0:0:0:0:
344,271,154069,5,2,0:0:0:0:
280,195,154238,1,0,0:0:0:0:
249,289,154406,1,8,0:0:0:0:
378,181,154575,1,8,0:0:0:0:
378,181,154659,1,8,0:0:0:0:
378,181,154744,1,4,1:3:0:0:
155,131,154912,2,0,P|159:171|184:206,1,85,8|0,0:0|0:0,0:0:0:0:
423,145,155249,6,0,L|253:146,1,170,4|0,0:0|0:0,0:0:0:0:
420,318,155755,2,0,P|430:277|421:236,1,85,12|0,0:0|0:0,0:0:0:0:
421,237,156008,1,8,0:0:0:0:
421,237,156092,1,8,0:0:0:0:
288,294,156260,1,0,0:0:0:0:
288,294,156345,1,8,0:0:0:0:
288,294,156429,1,8,0:0:0:0:
153,243,156597,2,0,L|155:195,1,42.5,8|8,0:0|0:0,0:0:0:0:
56,264,156766,6,0,P|36:302|37:344,1,85,4|0,0:0|0:0,0:0:0:0:
235,224,157103,2,0,L|127:248,1,85,8|2,0:0|0:0,0:0:0:0:
153,243,157356,1,8,0:0:0:0:
153,243,157440,1,0,0:0:0:0:
246,354,157609,1,2,0:0:0:0:
369,282,157777,2,0,P|379:241|368:201,1,85,8|0,0:0|0:0,0:0:0:0:
131,353,158114,5,4,0:0:0:0:
308,240,158283,1,2,0:0:0:0:
153,243,158451,1,8,0:0:0:0:
341,349,158620,1,2,0:0:0:0:
341,349,158704,1,8,0:0:0:0:
341,349,158788,1,8,0:0:0:0:
239,166,158957,1,0,0:0:0:0:
153,243,159126,2,0,L|142:327,1,85,8|0,0:0|0:0,0:0:0:0:
0,181,159463,6,0,P|64:128|148:126,1,170,4|8,0:0|0:0,0:0:0:0:
247,267,159968,1,2,0:0:0:0:
247,267,160053,1,8,0:0:0:0:
247,267,160137,2,0,L|148:250,1,85
146,350,160474,1,8,0:0:0:0:
239,166,160642,1,2,0:0:0:0:
350,324,160811,6,0,P|364:272|360:230,1,85,4|8,0:0|0:0,0:0:0:0:
363,241,161064,1,8,0:0:0:0:
363,241,161148,1,8,0:0:0:0:
146,350,161317,1,8,0:0:0:0:
146,350,161401,1,8,0:0:0:0:
146,350,161485,1,8,0:0:0:0:
29,270,161654,1,8,0:0:0:0:
33,232,161738,1,8,0:0:0:0:
25,194,161822,1,8,0:0:0:0:
35,157,161906,1,8,0:0:0:0:
32,118,161991,1,8,0:0:0:0:
39,80,162075,1,8,0:0:0:0:
30,42,162159,6,0,L|122:24,1,85,4|0,0:0|0:0,0:0:0:0:
162,215,162496,2,0,L|170:130,1,85,8|0,0:0|0:0,0:0:0:0:
344,142,162834,5,2,0:0:0:0:
263,200,163002,1,0,0:0:0:0:
422,76,163170,1,8,0:0:0:0:
347,240,163339,1,2,0:0:0:0:
405,330,163508,6,0,P|457:297|465:195,1,170,2|8,0:0|0:0,0:0:0:0:
288,284,164013,2,0,L|283:369,1,85,2|0,0:0|0:0,0:0:0:0:
364,174,164350,1,2,0:0:0:0:
186,190,164519,2,0,L|180:274,1,85,8|0,0:0|0:0,0:0:0:0:
364,174,164856,5,2,0:0:0:0:
186,190,165024,1,0,0:0:0:0:
377,263,165193,1,8,0:0:0:0:
263,124,165361,1,8,0:0:0:0:
263,124,165446,1,8,0:0:0:0:
263,124,165530,1,4,1:3:0:0:
85,146,165699,2,0,P|74:187|82:229,1,85,12|0,0:0|0:0,0:0:0:0:
252,380,166036,6,0,L|276:202,1,170,12|0,0:0|0:0,0:0:0:0:
69,336,166541,2,0,P|108:345|150:327,1,85,12|0,0:0|0:0,0:0:0:0:
347,240,166878,1,8,0:0:0:0:
313,221,166963,1,8,0:0:0:0:
275,217,167047,1,8,0:0:0:0:
236,219,167131,1,8,0:0:0:0:
201,235,167215,1,8,0:0:0:0:
163,243,167300,1,8,0:0:0:0:
124,243,167384,1,8,0:0:0:0:
88,229,167468,1,8,0:0:0:0:
64,200,167553,6,0,L|82:115,1,85,4|2,0:0|0:0,0:0:0:0:
268,294,167890,1,8,0:0:0:0:
154,166,168058,1,2,0:0:0:0:
154,166,168142,1,8,0:0:0:0:
154,166,168227,1,0,0:0:0:0:
45,307,168395,1,2,0:0:0:0:
214,233,168564,1,8,0:0:0:0:
155,303,168732,1,2,0:0:0:0:
150,83,168901,6,0,L|248:75,1,85,4|2,0:0|0:0,0:0:0:0:
428,56,169238,1,8,0:0:0:0:
272,159,169406,1,2,0:0:0:0:
272,159,169491,1,8,0:0:0:0:
272,159,169575,1,0,0:0:0:0:
318,24,169744,1,2,0:0:0:0:
391,291,169912,1,8,0:0:0:0:
387,145,170081,1,2,0:0:0:0:
179,212,170249,5,4,0:0:0:0:
393,246,170418,1,2,0:0:0:0:
151,207,170586,5,8,0:0:0:0:
419,138,170755,1,2,0:0:0:0:
124,202,170923,5,4,0:0:0:0:
479,262,171092,1,2,0:0:0:0:
99,199,171260,5,8,0:0:0:0:
508,123,171429,1,2,0:0:0:0:
73,194,171597,5,4,0:0:0:0:
479,262,171766,1,8,0:0:0:0:
479,262,171850,1,8,0:0:0:0:
479,262,171935,1,8,0:0:0:0:
154,358,172103,1,8,0:0:0:0:
154,358,172187,1,8,0:0:0:0:
154,358,172272,6,0,L|85:377,2,56.6666666666667,8|4|4,0:0|0:3|0:3,0:0:0:0:
375,307,172609,2,0,L|435:322,2,56.6666666666667,4|4|4,1:3|0:3|0:3,0:0:0:0:
309,198,172946,5,4,0:0:0:0:
203,198,173620,1,2,0:0:0:0:
256,48,174294,5,2,0:0:0:0:
256,148,174631,1,2,0:0:0:0:
366,295,174968,5,10,0:0:0:0:
292,282,175081,5,8,0:0:0:0:
219,269,175193,5,8,0:0:0:0:
146,260,175305,5,4,0:0:0:0:
417,303,175642,6,0,L|307:285,1,85,4|0,0:0|0:0,0:0:0:0:
292,282,175895,1,8,0:0:0:0:
292,282,175979,1,8,0:0:0:0:
498,364,176148,2,0,P|512:284|510:259,1,85,4|0,0:0|0:0,0:0:0:0:
383,125,176485,2,0,P|369:205|371:230,1,85,4|0,0:0|0:0,0:0:0:0:
503,49,176822,6,0,L|327:41,1,170,4|0,0:0|0:0,0:0:0:0:
215,76,177328,1,8,0:0:0:0:
320,126,177496,1,0,0:0:0:0:
130,22,177665,5,2,0:0:0:0:
97,134,177833,1,0,0:0:0:0:
320,126,178002,1,8,0:0:0:0:
215,76,178170,1,2,0:0:0:0:
108,243,178339,6,0,B|106:278|134:303|134:303|184:285|235:293,1,170,4|8,0:0|0:0,0:0:0:0:
35,322,178845,1,8,0:0:0:0:
35,322,178929,1,8,0:0:0:0:
35,322,179013,5,4,1:3:0:0:
109,111,179238,5,4,1:3:0:0:
327,179,179463,5,4,1:3:0:0:
38,180,179687,5,4,0:0:0:0:
