osu file format v14

[General]
AudioFilename: 14.Miraizu.mp3
AudioLeadIn: 1500
PreviewTime: 68788
Countdown: 0
SampleSet: Soft
StackLeniency: 0.7
Mode: 0
LetterboxInBreaks: 0
WidescreenStoryboard: 0

[Editor]
DistanceSpacing: 0.8
BeatDivisor: 4
GridSize: 4
TimelineZoom: 2.999999

[Metadata]
Title:Miraizu feat.Aida Miou(CV:Toyosaki Aki)
TitleUnicode:未来図 feat.合田 美桜(CV:豊崎 愛生)
Artist:HoneyWorks
ArtistUnicode:HoneyWorks
Creator:Fycho
Version:Normal
Source:
Tags:僕じゃダメですか? ~「告白実行委員会」キャラクターソング集~ 告白実行委員会 Kokuhaku Jikkou Iinkai Boku ja Dame desuka?
BeatmapID:696698
BeatmapSetID:306591

[Difficulty]
HPDrainRate:4
CircleSize:3.5
OverallDifficulty:4
ApproachRate:5.5
SliderMultiplier:1.3
SliderTickRate:1

[Events]
//Background and Video events
0,0,"48897080_p0.png",0,0
//Break Periods
2,89550,107102
//Storyboard Layer 0 (Background)
//Storyboard Layer 1 (Fail)
//Storyboard Layer 2 (Pass)
//Storyboard Layer 3 (Foreground)
//Storyboard Sound Samples

[TimingPoints]
362,337.078651685393,4,2,1,30,1,0
5755,-100,4,2,1,40,0,0
10474,-100,4,2,1,50,0,0
11148,-100,4,2,1,60,0,0
15024,-100,4,2,1,80,0,0
22609,-100,4,2,1,45,0,0
24631,-100,4,2,1,80,0,0
26148,-100,4,2,1,65,0,0
31373,-100,4,2,1,50,0,0
36766,-100,4,2,1,65,0,0
42159,-100,4,2,1,50,0,0
50249,-100,4,2,1,40,0,0
55979,-100,4,2,1,40,0,0
56317,-100,4,2,1,50,0,0
56654,-100,4,2,1,60,0,0
56991,-100,4,2,1,40,0,0
58339,-100,4,2,1,80,0,1
73845,-100,4,2,1,50,0,1
74182,-100,4,2,1,65,0,1
74519,-100,4,2,1,80,0,1
79912,-100,4,2,1,50,0,0
82609,-100,4,2,1,70,0,0
108227,-100,4,2,1,40,0,0
110923,-100,4,2,1,80,0,0
131822,-100,4,2,1,70,0,0
132496,-100,4,2,1,50,0,0
146317,-100,4,2,1,40,0,0
146654,-100,4,2,1,50,0,0
146991,-100,4,2,1,60,0,0
147328,-100,4,2,1,50,0,0
151036,-100,4,2,1,50,0,0
151373,-100,4,2,1,80,0,1
172946,-100,4,2,1,50,0,0
175642,-100,4,2,1,70,0,0

[Colours]
Combo1 : 2,255,66
Combo2 : 6,255,255
Combo3 : 255,60,157
Combo4 : 183,111,189

[HitObjects]
256,192,362,12,0,5081,0:0:0:0:
156,34,5755,6,0,P|102:67|88:129,2,130,2|0|0,0:0|0:0|0:0,0:0:0:0:
241,92,6766,1,0,0:0:0:0:
333,139,7103,2,0,P|318:200|265:234,2,130,2|0|0,0:0|0:0|0:0,0:0:0:0:
412,72,8114,1,0,0:0:0:0:
482,148,8451,6,0,B|498:179|498:179|471:350,2,195,2|2|0,0:0|0:0|0:0,0:0:0:0:
378,161,9800,1,2,0:0:0:0:
203,274,10474,1,2,0:0:0:0:
231,68,11148,6,0,L|88:87,1,130,4|0,0:0|0:0,0:0:0:0:
46,172,11822,1,2,0:0:0:0:
82,269,12159,1,0,0:0:0:0:
82,269,12328,2,0,P|155:311|265:290,1,195,2|0,0:0|0:0,0:0:0:0:
345,233,13170,2,0,L|495:208,1,130,2|0,0:0|0:0,0:0:0:0:
495,109,13845,5,4,0:0:0:0:
398,69,14182,2,0,L|257:89,1,130,0|8,0:0|0:0,0:0:0:0:
218,79,14687,2,0,P|151:85|110:138,1,130,8|4,0:0|0:0,0:0:0:0:
102,233,15361,5,0,0:0:0:0:
102,233,15530,2,0,L|256:215,1,130,8|8,0:0|0:0,0:0:0:0:
334,230,16204,2,0,L|333:296,1,65,8|8,0:0|0:0,0:0:0:0:
304,338,16541,6,0,L|446:322,1,130,4|8,0:0|0:0,0:0:0:0:
472,227,17215,1,2,0:0:0:0:
394,156,17553,1,8,0:0:0:0:
294,187,17890,2,0,P|274:108|299:50,1,130,2|8,0:0|0:0,0:0:0:0:
186,47,18564,2,0,L|53:65,1,130,2|8,0:0|0:0,0:0:0:0:
9,156,19238,5,4,0:0:0:0:
34,256,19575,1,8,0:0:0:0:
137,250,19912,1,4,0:0:0:0:
162,350,20249,1,8,0:0:0:0:
264,331,20586,5,4,0:0:0:0:
250,227,20923,1,8,0:0:0:0:
355,198,21260,2,0,P|384:99|379:84,2,97.5,10|2|2,0:0|0:0|0:0,0:0:0:0:
370,248,21935,5,4,0:0:0:0:
165,69,23957,2,0,P|186:131|159:210,1,130,8|8,0:0|0:0,0:0:0:0:
134,289,24631,6,0,L|283:270,1,130,4|8,0:0|0:0,0:0:0:0:
315,274,25137,2,0,L|388:295,1,65,12|0,0:0|0:0,0:0:0:0:
428,303,25474,2,0,P|459:254|463:235,1,65,12|0,0:0|0:0,0:0:0:0:
465,195,25811,6,0,L|439:67,1,130,4|0,0:0|0:0,0:0:0:0:
401,31,26317,2,0,P|335:32|266:76,1,130,8|2,0:0|0:0,0:0:0:0:
187,108,26991,1,8,0:0:0:0:
103,45,27328,6,0,P|81:86|81:175,1,130,2|8,0:0|0:0,0:0:0:0:
128,182,27833,2,0,L|95:320,1,130,2|2,0:0|0:0,0:0:0:0:
134,345,28339,1,8,0:0:0:0:
134,345,28508,6,0,P|288:323|326:325,1,195,4|8,0:0|0:0,0:0:0:0:
428,344,29350,1,2,0:0:0:0:
408,241,29687,1,8,0:0:0:0:
360,148,30024,5,4,0:0:0:0:
360,148,30193,2,0,L|374:70,1,65,0|8,0:0|0:0,0:0:0:0:
385,33,30530,2,0,P|279:51|229:49,1,130,4|8,0:0|0:0,0:0:0:0:
205,42,31036,1,8,0:0:0:0:
107,79,31373,6,0,P|89:137|92:214,1,130,4|8,0:0|0:0,0:0:0:0:
128,302,32047,1,0,0:0:0:0:
128,302,32215,2,0,L|275:294,1,130,2|0,0:0|0:0,0:0:0:0:
309,294,32721,5,2,0:0:0:0:
396,164,33227,2,0,L|252:176,1,130,2|0,0:0|0:0,0:0:0:0:
222,201,33732,1,8,0:0:0:0:
142,133,34069,6,0,P|164:28|154:-1,1,130,2|8,0:0|0:0,0:0:0:0:
55,28,34744,1,2,0:0:0:0:
55,28,34912,2,0,L|46:169,1,130,0|2,0:0|0:0,0:0:0:0:
43,211,35418,6,0,B|36:247|9:277|9:277|81:276|146:301,1,195,2|2,0:0|0:0,0:0:0:0:
218,343,36260,1,2,0:0:0:0:
218,343,36429,1,8,0:0:0:0:
319,322,36766,6,0,L|456:297,1,130,12|8,0:0|0:0,0:0:0:0:
495,280,37272,2,0,P|498:207|470:156,1,130,2|2,0:0|0:0,0:0:0:0:
423,138,37777,1,8,0:0:0:0:
323,168,38114,2,0,L|191:193,1,130,12|8,0:0|0:0,0:0:0:0:
143,195,38620,2,0,P|116:118|130:62,1,130,2|2,0:0|0:0,0:0:0:0:
166,40,39126,2,0,L|241:27,1,65,8|2,0:0|0:0,0:0:0:0:
281,37,39463,5,12,0:0:0:0:
380,5,39800,1,8,0:0:0:0:
460,67,40137,1,8,0:0:0:0:
451,170,40474,1,8,0:0:0:0:
351,205,40811,5,10,0:0:0:0:
265,146,41148,1,8,0:0:0:0:
221,240,41485,1,10,0:0:0:0:
305,301,41822,1,8,0:0:0:0:
227,370,42159,6,0,L|19:369,1,195,4|0,0:0|0:0,0:0:0:0:
23,317,42833,2,0,P|7:254|32:195,1,130,2|8,0:0|0:0,0:0:0:0:
90,109,43508,6,0,L|284:109,1,195,0|0,0:0|0:0,0:0:0:0:
331,132,44182,1,2,0:0:0:0:
408,62,44519,1,8,0:0:0:0:
428,163,44856,6,0,P|413:243|439:300,1,130,0|2,0:0|0:0,0:0:0:0:
467,322,45361,1,0,0:0:0:0:
467,322,45530,2,0,L|315:355,1,130,2|8,0:0|0:0,0:0:0:0:
237,329,46204,5,0,0:0:0:0:
303,249,46541,1,2,0:0:0:0:
201,224,46878,2,0,L|208:151,2,65,2|8|8,0:0|0:0|0:0,0:0:0:0:
96,229,47553,6,0,L|115:98,1,130,4|2,0:0|0:0,0:0:0:0:
209,56,48227,1,2,0:0:0:0:
288,122,48564,1,8,0:0:0:0:
382,77,48901,2,0,L|519:64,1,130,0|2,0:0|0:0,0:0:0:0:
477,163,49575,1,2,0:0:0:0:
483,266,49912,1,8,0:0:0:0:
384,233,50249,6,0,P|362:297|380:356,1,130,12|8,0:0|0:0,0:0:0:0:
428,371,50755,2,0,L|207:365,1,195,2|8,0:0|0:0,0:0:0:0:
129,353,51597,1,8,0:0:0:0:
80,260,51935,1,8,0:0:0:0:
183,255,52272,2,0,L|193:189,1,65,8|8,0:0|0:0,0:0:0:0:
196,138,52609,2,0,L|176:63,1,65,8|8,0:0|0:0,0:0:0:0:
157,27,52946,5,0,0:0:0:0:
361,66,53620,1,0,0:0:0:0:
322,270,54294,1,0,0:0:0:0:
119,224,54968,1,0,0:0:0:0:
153,19,55642,5,8,0:0:0:0:
135,121,55979,1,8,0:0:0:0:
234,152,56317,1,8,0:0:0:0:
254,50,56654,1,8,0:0:0:0:
353,80,56991,5,2,0:0:0:0:
146,73,58339,6,0,P|170:134|148:208,1,130,4|8,0:0|0:0,0:0:0:0:
96,280,59013,1,2,0:0:0:0:
190,322,59350,1,8,0:0:0:0:
190,322,59519,2,0,L|344:295,1,130,2|0,0:0|0:0,0:0:0:0:
369,294,60024,1,8,0:0:0:0:
422,204,60361,1,2,0:0:0:0:
511,256,60699,1,8,0:0:0:0:
422,204,61036,6,0,L|423:48,1,130,2|8,0:0|0:0,0:0:0:0:
329,31,61710,1,0,0:0:0:0:
329,31,61878,2,0,P|249:27|189:53,2,130,12|4|0,0:0|0:0|0:0,0:0:0:0:
322,82,62721,2,0,L|481:105,1,130,12|8,0:0|0:0,0:0:0:0:
479,200,63395,1,8,0:0:0:0:
442,297,63732,5,4,0:0:0:0:
364,227,64069,1,8,0:0:0:0:
288,298,64406,1,0,0:0:0:0:
200,241,64744,2,0,L|191:313,1,65,8|0,0:0|0:0,0:0:0:0:
163,348,65081,6,0,L|13:335,1,130,4|8,0:0|0:0,0:0:0:0:
13,288,65586,2,0,P|4:205|34:165,1,130,4|0,0:0|0:0,0:0:0:0:
67,135,66092,1,8,0:0:0:0:
170,161,66429,6,0,L|183:19,1,130,4|8,0:0|0:0,0:0:0:0:
285,27,67103,2,0,P|355:31|405:64,1,130,2|8,0:0|0:0,0:0:0:0:
410,114,67609,1,2,0:0:0:0:
410,114,67777,6,0,P|414:181|421:254,1,130,4|8,0:0|0:0,0:0:0:0:
455,281,68283,2,0,L|305:296,1,130,8|0,0:0|0:0,0:0:0:0:
280,318,68788,1,8,0:0:0:0:
177,334,69126,5,4,0:0:0:0:
219,239,69463,1,8,0:0:0:0:
115,250,69800,1,2,0:0:0:0:
52,161,70137,1,8,0:0:0:0:
52,161,70305,2,0,P|23:85|64:28,1,130,2|0,0:0|0:0,0:0:0:0:
93,37,70811,1,8,0:0:0:0:
196,26,71148,2,0,L|342:48,1,130,2|8,0:0|0:0,0:0:0:0:
420,85,71822,5,2,0:0:0:0:
339,145,72159,2,0,L|258:158,1,65,8|8,0:0|0:0,0:0:0:0:
227,176,72496,1,8,0:0:0:0:
227,176,72665,2,0,P|194:249|205:315,2,130,12|12|0,0:0|0:0|0:0,0:0:0:0:
229,123,73508,2,0,L|73:120,1,130,12|8,0:0|0:0,0:0:0:0:
68,219,74182,2,0,L|61:302,1,65,8|8,0:0|0:0,0:0:0:0:
61,335,74519,5,4,0:0:0:0:
161,308,74856,1,8,0:0:0:0:
260,339,75193,2,0,L|274:265,2,65,2|0|8,0:0|0:0|0:0,0:0:0:0:
358,306,75867,1,4,0:0:0:0:
458,279,76204,1,8,0:0:0:0:
468,175,76541,2,0,L|479:100,2,65,2|0|8,0:0|0:0|0:0,0:0:0:0:
364,161,77215,5,4,0:0:0:0:
293,83,77553,1,8,0:0:0:0:
189,80,77890,1,8,0:0:0:0:
150,176,78227,1,8,0:0:0:0:
46,168,78564,5,4,0:0:0:0:
37,271,78901,2,0,L|115:274,1,65,8|8,0:0|0:0,0:0:0:0:
153,269,79238,2,0,L|120:367,2,97.5,10|2|2,0:0|0:0|0:0,0:0:0:0:
202,251,79912,5,4,0:0:0:0:
256,192,79996,12,8,81935,0:0:0:0:
330,111,82609,6,0,L|173:114,1,130,4|8,0:0|0:0,0:0:0:0:
205,165,83114,2,0,L|56:168,2,130,4|4|4,0:0|0:0|0:0,0:0:0:0:
299,208,84126,5,0,0:0:0:0:
299,208,84294,2,0,L|441:206,1,130,8|0,0:0|0:0,0:0:0:0:
473,232,84800,1,0,0:0:0:0:
473,232,84968,2,0,L|447:314,1,65,8|0,0:0|0:0,0:0:0:0:
477,340,85305,2,0,P|368:347|336:365,1,130,2|8,0:0|0:0,0:0:0:0:
299,348,85811,2,0,L|142:334,1,130,2|2,0:0|0:0,0:0:0:0:
118,327,86317,1,8,0:0:0:0:
76,296,86485,6,0,P|55:233|96:177,1,130,4|0,0:0|0:0,0:0:0:0:
135,165,86991,2,0,L|139:26,1,130,8|0,0:0|0:0,0:0:0:0:
242,34,87665,1,8,0:0:0:0:
237,137,88002,2,0,L|318:131,1,65,0|2,0:0|0:0,0:0:0:0:
353,123,88339,1,8,0:0:0:0:
404,113,88508,2,0,L|374:261,2,130,2|2|2,0:0|0:0|0:0,0:0:0:0:
427,66,89350,5,2,0:0:0:0:
76,29,108227,6,0,P|61:84|92:159,1,130,2|0,0:0|0:0,0:0:0:0:
187,132,108901,2,0,P|202:187|171:262,1,130,2|0,0:0|0:0,0:0:0:0:
116,337,109575,1,2,0:0:0:0:
219,339,109912,1,0,0:0:0:0:
307,284,110249,1,2,0:0:0:0:
410,286,110586,1,0,0:0:0:0:
437,185,110923,6,0,L|277:180,1,130,4|8,0:0|0:0,0:0:0:0:
234,255,111597,2,0,P|111:248|94:260,1,130,2|8,0:0|0:0,0:0:0:0:
62,228,112103,2,0,L|56:81,1,130,2|0,0:0|0:0,0:0:0:0:
94,62,112609,1,8,0:0:0:0:
197,69,112946,1,2,0:0:0:0:
299,49,113283,1,8,0:0:0:0:
395,9,113620,6,0,P|421:51|410:131,1,130,2|8,0:0|0:0,0:0:0:0:
356,216,114294,1,8,0:0:0:0:
356,216,114463,2,0,L|336:344,2,130,12|4|0,0:0|0:0|0:0,0:0:0:0:
304,207,115305,2,0,P|211:228|171:225,1,130,8|8,0:0|0:0,0:0:0:0:
137,129,115979,2,0,L|139:51,1,65,8|8,0:0|0:0,0:0:0:0:
149,12,116317,6,0,P|56:16|2:27,2,130,4|8|2,0:0|0:0|0:0,0:0:0:0:
214,92,117328,1,8,0:0:0:0:
247,131,117496,2,0,P|316:127|388:115,1,130,2|0,0:0|0:0,0:0:0:0:
422,140,118002,2,0,L|405:282,2,130,8|0|8,0:0|0:0|0:0,0:0:0:0:
362,54,119013,5,2,0:0:0:0:
302,139,119350,1,8,0:0:0:0:
210,90,119687,2,0,P|75:85|59:91,1,130,0|8,0:0|0:0,0:0:0:0:
45,119,120193,2,0,L|26:262,1,130,2|0,0:0|0:0,0:0:0:0:
43,297,120699,1,8,0:0:0:0:
43,297,120867,2,0,P|107:315|177:313,1,130,8|8,0:0|0:0,0:0:0:0:
220,300,121373,1,0,0:0:0:0:
324,296,121710,6,0,L|400:344,2,65,4|2|8,0:0|0:0|0:0,0:0:0:0:
288,256,122215,2,0,L|301:104,1,130,2|2,0:0|0:0,0:0:0:0:
324,80,122721,1,8,0:0:0:0:
220,68,123058,6,0,L|125:54,2,65,0|2|8,0:0|0:0|0:0,0:0:0:0:
248,24,123564,2,0,L|403:0,1,130,2|0,0:0|0:0,0:0:0:0:
428,20,124069,1,8,0:0:0:0:
496,96,124406,6,0,P|507:193|486:224,1,130,4|8,0:0|0:0,0:0:0:0:
448,244,124912,2,0,L|298:240,1,130,8|12,0:0|0:0,0:0:0:0:
213,231,125586,2,0,P|180:290|194:361,1,130,4|0,0:0|0:0,0:0:0:0:
240,360,126092,1,8,0:0:0:0:
328,308,126429,2,0,L|402:323,1,65,8|0,0:0|0:0,0:0:0:0:
428,360,126766,2,0,L|495:349,1,65,8|8,0:0|0:0,0:0:0:0:
508,300,127103,6,0,P|511:214|481:175,1,130,4|8,0:0|0:0,0:0:0:0:
384,168,127777,2,0,L|392:99,1,65,0|2,0:0|0:0,0:0:0:0:
398,51,128114,2,0,L|312:55,1,65,8|2,0:0|0:0,0:0:0:0:
282,67,128451,6,0,L|132:64,1,130,2|8,0:0|0:0,0:0:0:0:
64,121,129126,1,2,0:0:0:0:
117,209,129463,2,0,L|106:282,1,65,10|0,0:0|0:0,0:0:0:0:
79,317,129800,6,0,P|176:311|238:309,1,130,2|8,0:0|0:0,0:0:0:0:
304,269,130474,1,2,0:0:0:0:
304,269,130642,2,0,L|386:280,2,65,0|8|2,0:0|0:0|0:0,0:0:0:0:
256,192,131148,12,4,132496,0:0:0:0:
220,148,133170,5,2,0:0:0:0:
128,192,133508,2,0,L|112:260,1,65,8|0,0:0|0:0,0:0:0:0:
100,304,133845,6,0,L|232:296,1,130,0|2,0:0|0:0,0:0:0:0:
280,300,134350,1,0,0:0:0:0:
280,300,134519,2,0,L|352:308,1,65,2|0,0:0|0:0,0:0:0:0:
396,312,134856,1,8,0:0:0:0:
476,248,135193,6,0,P|492:172|464:120,1,130,0|2,0:0|0:0,0:0:0:0:
425,100,135699,1,0,0:0:0:0:
425,100,135867,1,2,0:0:0:0:
324,125,136204,2,0,L|243:115,1,65,8|0,0:0|0:0,0:0:0:0:
210,135,136541,6,0,L|73:146,1,130,0|2,0:0|0:0,0:0:0:0:
53,189,137047,1,0,0:0:0:0:
53,189,137215,2,0,L|40:268,2,65,2|0|8,0:0|0:0|0:0,0:0:0:0:
34,86,137890,6,0,L|183:72,1,130,4|0,0:0|0:0,0:0:0:0:
267,79,138564,1,0,0:0:0:0:
366,49,138901,1,8,0:0:0:0:
436,125,139238,2,0,P|457:212|441:250,1,130,0|0,0:0|0:0,0:0:0:0:
358,307,139912,1,0,0:0:0:0:
256,283,140249,1,8,0:0:0:0:
179,352,140586,5,8,0:0:0:0:
89,299,140923,2,0,P|52:251|70:170,1,130,8|8,0:0|0:0,0:0:0:0:
162,171,141597,1,8,0:0:0:0:
245,107,141935,2,0,P|337:78|433:85,1,195,8|0,0:0|0:0,0:0:0:0:
446,136,142609,2,0,L|434:209,1,65,8|8,0:0|0:0,0:0:0:0:
436,252,142946,2,0,L|451:328,1,65,8|8,0:0|0:0,0:0:0:0:
461,366,143283,5,0,0:0:0:0:
261,306,143957,1,0,0:0:0:0:
421,173,144631,1,0,0:0:0:0:
228,94,145305,1,0,0:0:0:0:
58,214,145979,5,8,0:0:0:0:
144,155,146317,1,8,0:0:0:0:
238,198,146654,1,8,0:0:0:0:
323,138,146991,1,8,0:0:0:0:
256,192,147328,12,2,148676,0:0:0:0:
256,64,150024,6,0,B|214:121|296:249|254:325,2,260,2|2|4,0:0|0:0|0:0,0:0:0:0:
360,67,151710,5,8,0:0:0:0:
425,147,152047,1,2,0:0:0:0:
418,250,152384,1,8,0:0:0:0:
418,250,152553,2,0,L|264:277,1,130,2|0,0:0|0:0,0:0:0:0:
239,278,153058,1,8,0:0:0:0:
167,202,153395,1,2,0:0:0:0:
121,295,153732,1,8,0:0:0:0:
54,215,154069,6,0,L|54:85,1,130,2|8,0:0|0:0,0:0:0:0:
151,45,154744,1,0,0:0:0:0:
151,45,154912,2,0,P|231:49|291:23,2,130,8|4|0,0:0|0:0|0:0,0:0:0:0:
146,96,155755,2,0,L|130:232,1,130,12|8,0:0|0:0,0:0:0:0:
226,265,156429,1,8,0:0:0:0:
139,322,156766,5,4,0:0:0:0:
231,370,157103,1,8,0:0:0:0:
320,317,157440,1,0,0:0:0:0:
328,213,157777,2,0,L|337:141,1,65,8|0,0:0|0:0,0:0:0:0:
307,105,158114,6,0,L|457:118,1,130,4|8,0:0|0:0,0:0:0:0:
477,149,158620,2,0,P|490:211|461:267,1,130,4|0,0:0|0:0,0:0:0:0:
451,319,159126,1,8,0:0:0:0:
351,348,159463,6,0,P|281:358|217:328,1,130,4|8,0:0|0:0,0:0:0:0:
215,232,160137,2,0,P|144:201|74:213,1,130,0|8,0:0|0:0,0:0:0:0:
45,226,160642,1,0,0:0:0:0:
45,226,160811,6,0,P|27:166|40:102,1,130,4|8,0:0|0:0,0:0:0:0:
73,61,161317,2,0,L|213:65,1,130,8|8,0:0|0:0,0:0:0:0:
254,64,161822,1,8,0:0:0:0:
357,65,162159,5,4,0:0:0:0:
303,153,162496,1,8,0:0:0:0:
406,153,162833,1,2,0:0:0:0:
498,199,163170,1,8,0:0:0:0:
498,199,163339,2,0,P|491:261|486:332,1,130,2|0,0:0|0:0,0:0:0:0:
457,372,163845,1,8,0:0:0:0:
353,362,164182,2,0,L|207:340,1,130,2|8,0:0|0:0,0:0:0:0:
122,322,164856,5,2,0:0:0:0:
51,243,165193,2,0,L|132:230,1,65,8|8,0:0|0:0,0:0:0:0:
162,210,165530,1,8,0:0:0:0:
162,210,165699,2,0,P|195:137|184:71,2,130,12|12|0,0:0|0:0|0:0,0:0:0:0:
207,235,166541,2,0,L|341:221,1,130,12|8,0:0|0:0,0:0:0:0:
434,185,167215,2,0,L|438:260,1,65,8|8,0:0|0:0,0:0:0:0:
448,301,167553,5,4,0:0:0:0:
353,345,167890,1,8,0:0:0:0:
284,266,168227,2,0,L|200:262,2,65,2|0|8,0:0|0:0|0:0,0:0:0:0:
319,168,168901,5,4,0:0:0:0:
237,103,169238,1,8,0:0:0:0:
144,149,169575,2,0,L|53:150,2,65,2|0|8,0:0|0:0|0:0,0:0:0:0:
160,46,170249,5,4,0:0:0:0:
257,10,170586,1,8,0:0:0:0:
334,79,170923,1,8,0:0:0:0:
302,178,171260,1,8,0:0:0:0:
203,212,171597,5,4,0:0:0:0:
99,200,171935,2,0,L|125:270,1,65,8|8,0:0|0:0,0:0:0:0:
144,307,172272,2,0,L|241:303,2,97.5,10|2|2,0:0|0:0|0:0,0:0:0:0:
102,338,172946,5,4,0:0:0:0:
256,192,173030,12,8,174968,0:0:0:0:
103,121,175642,6,0,L|260:124,1,130,4|8,0:0|0:0,0:0:0:0:
263,81,176147,2,0,L|412:84,2,130,4|4|4,0:0|0:0|0:0,0:0:0:0:
286,182,177159,5,0,0:0:0:0:
286,182,177327,2,0,L|144:180,1,130,8|2,0:0|0:0,0:0:0:0:
112,208,177833,1,0,0:0:0:0:
112,208,178001,2,0,L|96:287,1,65,8|2,0:0|0:0,0:0:0:0:
73,317,178338,2,0,P|182:324|214:342,1,130,4|8,0:0|0:0,0:0:0:0:
300,356,179013,2,0,B|321:265|321:265|279:186|279:186|295:93,1,260,8|4,0:0|0:0,0:0:0:0:
