osu file format v14

[General]
AudioFilename: 14.Miraizu.mp3
AudioLeadIn: 1500
PreviewTime: 68788
Countdown: 0
SampleSet: Soft
StackLeniency: 0.7
Mode: 0
LetterboxInBreaks: 0
WidescreenStoryboard: 0

[Editor]
DistanceSpacing: 1.2
BeatDivisor: 4
GridSize: 4
TimelineZoom: 2.999999

[Metadata]
Title:Miraizu feat.Aida Miou(CV:Toyosaki Aki)
TitleUnicode:未来図 feat.合田 美桜(CV:豊崎 愛生)
Artist:HoneyWorks
ArtistUnicode:HoneyWorks
Creator:Fycho
Version:Insane
Source:
Tags:僕じゃダメですか? ~「告白実行委員会」キャラクターソング集~ 告白実行委員会 Kokuhaku Jikkou Iinkai Boku ja Dame desuka?
BeatmapID:714506
BeatmapSetID:306591

[Difficulty]
HPDrainRate:6
CircleSize:4
OverallDifficulty:7
ApproachRate:9
SliderMultiplier:1.6
SliderTickRate:1

[Events]
//Background and Video events
0,0,"48897080_p0.png",0,0
//Break Periods
2,89550,107627
//Storyboard Layer 0 (Background)
//Storyboard Layer 1 (Fail)
//Storyboard Layer 2 (Pass)
//Storyboard Layer 3 (Foreground)
//Storyboard Sound Samples

[TimingPoints]
362,337.078651685393,4,2,1,30,1,0
5755,-133.333333333333,4,2,1,40,0,0
10474,-166.666666666667,4,2,1,50,0,0
11148,-125,4,2,1,60,0,0
15024,-100,4,2,1,80,0,0
15614,-100,4,2,1,40,0,0
15867,-100,4,2,1,50,0,0
16204,-100,4,2,1,65,0,0
16541,-100,4,2,1,80,0,0
22609,-100,4,2,1,45,0,0
24631,-100,4,2,1,80,0,0
26148,-100,4,2,1,65,0,0
31373,-100,4,2,1,50,0,0
36766,-100,4,2,1,65,0,0
42159,-125,4,2,1,50,0,0
50249,-125,4,2,1,40,0,0
55642,-166.666666666667,4,2,1,40,0,0
55979,-166.666666666667,4,2,1,40,0,0
56317,-111.111111111111,4,2,1,50,0,0
56654,-111.111111111111,4,2,1,60,0,0
56991,-200,4,2,1,40,0,0
58339,-100,4,2,1,80,0,1
73845,-100,4,2,1,50,0,1
74182,-100,4,2,1,65,0,1
74519,-100,4,2,1,80,0,1
79912,-100,4,2,1,50,0,0
82609,-100,4,2,1,70,0,0
108227,-200,4,2,1,40,0,0
110923,-100,4,2,1,80,0,0
131822,-100,4,2,1,70,0,0
132496,-125,4,2,1,50,0,0
140923,-100,4,2,1,30,0,0
146317,-100,4,2,1,40,0,0
146654,-100,4,2,1,50,0,0
146991,-100,4,2,1,60,0,0
147328,-200,4,2,1,50,0,0
151036,-66.6666666666667,4,2,1,50,0,0
151373,-100,4,2,1,80,0,1
172946,-100,4,2,1,50,0,0
175642,-100,4,2,1,70,0,0

[Colours]
Combo1 : 2,255,66
Combo2 : 6,255,255
Combo3 : 255,60,157
Combo4 : 183,111,189

[HitObjects]
256,192,362,12,0,5081,0:0:0:0:
177,107,5755,6,0,P|161:184|163:246,2,120.000004577637,2|0|0,0:0|0:0|0:0,0:0:0:0:
256,192,6766,1,0,0:0:0:0:
335,107,7103,2,0,P|351:184|349:246,2,120.000004577637
256,192,8114,1,0,0:0:0:0:
372,344,8451,6,0,L|400:208,1,120.000004577637,2|0,0:0|0:0,0:0:0:0:
256,192,9126,1,0,0:0:0:0:
115,226,9463,2,0,L|140:344,2,120.000004577637,0|2|0,0:0|0:0|0:0,0:0:0:0:
307,119,10474,6,0,P|241:110|209:120,1,95.9999970703126,2|0,0:0|0:0,0:0:0:0:
115,226,11148,6,0,L|100:72,1,128,4|0,0:0|0:0,0:0:0:0:
282,16,11822,1,2,0:0:0:0:
221,191,12159,1,0,0:0:0:0:
221,191,12328,2,0,P|309:191|405:242,1,192,2|0,0:0|0:0,0:0:0:0:
512,122,13170,2,0,L|499:269,1,128,2|0,0:0|0:0,0:0:0:0:
198,88,13845,5,4,0:0:0:0:
387,160,14182,1,0,0:0:0:0:
198,88,14519,1,8,0:0:0:0:
79,116,14687,2,0,P|72:76|75:50,1,64,8|0,0:0|0:0,0:0:0:0:
203,179,15024,6,0,P|229:219|213:327,1,160,4|0,0:0|0:0,0:0:0:0:
102,257,15530,1,8,0:0:0:0:
102,257,15614,1,8,0:0:0:0:
102,257,15699,1,8,0:0:0:0:
198,88,15867,5,8,0:0:0:0:
198,88,15951,1,8,0:0:0:0:
198,88,16036,2,8,L|150:64,1,40
33,138,16204,1,8,0:0:0:0:
33,138,16288,1,8,0:0:0:0:
33,138,16373,2,8,L|55:89,1,40
0,18,16541,6,0,L|168:29,1,160,4|8,0:0|0:0,0:0:0:0:
218,119,17047,1,2,0:0:0:0:
218,119,17131,1,8,0:0:0:0:
218,119,17215,2,0,P|237:175|227:217,1,80,0|2,0:0|0:0,0:0:0:0:
256,367,17553,2,0,P|265:315|300:282,1,80,8|2,0:0|0:0,0:0:0:0:
432,208,17890,6,0,P|342:195|295:136,1,160,2|8,0:0|0:0,0:0:0:0:
401,96,18395,1,2,0:0:0:0:
401,96,18479,1,8,0:0:0:0:
401,96,18564,1,0,0:0:0:0:
305,26,18732,1,2,0:0:0:0:
196,75,18901,2,0,L|90:57,1,80,8|2,0:0|0:0,0:0:0:0:
260,208,19238,6,0,L|276:117,1,80,8|2,0:0|0:0,0:0:0:0:
153,290,19575,2,0,L|231:303,1,80,8|2,0:0|0:0,0:0:0:0:
231,303,19828,1,10,0:0:0:0:
231,303,19912,1,8,0:0:0:0:
345,229,20081,1,0,0:0:0:0:
415,344,20249,2,0,P|441:283|433:255,1,80,8|2,0:0|0:0,0:0:0:0:
401,135,20586,6,0,P|323:132|254:170,1,160,4|8,0:0|0:0,0:0:0:0:
125,172,21092,1,8,0:0:0:0:
125,172,21176,1,8,0:0:0:0:
125,172,21260,2,0,L|120:38,2,120,10|2|2,0:0|0:0|0:0,0:0:0:0:
79,267,21935,5,4,0:0:0:0:
181,259,22609,1,2,0:0:0:0:
123,93,22946,1,0,0:0:0:0:
36,241,23283,5,2,0:0:0:0:
115,243,23451,1,0,0:0:0:0:
78,171,23620,1,2,0:0:0:0:
157,172,23788,1,0,0:0:0:0:
223,126,23957,6,0,L|275:115,2,53.3333333333333,8|8|8,0:0|0:0|0:0,0:0:0:0:
154,88,24294,1,8,0:0:0:0:
36,241,24631,6,0,L|39:320,1,80,4|0,0:0|0:0,0:0:0:0:
39,320,24884,1,8,0:0:0:0:
39,320,24968,1,8,0:0:0:0:
194,214,25137,2,0,L|105:170,1,80,12|0,0:0|0:0,0:0:0:0:
126,357,25474,2,0,L|200:308,1,80,12|0,0:0|0:0,0:0:0:0:
348,208,25811,6,0,P|270:193|193:213,1,160,4|0,0:0|0:0,0:0:0:0:
269,362,26317,1,8,0:0:0:0:
269,362,26485,2,0,L|274:281,2,80,0|2|0,0:0|0:0|0:0,0:0:0:0:
384,300,26991,2,0,L|390:211,1,80,8|0,0:0|0:0,0:0:0:0:
460,104,27328,6,0,P|368:93|291:125,1,160,2|8,0:0|0:0,0:0:0:0:
217,246,27833,2,0,P|256:241|294:228,1,80,2|0,0:0|0:0,0:0:0:0:
239,162,28170,1,2,0:0:0:0:
234,329,28339,1,8,0:0:0:0:
384,189,28508,6,0,P|408:264|396:343,1,160,4|0,0:0|0:0,0:0:0:0:
223,285,29013,2,0,L|322:268,1,80,8|0,0:0|0:0,0:0:0:0:
210,368,29350,2,0,L|131:381,1,80,2|0,0:0|0:0,0:0:0:0:
168,215,29687,2,0,L|246:201,1,80,8|0,0:0|0:0,0:0:0:0:
450,209,30024,5,4,0:0:0:0:
370,291,30193,1,0,0:0:0:0:
512,270,30361,1,8,0:0:0:0:
512,127,30530,2,0,P|432:120|359:152,1,160,4|8,0:0|0:0,0:0:0:0:
223,251,31036,1,8,0:0:0:0:
268,167,31204,1,8,0:0:0:0:
268,167,31288,1,8,0:0:0:0:
268,167,31373,6,0,L|284:-5,2,160,4|8|0,0:0|0:0|0:0,0:0:0:0:
223,251,32215,2,0,P|143:266|77:224,1,160,2|0,0:0|0:0,0:0:0:0:
155,55,32721,6,0,L|161:145,1,80,2|0,0:0|0:0,0:0:0:0:
251,148,33058,1,0,0:0:0:0:
338,188,33227,2,0,P|360:134|347:35,1,160,2|0,0:0|0:0,0:0:0:0:
251,29,33732,1,8,0:0:0:0:
251,29,34069,5,2,0:0:0:0:
176,89,34238,1,2,0:0:0:0:
225,166,34406,2,0,L|385:140,1,160,8|2,0:0|0:0,0:0:0:0:
459,198,34912,2,0,P|471:246|458:285,1,80
400,347,35249,1,2,0:0:0:0:
305,330,35418,6,0,P|228:328|147:381,1,160,2|0,0:0|0:0,0:0:0:0:
82,309,35923,2,0,L|59:136,1,160,2|2,0:0|0:0,0:0:0:0:
105,65,36429,1,8,0:0:0:0:
190,107,36597,1,2,0:0:0:0:
340,42,36766,6,0,P|301:34|263:44,1,80,12|2,0:0|0:0,0:0:0:0:
338,136,37103,2,0,P|376:145|415:137,1,80,8|2,0:0|0:0,0:0:0:0:
284,212,37440,6,0,P|233:203|200:214,1,80,8|2,0:0|0:0,0:0:0:0:
95,301,37777,2,0,P|133:308|172:299,1,80,8|10,0:0|0:0,0:0:0:0:
284,212,38114,6,0,P|335:203|368:214,1,80,12|2,0:0|0:0,0:0:0:0:
441,309,38451,2,0,P|402:317|363:308,1,80,8|2,0:0|0:0,0:0:0:0:
405,129,38788,6,0,P|456:120|489:131,1,80,8|2,0:0|0:0,0:0:0:0:
360,40,39125,2,0,P|321:48|282:39,1,80,8|2,0:0|0:0,0:0:0:0:
164,134,39463,6,0,L|257:120,1,80,12|2,0:0|0:0,0:0:0:0:
91,212,39800,2,0,L|11:223,1,80,8|2,0:0|0:0,0:0:0:0:
213,256,40137,6,0,L|306:242,1,80,8|2,0:0|0:0,0:0:0:0:
148,336,40474,2,0,L|68:347,1,80,8|0,0:0|0:0,0:0:0:0:
213,256,40811,6,0,L|394:309,1,160,10|8,0:0|0:0,0:0:0:0:
465,367,41317,1,0,0:0:0:0:
465,367,41485,2,0,P|484:312|475:260,1,106.666666666667,10|0,0:0|0:0,0:0:0:0:
411,204,41822,2,0,L|420:131,2,53.3333333333333,8|8|8,0:0|0:0|0:0,0:0:0:0:
317,197,42159,6,0,L|332:62,1,128,4|2,0:0|0:0,0:0:0:0:
331,69,42665,1,0,0:0:0:0:
241,15,42833,2,0,L|154:13,1,64,2|0,0:0|0:0,0:0:0:0:
102,105,43170,2,0,L|229:108,1,128,8|0,0:0|0:0,0:0:0:0:
393,200,43845,6,0,L|385:275,1,64,2|0,0:0|0:0,0:0:0:0:
293,332,44182,2,0,L|310:201,1,128,2|8,0:0|0:0,0:0:0:0:
119,79,44856,6,0,L|102:205,1,128,0|2,0:0|0:0,0:0:0:0:
101,205,45361,1,0,0:0:0:0:
75,322,45530,2,0,L|151:316,1,64,2|0,0:0|0:0,0:0:0:0:
319,231,45867,2,0,L|179:242,1,128,8|0,0:0|0:0,0:0:0:0:
229,116,46541,6,0,L|304:111,1,64,2|0,0:0|0:0,0:0:0:0:
480,89,46878,1,2,0:0:0:0:
369,167,47047,1,8,0:0:0:0:
401,56,47215,1,8,0:0:0:0:
461,318,47553,6,0,L|454:183,1,128,4|2,0:0|0:0,0:0:0:0:
253,249,48227,2,0,L|256:320,1,64,2|8,0:0|0:0,0:0:0:0:
247,155,48564,1,8,0:0:0:0:
424,322,48901,2,0,L|417:187,1,128,0|2,0:0|0:0,0:0:0:0:
215,239,49575,2,0,L|221:366,1,128,2|8,0:0|0:0,0:0:0:0:
385,338,50249,6,0,L|378:207,1,128,12|8,0:0|0:0,0:0:0:0:
296,114,50755,2,0,L|291:253,1,128,2|0,0:0|0:0,0:0:0:0:
193,286,51260,2,0,L|185:221,1,64,8|0,0:0|0:0,0:0:0:0:
278,346,51597,6,0,P|225:381|140:372,1,128,8|8,0:0|0:0,0:0:0:0:
69,374,52103,1,0,0:0:0:0:
9,299,52272,2,0,P|6:267|9:235,1,64,8|8,0:0|0:0,0:0:0:0:
127,211,52609,2,0,P|129:242|127:274,1,64,8|8,0:0|0:0,0:0:0:0:
61,154,52946,5,0,0:0:0:0:
61,154,53114,1,0,0:0:0:0:
368,116,54294,5,0,0:0:0:0:
368,116,54463,1,0,0:0:0:0:
215,135,54968,1,0,0:0:0:0:
215,135,55137,1,0,0:0:0:0:
332,19,55642,5,0,0:0:0:0:
368,116,55811,1,8,0:0:0:0:
442,44,55980,1,8,0:0:0:0:
260,96,56148,1,8,0:0:0:0:
408,219,56317,5,8,0:0:0:0:
332,19,56485,1,8,0:0:0:0:
299,192,56654,1,8,0:0:0:0:
473,137,56822,1,8,0:0:0:0:
368,116,56991,5,2,0:0:0:0:
256,192,57075,12,0,58002,0:0:0:0:
154,286,58339,6,0,L|59:276,1,80,4|0,0:0|0:0,0:0:0:0:
0,110,58676,2,0,L|79:118,1,80,8|0,0:0|0:0,0:0:0:0:
171,186,59013,2,0,P|202:129|298:96,1,160,2|8,0:0|0:0,0:0:0:0:
460,129,59519,6,0,P|374:84|361:28,1,160,2|0,0:0|0:0,0:0:0:0:
460,129,60024,1,8,0:0:0:0:
490,280,60193,1,2,0:0:0:0:
324,314,60361,1,0,0:0:0:0:
401,219,60530,1,2,0:0:0:0:
235,255,60699,2,0,L|212:356,1,80,8|2,0:0|0:0,0:0:0:0:
298,157,61036,5,2,0:0:0:0:
235,255,61204,1,0,0:0:0:0:
397,364,61373,2,0,P|412:315|406:271,1,80,8|0,0:0|0:0,0:0:0:0:
411,286,61626,1,8,0:0:0:0:
411,286,61710,1,0,0:0:0:0:
377,148,61878,2,0,L|298:156,1,80,12|0,0:0|0:0,0:0:0:0:
453,200,62215,6,0,P|493:142|476:54,1,160,4|0,0:0|0:0,0:0:0:0:
350,32,62721,2,0,L|210:46,1,120,12|8,0:0|0:0,0:0:0:0:
194,33,63058,2,0,L|184:127,1,80,8|0,0:0|0:0,0:0:0:0:
185,112,63311,1,8,0:0:0:0:
185,112,63395,1,8,0:0:0:0:
113,243,63564,1,8,0:0:0:0:
113,243,63648,1,8,0:0:0:0:
113,243,63732,6,0,P|160:286|278:281,1,160,4|8,0:0|0:0,0:0:0:0:
307,169,64238,1,2,0:0:0:0:
307,169,64322,1,8,0:0:0:0:
307,169,64406,1,0,0:0:0:0:
423,117,64575,1,2,0:0:0:0:
480,232,64744,2,0,P|481:274|470:310,1,80,8|0,0:0|0:0,0:0:0:0:
322,80,65081,6,0,P|228:60|157:82,1,160,4|8,0:0|0:0,0:0:0:0:
95,270,65586,2,0,P|173:287|250:267,1,160,4|0,0:0|0:0,0:0:0:0:
406,84,66092,1,8,0:0:0:0:
307,169,66260,1,0,0:0:0:0:
448,182,66429,6,0,P|472:249|461:345,1,160,4|8,0:0|0:0,0:0:0:0:
347,352,66935,1,2,0:0:0:0:
224,308,67103,2,0,P|223:347|241:383,1,80,2|0,0:0|0:0,0:0:0:0:
343,242,67440,2,0,P|344:203|327:168,1,80,8|2,0:0|0:0,0:0:0:0:
196,84,67777,6,0,P|111:89|50:47,1,160,4|8,0:0|0:0,0:0:0:0:
0,179,68283,1,8,0:0:0:0:
0,179,68367,1,8,0:0:0:0:
0,179,68451,1,8,0:0:0:0:
34,302,68620,1,8,0:0:0:0:
34,302,68704,1,8,0:0:0:0:
34,302,68788,2,0,L|83:294,1,40,8|8,0:0|0:0,0:0:0:0:
135,230,68957,2,0,L|191:232,1,40,8|8,0:0|0:0,0:0:0:0:
257,289,69126,6,0,L|272:198,1,80,4|0,0:0|0:0,0:0:0:0:
316,62,69463,2,0,L|237:71,1,80,8|0,0:0|0:0,0:0:0:0:
468,8,69800,2,0,P|504:64|494:166,1,160,2|8,0:0|0:0,0:0:0:0:
236,73,70305,6,0,L|419:49,1,160,2|0,0:0|0:0,0:0:0:0:
335,232,70811,2,0,L|348:153,1,80,8|2,0:0|0:0,0:0:0:0:
490,273,71148,1,0,0:0:0:0:
434,171,71317,1,2,0:0:0:0:
335,232,71485,2,0,L|245:230,1,80,8|0,0:0|0:0,0:0:0:0:
448,268,71822,5,2,0:0:0:0:
335,232,71991,1,0,0:0:0:0:
241,304,72159,2,0,P|240:343|254:381,1,80,8|0,0:0|0:0,0:0:0:0:
254,381,72412,1,8,0:0:0:0:
254,381,72496,1,8,0:0:0:0:
246,207,72665,2,0,L|165:204,1,80,12|0,0:0|0:0,0:0:0:0:
318,2,73002,6,0,P|366:64|367:142,1,160,12|0,0:0|0:0,0:0:0:0:
154,93,73508,2,0,L|275:97,1,120,12|0,0:0|0:0,0:0:0:0:
297,101,73845,5,8,0:0:0:0:
255,230,74013,1,8,0:0:0:0:
469,118,74182,1,8,0:0:0:0:
395,5,74350,1,8,0:0:0:0:
297,101,74519,6,0,P|250:144|132:139,1,160,4|8,0:0|0:0,0:0:0:0:
47,278,75024,1,2,0:0:0:0:
47,278,75109,1,8,0:0:0:0:
47,278,75193,1,0,0:0:0:0:
138,219,75361,1,2,0:0:0:0:
227,299,75530,2,0,P|236:337|236:377,1,80,8|2,0:0|0:0,0:0:0:0:
247,195,75867,6,0,P|341:175|412:197,1,160,4|8,0:0|0:0,0:0:0:0:
485,116,76373,1,2,0:0:0:0:
485,116,76457,1,8,0:0:0:0:
485,116,76541,1,0,0:0:0:0:
512,261,76710,1,2,0:0:0:0:
485,116,76878,2,0,L|389:105,1,80,8|2,0:0|0:0,0:0:0:0:
230,87,77215,5,12,0:0:0:0:
139,119,77384,1,2,0:0:0:0:
338,163,77553,1,8,0:0:0:0:
247,195,77722,1,2,0:0:0:0:
100,255,77890,5,12,0:0:0:0:
195,271,78058,1,2,0:0:0:0:
0,333,78227,1,8,0:0:0:0:
96,349,78395,1,2,0:0:0:0:
23,181,78564,5,4,0:0:0:0:
139,119,78732,1,8,0:0:0:0:
139,119,78817,1,8,0:0:0:0:
139,119,78901,1,8,0:0:0:0:
247,195,79069,1,8,0:0:0:0:
247,195,79154,1,8,0:0:0:0:
247,195,79238,2,0,L|238:347,2,120,10|2|2,0:0|0:0|0:0,0:0:0:0:
358,44,79912,5,4,0:0:0:0:
412,132,81935,6,0,L|418:79,2,53.3333333333333,8|8|8,0:0|0:0|0:0,0:0:0:0:
411,211,82272,1,8,0:0:0:0:
411,211,82609,6,0,L|421:302,1,80,4|0,0:0|0:0,0:0:0:0:
419,290,82861,1,8,0:0:0:0:
419,290,82946,1,8,0:0:0:0:
257,219,83114,2,0,L|320:169,1,80,4|0,0:0|0:0,0:0:0:0:
347,345,83451,2,0,L|272:315,1,80,4|0,0:0|0:0,0:0:0:0:
109,221,83788,6,0,P|199:194|261:222,1,160,4|0,0:0|0:0,0:0:0:0:
211,101,84294,1,8,0:0:0:0:
171,290,84463,1,2,0:0:0:0:
296,130,84631,1,0,0:0:0:0:
262,243,84800,1,0,0:0:0:0:
367,187,84968,2,0,P|388:129|381:92,1,80,8|0,0:0|0:0,0:0:0:0:
284,16,85305,6,0,L|466:17,1,160,2|8,0:0|0:0,0:0:0:0:
497,109,85811,2,0,P|519:163|507:263,1,160,2|2,0:0|0:0,0:0:0:0:
427,197,86317,1,8,0:0:0:0:
512,356,86485,6,0,P|434:342|355:355,1,160,4|0,0:0|0:0,0:0:0:0:
247,370,86991,2,0,L|260:284,1,80,8|2,0:0|0:0,0:0:0:0:
151,296,87328,2,0,L|139:375,1,80,0|2,0:0|0:0,0:0:0:0:
58,219,87665,2,0,L|152:208,1,80,8|0,0:0|0:0,0:0:0:0:
315,169,88002,5,0,0:0:0:0:
230,80,88170,2,0,L|212:169,1,80,2|8,0:0|0:0,0:0:0:0:
108,26,88508,2,0,L|115:109,1,80,2|8,0:0|0:0,0:0:0:0:
58,219,88845,2,0,P|145:210|213:272,1,160,2|2,0:0|0:0,0:0:0:0:
402,194,89350,5,2,0:0:0:0:
49,133,108227,6,0,P|144:109|196:145,1,160,2|2,0:0|0:0,0:0:0:0:
463,133,109575,2,0,P|368:109|316:145,1,160,2|2,0:0|0:0,0:0:0:0:
258,241,110586,1,0,0:0:0:0:
256,60,110923,6,0,L|244:240,1,160,4|8,0:0|0:0,0:0:0:0:
307,323,111429,1,0,0:0:0:0:
307,323,111513,1,0,0:0:0:0:
307,323,111597,2,0,P|354:274|356:247,1,80,2|0,0:0|0:0,0:0:0:0:
301,180,111935,1,8,0:0:0:0:
426,102,112103,6,0,L|232:89,1,160,2|0,0:0|0:0,0:0:0:0:
47,238,112609,1,8,0:0:0:0:
172,152,112777,1,2,0:0:0:0:
45,92,112946,1,0,0:0:0:0:
137,236,113114,1,2,0:0:0:0:
137,236,113199,1,2,0:0:0:0:
137,236,113283,2,0,L|228:244,1,80,8|2,0:0|0:0,0:0:0:0:
296,337,113620,6,0,P|324:310|335:272,1,80,2|0,0:0|0:0,0:0:0:0:
201,132,113957,2,0,P|227:160|265:171,1,80,8|8,0:0|0:0,0:0:0:0:
299,38,114294,5,8,0:0:0:0:
419,235,114463,1,12,0:0:0:0:
419,235,114800,6,0,L|461:66,1,160,4|0,0:0|0:0,0:0:0:0:
352,24,115305,2,0,P|292:31|257:32,1,80,8|0,0:0|0:0,0:0:0:0:
90,105,115642,2,0,P|129:99|169:97,1,80,8|0,0:0|0:0,0:0:0:0:
169,97,115895,1,8,0:0:0:0:
169,97,115979,1,8,0:0:0:0:
202,244,116148,1,8,0:0:0:0:
202,244,116232,1,8,0:0:0:0:
202,244,116317,6,0,P|161:289|50:294,2,160,4|8|2,0:0|0:0|0:0,0:0:0:0:
302,53,117159,1,0,0:0:0:0:
298,162,117328,1,8,0:0:0:0:
207,17,117496,1,2,0:0:0:0:
298,162,117665,6,0,L|494:144,1,160,2|8,0:0|0:0,0:0:0:0:
401,247,118170,1,2,0:0:0:0:
401,247,118255,1,2,0:0:0:0:
401,247,118339,1,0,0:0:0:0:
298,162,118508,1,0,0:0:0:0:
238,315,118676,1,8,0:0:0:0:
146,176,118845,1,2,0:0:0:0:
66,309,119013,6,0,P|25:319|-2:344,1,80,2|0,0:0|0:0,0:0:0:0:
132,255,119350,2,0,L|148:169,1,80,8|2,0:0|0:0,0:0:0:0:
27,81,119687,2,0,P|67:103|107:105,1,80,2|0,0:0|0:0,0:0:0:0:
256,63,120024,2,0,P|211:77|186:101,1,80,8|2,0:0|0:0,0:0:0:0:
332,101,120361,6,0,P|391:174|484:183,1,160,2|8,0:0|0:0,0:0:0:0:
443,78,120867,1,8,0:0:0:0:
443,78,120951,1,8,0:0:0:0:
443,78,121036,1,8,0:0:0:0:
440,267,121204,1,8,0:0:0:0:
440,267,121288,1,8,0:0:0:0:
440,267,121373,2,0,L|453:179,1,80,8|8,0:0|0:0,0:0:0:0:
443,78,121710,6,0,L|348:72,1,80,4|2,0:0|0:0,0:0:0:0:
205,61,122047,1,8,0:0:0:0:
257,168,122215,6,0,L|337:160,1,80,2|0,0:0|0:0,0:0:0:0:
495,143,122553,1,2,0:0:0:0:
374,267,122721,6,0,L|294:261,1,80,10|0,0:0|0:0,0:0:0:0:
139,249,123058,1,0,0:0:0:0:
65,367,123227,6,0,P|41:316|43:294,1,80,2|8,0:0|0:0,0:0:0:0:
139,249,123564,2,0,P|166:164|124:110,1,160,2|0,0:0|0:0,0:0:0:0:
27,136,124069,2,0,L|17:222,1,80,8|2,0:0|0:0,0:0:0:0:
6,367,124406,5,4,0:0:0:0:
139,249,124575,1,0,0:0:0:0:
27,136,124744,5,8,0:0:0:0:
116,339,124912,1,8,0:0:0:0:
116,339,124996,1,8,0:0:0:0:
116,339,125081,1,8,0:0:0:0:
337,334,125249,2,0,P|367:308|384:273,1,80,12|0,0:0|0:0,0:0:0:0:
398,96,125586,6,0,P|312:119|297:189,1,160,4|0,0:0|0:0,0:0:0:0:
259,57,126092,2,0,L|157:50,1,80,8|0,0:0|0:0,0:0:0:0:
90,191,126429,2,0,L|228:180,1,120,8|8,0:0|0:0,0:0:0:0:
237,181,126766,1,8,0:0:0:0:
292,297,126935,1,8,0:0:0:0:
292,297,127019,1,8,0:0:0:0:
292,297,127103,6,0,L|114:327,2,160,4|8|0,0:0|0:0|0:0,0:0:0:0:
437,348,127946,1,2,0:0:0:0:
292,297,128114,1,8,0:0:0:0:
400,229,128283,1,2,0:0:0:0:
315,138,128451,6,0,L|289:314,1,160,2|8,0:0|0:0,0:0:0:0:
370,53,128957,1,2,0:0:0:0:
370,53,129041,1,0,0:0:0:0:
370,53,129126,2,0,P|297:41|276:46,1,80
129,50,129463,1,8,0:0:0:0:
98,81,129547,1,0,0:0:0:0:
91,124,129631,1,2,0:0:0:0:
106,164,129715,1,0,0:0:0:0:
142,188,129800,6,0,L|230:174,1,80,2|0,0:0|0:0,0:0:0:0:
129,50,130137,1,8,0:0:0:0:
129,50,130305,1,0,0:0:0:0:
17,159,130474,2,0,P|3:188|2:244,1,80,2|0,0:0|0:0,0:0:0:0:
117,374,130811,2,0,P|131:345|132:289,1,80,8|2,0:0|0:0,0:0:0:0:
289,309,131148,6,0,L|406:297,1,80,2|8,0:0|0:0,0:0:0:0:
412,297,131401,1,8,0:0:0:0:
412,297,131485,1,8,0:0:0:0:
474,196,131654,1,8,0:0:0:0:
474,196,131738,1,8,0:0:0:0:
474,196,131822,6,0,L|403:188,2,53.3333333333333,8|4|0,0:0|0:3|0:0,0:0:0:0:
354,129,132159,2,0,L|301:123,2,53.3333333333333,4|4|0,0:3|0:3|0:0,0:0:0:0:
229,183,132496,6,0,L|216:246,1,64,4|0,0:0|0:0,0:0:0:0:
87,272,132833,2,0,L|101:210,1,64,2|0,0:0|0:0,0:0:0:0:
165,316,133170,1,2,0:0:0:0:
404,316,133508,1,8,0:0:0:0:
165,316,133845,6,0,L|80:296,1,64,0|0,0:0|0:0,0:0:0:0:
229,183,134182,2,0,L|291:197,1,64,2|0,0:0|0:0,0:0:0:0:
128,212,134519,1,2,0:0:0:0:
308,352,134856,1,8,0:0:0:0:
48,164,135193,6,0,L|52:80,1,64
184,60,135530,2,0,L|180:123,1,64,2|0,0:0|0:0,0:0:0:0:
104,8,135867,1,2,0:0:0:0:
128,212,136204,1,8,0:0:0:0:
308,56,136541,6,0,L|232:60,1,64,0|2,0:0|0:0,0:0:0:0:
344,185,136878,2,0,L|407:181,1,64,2|0,0:0|0:0,0:0:0:0:
224,160,137215,1,0,0:0:0:0:
224,160,137553,5,8,0:0:0:0:
180,232,137721,1,2,0:0:0:0:
264,236,137890,5,4,0:0:0:0:
72,132,138227,1,0,0:0:0:0:
64,348,138564,1,0,0:0:0:0:
64,348,138732,1,0,0:0:0:0:
64,348,138901,1,8,0:0:0:0:
264,236,139238,5,0,0:0:0:0:
452,344,139575,1,0,0:0:0:0:
452,344,139744,1,0,0:0:0:0:
452,344,139912,1,0,0:0:0:0:
453,126,140249,1,8,0:0:0:0:
392,241,140586,5,8,0:0:0:0:
136,238,140923,1,8,0:0:0:0:
329,116,141260,1,8,0:0:0:0:
199,154,141597,1,8,0:0:0:0:
252,45,141935,1,8,0:0:0:0:
312,221,142272,1,8,0:0:0:0:
312,221,142609,5,8,0:0:0:0:
252,45,142777,1,8,0:0:0:0:
199,154,142946,1,8,0:0:0:0:
329,116,143114,1,8,0:0:0:0:
134,240,143283,5,0,0:0:0:0:
134,240,143451,1,0,0:0:0:0:
392,241,144631,5,0,0:0:0:0:
392,241,144800,1,0,0:0:0:0:
134,240,145305,1,0,0:0:0:0:
134,240,145474,1,0,0:0:0:0:
351,293,145979,5,8,0:0:0:0:
391,197,146148,1,8,0:0:0:0:
329,116,146317,1,8,0:0:0:0:
485,183,146485,1,8,0:0:0:0:
351,293,146654,5,8,0:0:0:0:
453,271,146822,1,8,0:0:0:0:
293,215,146991,1,8,0:0:0:0:
427,97,147159,1,8,0:0:0:0:
329,116,147328,5,2,0:0:0:0:
256,192,147412,12,0,148339,0:0:0:0:
139,116,148676,6,0,P|110:139|88:184,1,80,2|0,0:0|0:0,0:0:0:0:
373,116,149350,2,0,P|402:139|424:184,1,80,2|0,0:0|0:0,0:0:0:0:
166,198,150024,2,0,L|177:280,1,80,2|0,0:0|0:0,0:0:0:0:
346,198,150699,2,0,L|335:280,1,80,2|2,0:0|0:0,0:0:0:0:
208,349,151373,6,0,P|144:349|100:342,1,80,4|0,0:0|0:0,0:0:0:0:
304,349,151710,2,0,P|368:349|412:342,1,80,8|0,0:0|0:0,0:0:0:0:
485,192,152047,2,0,P|391:210|346:274,1,160,2|8,0:0|0:0,0:0:0:0:
485,192,152553,6,0,L|483:24,1,160,2|0,0:0|0:0,0:0:0:0:
379,27,153058,1,8,0:0:0:0:
240,121,153227,1,2,0:0:0:0:
260,35,153395,1,0,0:0:0:0:
408,109,153564,1,2,0:0:0:0:
240,121,153732,2,0,L|242:203,1,80,8|0,0:0|0:0,0:0:0:0:
321,76,154069,5,2,0:0:0:0:
328,162,154238,1,0,0:0:0:0:
157,71,154406,2,0,P|142:120|148:164,1,80,8|0,0:0|0:0,0:0:0:0:
143,148,154659,1,8,0:0:0:0:
143,148,154744,1,0,0:0:0:0:
199,304,154912,2,0,L|217:226,1,80,8|0,0:0|0:0,0:0:0:0:
240,121,155249,6,0,L|422:139,1,160,4|0,0:0|0:0,0:0:0:0:
475,277,155755,2,0,L|335:263,1,120,12|8,0:0|0:0,0:0:0:0:
346,245,156092,2,0,L|267:237,1,80,8|0,0:0|0:0,0:0:0:0:
266,236,156345,1,8,0:0:0:0:
266,236,156429,1,8,0:0:0:0:
177,335,156597,1,8,0:0:0:0:
177,335,156682,1,8,0:0:0:0:
177,335,156766,6,0,P|142:256|151:178,1,160,4|8,0:0|0:0,0:0:0:0:
123,55,157272,1,2,0:0:0:0:
123,55,157356,1,8,0:0:0:0:
123,55,157440,1,0,0:0:0:0:
37,116,157609,1,2,0:0:0:0:
24,217,157777,2,0,P|26:258|40:304,1,80,8|0,0:0|0:0,0:0:0:0:
215,83,158114,6,0,P|221:177|217:248,1,160,4|8,0:0|0:0,0:0:0:0:
109,341,158620,2,0,P|203:335|274:339,1,160,4|0,0:0|0:0,0:0:0:0:
412,273,159126,2,0,P|420:309|417:366,1,80,8|0,0:0|0:0,0:0:0:0:
260,363,159463,6,0,P|284:296|273:200,1,160,4|8,0:0|0:0,0:0:0:0:
149,142,159968,1,2,0:0:0:0:
140,240,160137,2,0,P|121:281|129:327,1,80
220,56,160474,2,0,P|177:48|138:54,1,80,8|2,0:0|0:0,0:0:0:0:
288,104,160811,6,0,P|362:76|441:81,1,160,4|8,0:0|0:0,0:0:0:0:
512,208,161317,1,8,0:0:0:0:
512,208,161401,1,8,0:0:0:0:
512,208,161485,1,8,0:0:0:0:
424,320,161654,1,8,0:0:0:0:
424,320,161738,1,8,0:0:0:0:
424,320,161822,2,0,L|354:316,1,40,8|8,0:0|0:0,0:0:0:0:
305,276,161991,2,0,L|259:290,1,40,8|8,0:0|0:0,0:0:0:0:
213,358,162159,6,0,L|133:349,1,80,4|0,0:0|0:0,0:0:0:0:
125,190,162496,2,0,L|204:199,1,80,8|0,0:0|0:0,0:0:0:0:
59,268,162833,2,0,L|218:284,1,160,2|8,0:0|0:0,0:0:0:0:
357,187,163339,6,0,P|339:92|270:62,1,160,2|0,0:0|0:0,0:0:0:0:
281,345,163845,1,8,0:0:0:0:
357,187,164013,1,2,0:0:0:0:
270,249,164182,1,0,0:0:0:0:
437,246,164350,1,2,0:0:0:0:
317,99,164519,2,0,L|417:99,1,80,8|0,0:0|0:0,0:0:0:0:
188,45,164856,5,2,0:0:0:0:
317,99,165024,1,0,0:0:0:0:
207,187,165193,2,0,P|193:224|193:264,1,80,8|0,0:0|0:0,0:0:0:0:
193,264,165446,1,8,0:0:0:0:
193,264,165530,1,8,0:0:0:0:
381,202,165699,2,0,L|299:222,1,80,12|0,0:0|0:0,0:0:0:0:
459,334,166036,6,0,P|489:255|462:174,1,160,12|0,0:0|0:0,0:0:0:0:
486,78,166541,2,0,L|367:99,1,120,12|0,0:0|0:0,0:0:0:0:
333,104,166878,5,8,0:0:0:0:
185,217,167047,1,8,0:0:0:0:
363,202,167215,1,8,0:0:0:0:
238,111,167384,1,8,0:0:0:0:
95,206,167553,6,0,P|117:266|223:318,1,160,4|8,0:0|0:0,0:0:0:0:
363,202,168058,1,2,0:0:0:0:
363,202,168142,1,8,0:0:0:0:
363,202,168227,2,0,P|324:192|284:192,1,80,0|2,0:0|0:0,0:0:0:0:
351,375,168564,2,0,P|360:337|360:297,1,80,8|2,0:0|0:0,0:0:0:0:
284,96,168901,6,0,P|378:116|449:94,1,160,4|8,0:0|0:0,0:0:0:0:
210,29,169406,1,2,0:0:0:0:
210,29,169491,1,8,0:0:0:0:
210,29,169575,1,0,0:0:0:0:
308,0,169744,1,2,0:0:0:0:
112,56,169912,1,8,0:0:0:0:
284,96,170081,1,0,0:0:0:0:
75,158,170249,5,4,0:0:0:0:
75,158,170418,1,2,0:0:0:0:
284,96,170586,1,8,0:0:0:0:
284,96,170755,1,2,0:0:0:0:
362,297,170923,1,4,0:0:0:0:
362,297,171092,1,2,0:0:0:0:
156,362,171260,1,8,0:0:0:0:
156,362,171429,1,2,0:0:0:0:
213,155,171597,5,4,0:0:0:0:
109,273,171766,1,8,0:0:0:0:
109,273,171850,1,8,0:0:0:0:
109,273,171935,1,8,0:0:0:0:
354,193,172103,1,8,0:0:0:0:
354,193,172187,1,8,0:0:0:0:
354,193,172272,2,0,L|345:41,2,120,10|2|2,0:0|0:0|0:0,0:0:0:0:
460,285,172946,5,4,0:0:0:0:
421,74,173620,1,2,0:0:0:0:
288,227,174294,1,2,0:0:0:0:
400,181,174631,1,2,0:0:0:0:
288,227,174968,6,0,L|214:217,2,53.3333333333333,10|8|8,0:0|0:0|0:0,0:0:0:0:
341,296,175305,1,8,0:0:0:0:
142,339,175642,6,0,L|161:251,1,80,4|0,0:0|0:0,0:0:0:0:
158,260,175895,1,8,0:0:0:0:
158,260,175979,1,8,0:0:0:0:
130,162,176148,2,0,L|63:119,1,80,4|0,0:0|0:0,0:0:0:0:
231,183,176485,2,0,L|307:158,1,80,4|0,0:0|0:0,0:0:0:0:
255,280,176822,6,0,L|421:223,1,160,4|0,0:0|0:0,0:0:0:0:
477,148,177328,2,0,P|489:89|473:60,1,80,8|0,0:0|0:0,0:0:0:0:
231,183,177665,1,2,0:0:0:0:
379,117,177833,1,0,0:0:0:0:
288,32,178002,2,0,L|193:25,1,80,8|2,0:0|0:0,0:0:0:0:
113,155,178339,6,0,P|119:115|114:76,1,80,4|0,0:0|0:0,0:0:0:0:
0,52,178676,1,8,0:0:0:0:
16,240,178845,1,8,0:0:0:0:
16,240,178929,1,8,0:0:0:0:
16,240,179013,2,0,L|9:349,2,106.666666666667,8|8|8,0:0|0:0|0:0,0:0:0:0:
219,309,179687,5,4,0:0:0:0:
