osu file format v14

[General]
AudioFilename: 14.Miraizu.mp3
AudioLeadIn: 1500
PreviewTime: 68788
Countdown: 0
SampleSet: Soft
StackLeniency: 0.7
Mode: 0
LetterboxInBreaks: 0
WidescreenStoryboard: 0

[Editor]
DistanceSpacing: 1.2
BeatDivisor: 4
GridSize: 4
TimelineZoom: 2.999999

[Metadata]
Title:Miraizu feat.Aida Miou(CV:Toyosaki Aki)
TitleUnicode:未来図 feat.合田 美桜(CV:豊崎 愛生)
Artist:HoneyWorks
ArtistUnicode:HoneyWorks
Creator:Fycho
Version:Hard
Source:
Tags:僕じゃダメですか? ~「告白実行委員会」キャラクターソング集~ 告白実行委員会 Kokuhaku Jikkou Iinkai Boku ja Dame desuka?
BeatmapID:696629
BeatmapSetID:306591

[Difficulty]
HPDrainRate:5
CircleSize:4
OverallDifficulty:6
ApproachRate:7.5
SliderMultiplier:1.4
SliderTickRate:1

[Events]
//Background and Video events
0,0,"48897080_p0.png",0,0
//Break Periods
2,89550,107402
//Storyboard Layer 0 (Background)
//Storyboard Layer 1 (Fail)
//Storyboard Layer 2 (Pass)
//Storyboard Layer 3 (Foreground)
//Storyboard Sound Samples

[TimingPoints]
362,337.078651685393,4,2,1,30,1,0
5755,-133.333333333333,4,2,1,40,0,0
10474,-166.666666666667,4,2,1,50,0,0
11148,-125,4,2,1,60,0,0
15024,-100,4,2,1,80,0,0
15614,-100,4,2,1,40,0,0
15867,-100,4,2,1,80,0,0
22609,-100,4,2,1,45,0,0
23283,-133.333333333333,4,2,1,45,0,0
23957,-100,4,2,1,45,0,0
24631,-100,4,2,1,80,0,0
26148,-100,4,2,1,65,0,0
31373,-100,4,2,1,50,0,0
36766,-100,4,2,1,65,0,0
42159,-125,4,2,1,50,0,0
50249,-125,4,2,1,40,0,0
55642,-100,4,2,1,40,0,0
55979,-100,4,2,1,40,0,0
56317,-100,4,2,1,50,0,0
56654,-100,4,2,1,60,0,0
56991,-200,4,2,1,40,0,0
58339,-100,4,2,1,80,0,1
73845,-100,4,2,1,50,0,1
74182,-100,4,2,1,65,0,1
74519,-100,4,2,1,80,0,1
79912,-100,4,2,1,50,0,0
82609,-100,4,2,1,70,0,0
108227,-200,4,2,1,40,0,0
110923,-100,4,2,1,80,0,0
131822,-100,4,2,1,70,0,0
132496,-125,4,2,1,50,0,0
140923,-100,4,2,1,30,0,0
146317,-100,4,2,1,40,0,0
146654,-100,4,2,1,50,0,0
146991,-100,4,2,1,60,0,0
147328,-200,4,2,1,50,0,0
151036,-66.6666666666667,4,2,1,50,0,0
151373,-100,4,2,1,80,0,1
172946,-100,4,2,1,50,0,0
175642,-100,4,2,1,70,0,0

[Colours]
Combo1 : 2,255,66
Combo2 : 6,255,255
Combo3 : 255,60,157
Combo4 : 183,111,189

[HitObjects]
256,192,362,12,0,5081,0:0:0:0:
335,277,5755,6,0,P|351:200|349:158,2,105.000004005432,2|0|0,0:0|0:0|0:0,0:0:0:0:
255,208,6766,1,0,0:0:0:0:
177,277,7103,2,0,P|161:200|160:161,2,105.000004005432
255,208,8114,1,0,0:0:0:0:
257,103,8451,6,0,L|133:102,1,105.000004005432,2|0,0:0|0:0,0:0:0:0:
46,95,9126,1,0,0:0:0:0:
29,198,9463,2,0,L|52:305,2,105.000004005432,0|2|0,0:0|0:0|0:0,0:0:0:0:
101,154,10474,6,0,B|157:128|217:166|274:139,1,167.999994873047,2|4,0:0|0:0,0:0:0:0:
266,142,11822,5,2,0:0:0:0:
297,249,12159,1,0,0:0:0:0:
297,249,12328,2,0,P|209:249|123:265,1,168,2|0,0:0|0:0,0:0:0:0:
82,364,13170,2,0,P|145:361|210:345,1,112,2|0,0:0|0:0,0:0:0:0:
271,207,13845,5,4,0:0:0:0:
361,354,14182,1,0,0:0:0:0:
444,206,14519,1,8,0:0:0:0:
444,206,14687,2,0,L|445:138,1,56,8|0,0:0|0:0,0:0:0:0:
415,78,15024,6,0,P|314:94|267:124,1,140,4|0,0:0|0:0,0:0:0:0:
206,127,15530,2,0,L|176:99,2,35,8|0|8,0:0|0:0|0:0,0:0:0:0:
256,185,15867,2,0,P|263:224|261:256,1,70,8|2,0:0|0:0,0:0:0:0:
193,290,16204,2,0,P|191:330|201:362,1,70,8|2,0:0|0:0,0:0:0:0:
276,364,16541,6,0,L|421:342,1,140,4|8,0:0|0:0,0:0:0:0:
468,288,17047,1,2,0:0:0:0:
468,288,17131,1,8,0:0:0:0:
468,288,17215,2,0,P|469:243|454:208,1,70,0|2,0:0|0:0,0:0:0:0:
436,146,17553,2,0,P|388:148|358:163,1,70,8|2,0:0|0:0,0:0:0:0:
291,148,17890,6,0,L|246:301,1,140,2|8,0:0|0:0,0:0:0:0:
181,314,18395,2,0,L|183:363,2,35,8|8|8,0:0|0:0|0:0,0:0:0:0:
122,263,18732,1,2,0:0:0:0:
45,268,18901,2,0,L|44:188,1,70,8|2,0:0|0:0,0:0:0:0:
38,122,19238,6,0,L|123:138,1,70,8|2,0:0|0:0,0:0:0:0:
179,110,19575,2,0,L|264:126,1,70,8|2,0:0|0:0,0:0:0:0:
306,73,19912,2,0,L|391:89,1,70,8|2,0:0|0:0,0:0:0:0:
450,73,20249,2,0,P|461:126|453:157,1,70,8|2,0:0|0:0,0:0:0:0:
424,210,20586,6,0,P|355:248|297:244,1,140,4|8,0:0|0:0,0:0:0:0:
220,229,21092,1,8,0:0:0:0:
220,229,21260,2,0,L|230:356,2,105,10|2|2,0:0|0:0|0:0,0:0:0:0:
242,154,21935,5,4,0:0:0:0:
242,154,22609,1,2,0:0:0:0:
358,91,22946,1,0,0:0:0:0:
474,129,23283,6,0,L|474:192,1,52.5000020027161,0|2,0:0|0:0,0:0:0:0:
396,162,23620,2,0,L|397:227,1,52.5000020027161,0|2,0:0|0:0,0:0:0:0:
444,277,23957,6,0,L|452:323,3,46.6666666666667,8|8|8|8,0:0|0:0|0:0|0:0,0:0:0:0:
302,287,24631,6,0,L|316:206,1,70,4|0,0:0|0:0,0:0:0:0:
391,221,24968,2,0,L|405:140,1,70,0|8,0:0|0:0,0:0:0:0:
397,75,25305,1,0,0:0:0:0:
322,54,25474,2,0,P|293:53|243:73,1,70,12|0,0:0|0:0,0:0:0:0:
199,120,25811,6,0,P|93:128|51:117,1,140,4|0,0:0|0:0,0:0:0:0:
24,188,26317,1,8,0:0:0:0:
24,188,26485,2,0,L|19:260,2,70,0|2|0,0:0|0:0|0:0,0:0:0:0:
98,206,26991,2,0,L|92:284,1,70,8|0,0:0|0:0,0:0:0:0:
115,349,27328,6,0,P|207:360|268:340,1,140,2|8,0:0|0:0,0:0:0:0:
262,271,27833,2,0,P|325:254|400:259,1,140,2|2,0:0|0:0,0:0:0:0:
474,276,28339,1,8,0:0:0:0:
505,205,28508,6,0,P|517:126|492:60,1,140,4|0,0:0|0:0,0:0:0:0:
423,55,29013,2,0,L|346:75,1,70,8|0,0:0|0:0,0:0:0:0:
279,54,29350,2,0,L|194:47,1,70,2|0,0:0|0:0,0:0:0:0:
134,68,29687,2,0,L|65:83,1,70,8|0,0:0|0:0,0:0:0:0:
32,152,30024,6,0,L|3:289,1,140,4|0,0:0|0:0,0:0:0:0:
46,352,30530,2,0,P|116:364|203:336,1,140,4|8,0:0|0:0,0:0:0:0:
256,325,31036,2,0,L|256:251,1,70,8|8,0:0|0:0,0:0:0:0:
244,178,31373,6,0,L|394:178,2,140,4|8|0,0:0|0:0|0:0,0:0:0:0:
187,126,32215,2,0,P|143:91|54:89,1,140,2|0,0:0|0:0,0:0:0:0:
26,154,32721,6,0,L|-4:318,1,140,2|0,0:0|0:0,0:0:0:0:
51,349,33227,2,0,P|105:371|188:359,1,140,2|0,0:0|0:0,0:0:0:0:
227,296,33732,1,8,0:0:0:0:
380,285,34069,6,0,P|386:243|373:203,1,70,2|2,0:0|0:0,0:0:0:0:
342,148,34406,2,0,L|491:122,1,140,8|2,0:0|0:0,0:0:0:0:
487,200,34912,2,0,P|497:234|482:276,1,70
483,343,35249,1,2,0:0:0:0:
410,368,35418,6,0,P|332:359|269:390,1,140,2|0,0:0|0:0,0:0:0:0:
213,341,35923,2,0,L|206:184,1,140,2|2,0:0|0:0,0:0:0:0:
257,143,36429,1,8,0:0:0:0:
329,167,36597,1,2,0:0:0:0:
400,138,36766,5,12,0:0:0:0:
250,61,37103,1,8,0:0:0:0:
174,210,37440,1,8,0:0:0:0:
324,287,37777,1,8,0:0:0:0:
401,105,38114,5,12,0:0:0:0:
223,50,38451,1,8,0:0:0:0:
169,226,38788,1,8,0:0:0:0:
346,281,39125,1,8,0:0:0:0:
396,70,39463,5,12,0:0:0:0:
194,45,39800,1,8,0:0:0:0:
169,245,40137,1,8,0:0:0:0:
372,271,40474,1,8,0:0:0:0:
448,120,40811,6,0,L|281:104,1,140,10|8,0:0|0:0,0:0:0:0:
230,75,41317,1,0,0:0:0:0:
230,75,41485,2,0,P|211:130|220:157,1,70,10|0,0:0|0:0,0:0:0:0:
273,192,41822,1,8,0:0:0:0:
144,316,42159,5,4,0:0:0:0:
165,172,42496,1,2,0:0:0:0:
248,291,42833,1,2,0:0:0:0:
283,149,43170,1,8,0:0:0:0:
393,120,43508,5,0,0:0:0:0:
372,264,43845,1,2,0:0:0:0:
511,97,44182,1,2,0:0:0:0:
476,239,44519,1,8,0:0:0:0:
341,183,44856,5,0,0:0:0:0:
209,245,45193,1,2,0:0:0:0:
154,109,45530,1,2,0:0:0:0:
22,171,45867,1,8,0:0:0:0:
22,319,46204,5,0,0:0:0:0:
154,381,46541,1,2,0:0:0:0:
209,245,46878,1,2,0:0:0:0:
341,307,47215,1,8,0:0:0:0:
476,253,47553,6,0,L|466:141,1,112,4|2,0:0|0:0,0:0:0:0:
326,98,48227,2,0,L|336:217,1,112,2|8,0:0|0:0,0:0:0:0:
227,306,48901,2,0,L|217:194,1,112,0|2,0:0|0:0,0:0:0:0:
77,151,49575,2,0,L|87:270,1,112,2|8,0:0|0:0,0:0:0:0:
189,365,50249,6,0,P|261:354|288:311,1,112,12|8,0:0|0:0,0:0:0:0:
289,253,50755,2,0,L|422:269,1,112,2|0,0:0|0:0,0:0:0:0:
460,225,51260,2,0,P|471:191|466:151,1,56,8|0,0:0|0:0,0:0:0:0:
449,101,51597,6,0,L|319:86,1,112,8|8,0:0|0:0,0:0:0:0:
214,166,52272,2,0,L|234:220,1,56,8|8,0:0|0:0,0:0:0:0:
161,227,52609,2,0,L|184:287,1,56,8|8,0:0|0:0,0:0:0:0:
218,342,52946,5,0,0:0:0:0:
218,342,53114,1,0,0:0:0:0:
395,159,54294,5,0,0:0:0:0:
395,159,54463,1,0,0:0:0:0:
210,148,54968,1,0,0:0:0:0:
210,148,55137,1,0,0:0:0:0:
102,235,55642,6,0,L|99:310,1,70,8|8,0:0|0:0,0:0:0:0:
187,214,55979,2,0,L|191:292,1,70,8|8,0:0|0:0,0:0:0:0:
270,187,56317,2,0,L|283:273,1,70,8|8,0:0|0:0,0:0:0:0:
348,141,56654,2,0,L|365:218,1,70,8|8,0:0|0:0,0:0:0:0:
386,297,56991,5,2,0:0:0:0:
256,192,57075,12,0,58002,0:0:0:0:
241,90,58339,6,0,L|329:100,1,70,4|0,0:0|0:0,0:0:0:0:
389,68,58676,2,0,L|405:165,1,70,8|0,0:0|0:0,0:0:0:0:
448,206,59013,2,0,P|417:263|336:295,1,140,2|8,0:0|0:0,0:0:0:0:
272,324,59519,6,0,L|124:321,1,140,2|0,0:0|0:0,0:0:0:0:
48,315,60024,2,0,L|52:242,1,70,8|2,0:0|0:0,0:0:0:0:
114,188,60361,2,0,P|118:157|106:118,1,70,0|2,0:0|0:0,0:0:0:0:
85,38,60699,2,0,L|184:40,1,70,8|2,0:0|0:0,0:0:0:0:
235,63,61036,5,2,0:0:0:0:
311,28,61204,1,0,0:0:0:0:
393,44,61373,2,0,P|408:93|401:126,1,70,8|0,0:0|0:0,0:0:0:0:
452,180,61710,1,0,0:0:0:0:
418,256,61878,2,0,L|348:266,1,70,12|0,0:0|0:0,0:0:0:0:
271,233,62215,6,0,P|192:245|143:298,1,140,4|0,0:0|0:0,0:0:0:0:
170,366,62721,2,0,L|329:347,1,140,12|8,0:0|0:0,0:0:0:0:
392,338,63227,2,0,L|397:377,2,35,0|8|8,0:0|0:0|0:0,0:0:0:0:
456,283,63564,1,8,0:0:0:0:
456,283,63648,1,8,0:0:0:0:
456,283,63732,6,0,P|470:203|481:139,1,140,4|8,0:0|0:0,0:0:0:0:
420,85,64238,1,2,0:0:0:0:
336,90,64406,2,0,P|327:128|330:163,1,70,0|2,0:0|0:0,0:0:0:0:
314,241,64744,2,0,P|274:241|242:234,1,70,8|0,0:0|0:0,0:0:0:0:
163,211,65081,6,0,P|143:305|153:367,1,140,4|8,0:0|0:0,0:0:0:0:
231,347,65586,2,0,P|307:327|371:341,1,140,4|0,0:0|0:0,0:0:0:0:
450,343,66092,2,0,L|434:251,1,70,8|0,0:0|0:0,0:0:0:0:
376,216,66429,6,0,P|352:149|367:72,1,140,4|8,0:0|0:0,0:0:0:0:
441,52,66935,1,2,0:0:0:0:
473,128,67103,2,2,P|490:163|490:198,1,70
453,268,67440,2,0,L|469:342,1,70,8|2,0:0|0:0,0:0:0:0:
388,365,67777,6,0,P|321:322|256:335,1,140,4|8,0:0|0:0,0:0:0:0:
180,341,68283,2,0,L|158:193,1,140,8|0,0:0|0:0,0:0:0:0:
232,161,68788,2,0,L|239:92,1,70,8|8,0:0|0:0,0:0:0:0:
207,12,69126,6,0,L|132:30,1,70,4|0,0:0|0:0,0:0:0:0:
94,100,69463,2,0,L|13:91,1,70,8|0,0:0|0:0,0:0:0:0:
29,176,69800,2,0,P|21:253|37:312,1,140,2|8,0:0|0:0,0:0:0:0:
105,361,70305,6,0,L|241:325,1,140,2|0,0:0|0:0,0:0:0:0:
309,276,70811,2,0,L|309:206,1,70,8|2,0:0|0:0,0:0:0:0:
324,123,71148,2,0,L|396:109,1,70,0|2,0:0|0:0,0:0:0:0:
474,128,71485,2,0,L|475:197,1,70,8|0,0:0|0:0,0:0:0:0:
481,282,71822,5,2,0:0:0:0:
420,341,71991,1,0,0:0:0:0:
338,322,72159,2,0,P|286:329|260:335,1,70,8|0,0:0|0:0,0:0:0:0:
184,330,72496,1,8,0:0:0:0:
111,286,72665,2,0,L|149:205,1,70,12|0,0:0|0:0,0:0:0:0:
190,154,73002,6,0,P|108:142|66:195,1,140,12|0,0:0|0:0,0:0:0:0:
16,242,73508,2,0,L|22:319,1,70,12|0,0:0|0:0,0:0:0:0:
76,375,73845,1,8,0:0:0:0:
153,344,74013,1,8,0:0:0:0:
236,357,74182,1,8,0:0:0:0:
315,329,74350,1,8,0:0:0:0:
318,244,74519,6,0,P|380:210|451:215,1,140,4|8,0:0|0:0,0:0:0:0:
497,146,75024,1,2,0:0:0:0:
497,146,75193,2,0,P|496:106|486:79,1,70,0|2,0:0|0:0,0:0:0:0:
428,16,75530,2,0,L|370:55,1,70,8|2,0:0|0:0,0:0:0:0:
299,99,75867,6,0,P|205:119|156:102,1,140,4|8,0:0|0:0,0:0:0:0:
88,72,76373,1,2,0:0:0:0:
31,133,76541,2,0,L|19:220,1,70,0|2,0:0|0:0,0:0:0:0:
55,279,76878,2,0,L|55:353,1,70,8|2,0:0|0:0,0:0:0:0:
139,351,77215,6,0,L|210:341,1,70,12|2,0:0|0:0,0:0:0:0:
292,334,77553,2,0,L|361:346,1,70,8|2,0:0|0:0,0:0:0:0:
377,263,77890,2,0,L|286:247,1,70,12|2,0:0|0:0,0:0:0:0:
223,250,78227,2,0,L|132:266,1,70,8|2,0:0|0:0,0:0:0:0:
108,191,78564,5,4,0:0:0:0:
150,118,78732,2,0,L|146:71,2,35,8|8|8,0:0|0:0|0:0,0:0:0:0:
226,49,79069,2,0,L|230:8,2,35,8|8|8,0:0|0:0|0:0,0:0:0:0:
290,259,79575,1,8,0:0:0:0:
462,132,79912,5,4,0:0:0:0:
91,248,81935,6,0,L|88:299,3,46.6666666666667,8|8|8|8,0:0|0:0|0:0|0:0,0:0:0:0:
69,127,82609,6,0,L|152:133,1,70,4|0,0:0|0:0,0:0:0:0:
210,103,82946,1,8,0:0:0:0:
272,147,83114,2,0,P|285:184|272:232,1,70,4|0,0:0|0:0,0:0:0:0:
287,290,83451,2,0,L|360:289,1,70,4|0,0:0|0:0,0:0:0:0:
417,336,83788,6,0,P|399:250|426:194,1,140,4|0,0:0|0:0,0:0:0:0:
403,128,84294,2,0,P|309:159|264:153,1,140,8|0,0:0|0:0,0:0:0:0:
202,117,84800,1,0,0:0:0:0:
128,138,84968,2,0,P|107:196|110:224,1,70,8|0,0:0|0:0,0:0:0:0:
51,257,85305,6,0,L|194:255,1,140,2|8,0:0|0:0,0:0:0:0:
253,299,85811,2,0,P|288:256|286:168,1,140,2|2,0:0|0:0,0:0:0:0:
243,111,86317,1,8,0:0:0:0:
211,41,86485,6,0,P|285:56|368:42,1,140,4|0,0:0|0:0,0:0:0:0:
424,60,86991,2,0,L|410:139,1,70,8|2,0:0|0:0,0:0:0:0:
449,196,87328,2,0,L|465:264,1,70,0|2,0:0|0:0,0:0:0:0:
399,304,87665,2,0,L|382:229,1,70,8|0,0:0|0:0,0:0:0:0:
322,188,88002,5,0,0:0:0:0:
322,188,88170,2,0,L|251:217,1,70,2|8,0:0|0:0,0:0:0:0:
179,220,88508,2,0,L|101:199,1,70,2|8,0:0|0:0,0:0:0:0:
86,127,88845,2,0,P|89:192|40:248,1,140,2|2,0:0|0:0,0:0:0:0:
14,319,89350,5,2,0:0:0:0:
463,251,108227,6,0,P|368:275|332:262,1,140,2|2,0:0|0:0,0:0:0:0:
49,251,109575,2,0,P|144:275|188:254,1,140,2|2,0:0|0:0,0:0:0:0:
255,188,110586,1,0,0:0:0:0:
255,188,110923,6,0,L|266:17,1,140,4|8,0:0|0:0,0:0:0:0:
188,11,111429,1,0,0:0:0:0:
110,43,111597,2,0,P|63:92|61:114,1,70,2|0,0:0|0:0,0:0:0:0:
64,175,111935,1,8,0:0:0:0:
92,253,112103,6,0,L|259:265,1,140,2|0,0:0|0:0,0:0:0:0:
305,304,112609,1,8,0:0:0:0:
383,334,112777,1,2,0:0:0:0:
458,295,112946,2,0,P|475:259|471:209,1,70,0|2,0:0|0:0,0:0:0:0:
453,148,113283,2,0,L|383:151,1,70,8|2,0:0|0:0,0:0:0:0:
313,103,113620,6,0,P|285:130|277:161,1,70,2|0,0:0|0:0,0:0:0:0:
300,240,113957,2,0,L|283:319,1,70,8|8,0:0|0:0,0:0:0:0:
212,343,114294,1,8,0:0:0:0:
132,314,114463,2,0,L|56:309,1,70,12|0,0:0|0:0,0:0:0:0:
40,228,114800,6,0,P|34:143|64:85,1,140,4|0,0:0|0:0,0:0:0:0:
124,45,115305,2,0,P|184:38|206:36,1,70,8|0,0:0|0:0,0:0:0:0:
261,86,115642,2,0,P|300:84|337:77,1,70,8|0,0:0|0:0,0:0:0:0:
411,53,115979,1,8,0:0:0:0:
411,53,116148,1,8,0:0:0:0:
485,91,116317,6,0,P|497:167|469:232,2,140,4|8|2,0:0|0:0|0:0,0:0:0:0:
411,53,117159,1,0,0:0:0:0:
327,63,117328,1,8,0:0:0:0:
319,146,117496,1,2,0:0:0:0:
308,229,117665,6,0,L|144:249,1,140,2|8,0:0|0:0,0:0:0:0:
94,208,118170,2,0,P|70:254|81:363,1,140,2|2,0:0|0:0,0:0:0:0:
146,377,118676,1,8,0:0:0:0:
224,345,118845,1,2,0:0:0:0:
301,375,119013,6,0,P|342:365|369:341,1,70,2|0,0:0|0:0,0:0:0:0:
345,265,119350,2,0,L|348:192,1,70,8|2,0:0|0:0,0:0:0:0:
401,130,119687,2,0,P|435:134|464:153,1,70
509,224,120024,2,0,P|478:249|449:258,1,70,8|2,0:0|0:0,0:0:0:0:
378,302,120361,6,0,P|315:292|239:293,1,140,2|8,0:0|0:0,0:0:0:0:
182,230,120867,2,0,L|181:177,2,35,8|8|8,0:0|0:0|0:0,0:0:0:0:
103,260,121204,1,8,0:0:0:0:
103,260,121288,1,8,0:0:0:0:
103,260,121373,2,0,L|91:337,1,70,8|8,0:0|0:0,0:0:0:0:
166,368,121710,6,0,L|249:373,2,70,4|2|0,0:0|0:0|0:0,0:0:0:0:
204,293,122215,2,0,L|280:296,2,70,2|0|2,0:0|0:0|0:0,0:0:0:0:
235,215,122721,2,0,L|307:217,2,70,10|0|0,0:0|0:0|0:0,0:0:0:0:
163,169,123227,6,0,P|145:127|150:92,1,70,2|8,0:0|0:0,0:0:0:0:
186,29,123564,2,0,P|262:24|320:58,1,140,2|0,0:0|0:0,0:0:0:0:
330,136,124069,2,0,L|402:89,1,70,8|2,0:0|0:0,0:0:0:0:
471,110,124406,5,4,0:0:0:0:
498,189,124575,1,0,0:0:0:0:
429,237,124744,1,8,0:0:0:0:
346,221,124912,2,0,L|248:215,1,70,8|0,0:0|0:0,0:0:0:0:
232,144,125249,2,0,P|202:170|187:202,1,70,12|0,0:0|0:0,0:0:0:0:
164,277,125586,6,0,P|187:363|245:371,1,140,4|0,0:0|0:0,0:0:0:0:
304,340,126092,2,0,L|387:348,1,70,8|0,0:0|0:0,0:0:0:0:
417,274,126429,2,0,L|325:263,1,70,8|0,0:0|0:0,0:0:0:0:
277,221,126766,1,8,0:0:0:0:
264,137,126935,1,0,0:0:0:0:
316,71,127103,6,0,L|482:41,2,140,4|8|0,0:0|0:0|0:0,0:0:0:0:
232,64,127946,1,2,0:0:0:0:
155,29,128114,1,8,0:0:0:0:
71,38,128283,1,2,0:0:0:0:
20,104,128451,6,0,L|10:275,1,140,2|8,0:0|0:0,0:0:0:0:
35,324,128957,1,2,0:0:0:0:
35,324,129041,1,0,0:0:0:0:
35,324,129126,1,2,0:0:0:0:
113,295,129294,1,0,0:0:0:0:
196,288,129463,2,0,L|190:365,1,70,10|0,0:0|0:0,0:0:0:0:
274,359,129800,6,0,L|419:341,1,140,2|8,0:0|0:0,0:0:0:0:
451,267,130305,1,0,0:0:0:0:
459,183,130474,2,0,P|473:154|469:112,1,70,2|0,0:0|0:0,0:0:0:0:
395,78,130811,2,0,P|381:107|384:146,1,70,8|2,0:0|0:0,0:0:0:0:
337,214,131148,6,0,L|190:230,1,140,2|8,0:0|0:0,0:0:0:0:
116,207,131654,1,8,0:0:0:0:
116,207,131738,1,8,0:0:0:0:
116,207,131822,2,0,P|87:270|99:348,1,140,0|2,0:0|0:0,0:0:0:0:
260,328,132496,6,0,L|333:313,1,56,4|0,0:0|0:0,0:0:0:0:
355,249,132833,2,0,L|334:309,1,56,2|0,0:0|0:0,0:0:0:0:
265,243,133170,1,2,0:0:0:0:
265,243,133508,1,8,0:0:0:0:
347,68,133845,6,0,L|417:79,1,56
440,153,134182,2,0,L|422:89,1,56,2|0,0:0|0:0,0:0:0:0:
355,154,134519,1,2,0:0:0:0:
355,154,134856,1,8,0:0:0:0:
140,102,135193,6,0,L|197:133,1,56
262,99,135530,2,0,L|209:130,1,56,2|0,0:0|0:0,0:0:0:0:
201,41,135867,1,2,0:0:0:0:
201,41,136204,1,8,0:0:0:0:
249,244,136541,6,0,L|199:269,1,56
196,349,136878,2,0,L|187:290,1,56,2|0,0:0|0:0,0:0:0:0:
274,321,137215,1,2,0:0:0:0:
274,321,137553,1,8,0:0:0:0:
330,174,137890,5,4,0:0:0:0:
485,197,138227,1,0,0:0:0:0:
356,286,138564,1,0,0:0:0:0:
202,256,138901,1,8,0:0:0:0:
330,174,139238,5,0,0:0:0:0:
177,138,139575,1,2,0:0:0:0:
50,229,139912,1,2,0:0:0:0:
202,256,140249,1,8,0:0:0:0:
330,174,140586,5,8,0:0:0:0:
463,317,140923,1,8,0:0:0:0:
270,351,141260,1,8,0:0:0:0:
417,221,141597,1,8,0:0:0:0:
226,174,141935,1,8,0:0:0:0:
395,76,142272,1,8,0:0:0:0:
500,241,142609,5,8,0:0:0:0:
500,241,142777,1,8,0:0:0:0:
444,294,142946,1,8,0:0:0:0:
444,294,143114,1,8,0:0:0:0:
367,287,143283,5,0,0:0:0:0:
367,287,143451,1,0,0:0:0:0:
169,289,144631,5,0,0:0:0:0:
169,289,144800,1,0,0:0:0:0:
253,74,145305,1,0,0:0:0:0:
253,74,145474,1,0,0:0:0:0:
29,131,145979,6,0,P|9:183|12:206,1,70,8|8,0:0|0:0,0:0:0:0:
29,280,146317,1,8,0:0:0:0:
29,280,146485,1,8,0:0:0:0:
107,311,146654,2,0,P|144:301|173:277,1,70,8|8,0:0|0:0,0:0:0:0:
214,211,146991,1,8,0:0:0:0:
214,211,147159,1,8,0:0:0:0:
297,215,147328,5,2,0:0:0:0:
256,192,147412,12,0,148339,0:0:0:0:
373,268,148676,6,0,P|402:245|425:202,1,70,2|0,0:0|0:0,0:0:0:0:
139,268,149350,2,0,P|110:245|88:209,1,70,2|0,0:0|0:0,0:0:0:0:
346,186,150024,2,0,L|334:105,1,70,2|0,0:0|0:0,0:0:0:0:
166,186,150699,2,0,L|175:109,1,70,2|2,0:0|0:0,0:0:0:0:
166,186,151373,6,0,P|164:220|166:255,1,70,4|0,0:0|0:0,0:0:0:0:
265,344,151710,2,0,P|267:309|264:274,1,70,8|0,0:0|0:0,0:0:0:0:
305,198,152047,2,0,L|163:185,1,140,2|8,0:0|0:0,0:0:0:0:
81,189,152553,6,0,P|56:247|77:334,1,140,2|0,0:0|0:0,0:0:0:0:
145,355,153058,2,0,L|157:275,1,70,8|2,0:0|0:0,0:0:0:0:
239,278,153395,2,0,L|268:351,1,70,0|2,0:0|0:0,0:0:0:0:
348,355,153732,2,0,L|360:272,1,70,8|0,0:0|0:0,0:0:0:0:
389,207,154069,5,2,0:0:0:0:
308,181,154238,1,0,0:0:0:0:
289,99,154406,2,0,P|240:84|203:88,1,70,8|0,0:0|0:0,0:0:0:0:
139,104,154744,1,0,0:0:0:0:
55,97,154912,2,0,P|45:53|51:16,1,70,8|0,0:0|0:0,0:0:0:0:
134,3,155249,6,0,L|283:13,1,140,4|0,0:0|0:0,0:0:0:0:
354,34,155755,2,0,P|380:93|353:170,1,140,12|8,0:0|0:0,0:0:0:0:
284,201,156260,2,0,L|276:252,2,35,0|8|8,0:0|0:0|0:0,0:0:0:0:
215,164,156597,1,8,0:0:0:0:
215,164,156682,1,8,0:0:0:0:
215,164,156766,6,0,P|175:224|171:296,1,140,4|8,0:0|0:0,0:0:0:0:
239,338,157272,1,2,0:0:0:0:
322,332,157440,2,0,P|331:294|330:260,1,70,0|2,0:0|0:0,0:0:0:0:
408,230,157777,2,0,P|423:268|425:304,1,70,8|0,0:0|0:0,0:0:0:0:
477,362,158114,6,0,P|486:268|495:217,1,140,4|8,0:0|0:0,0:0:0:0:
505,139,158620,2,0,P|411:145|365:93,1,140,4|0,0:0|0:0,0:0:0:0:
301,87,159126,2,0,P|292:47|290:19,1,70,8|0,0:0|0:0,0:0:0:0:
209,43,159463,6,0,P|185:110|193:205,1,140,4|8,0:0|0:0,0:0:0:0:
258,220,159968,1,2,0:0:0:0:
222,296,160137,2,0,P|180:296|135:274,1,70
80,246,160474,2,0,L|96:174,1,70,8|2,0:0|0:0,0:0:0:0:
131,101,160811,6,0,P|210:106|257:140,1,140,4|8,0:0|0:0,0:0:0:0:
341,150,161317,2,0,L|354:104,2,35,8|8|8,0:0|0:0|0:0,0:0:0:0:
344,234,161654,1,8,0:0:0:0:
344,234,161738,1,8,0:0:0:0:
344,234,161822,2,0,P|383:239|417:242,1,70,8|8,0:0|0:0,0:0:0:0:
491,210,162159,6,0,L|503:136,1,70,4|0,0:0|0:0,0:0:0:0:
475,61,162496,2,0,L|401:54,1,70,8|0,0:0|0:0,0:0:0:0:
325,81,162833,2,0,L|183:71,1,140,2|8,0:0|0:0,0:0:0:0:
103,50,163339,6,0,P|70:102|63:192,1,140,2|0,0:0|0:0,0:0:0:0:
66,262,163845,2,0,L|138:249,1,70,8|2,0:0|0:0,0:0:0:0:
189,185,164182,2,0,L|261:197,1,70,0|2,0:0|0:0,0:0:0:0:
298,270,164519,2,0,L|314:358,1,70,8|0,0:0|0:0,0:0:0:0:
387,371,164856,5,2,0:0:0:0:
423,295,165024,1,0,0:0:0:0:
499,259,165193,2,0,P|504:217|497:188,1,70,8|0,0:0|0:0,0:0:0:0:
460,115,165530,1,8,0:0:0:0:
385,74,165699,2,0,L|300:69,1,70,12|0,0:0|0:0,0:0:0:0:
231,75,166036,6,0,P|197:134|213:212,1,140,12|0,0:0|0:0,0:0:0:0:
211,286,166541,2,0,L|133:315,1,70,12|0,0:0|0:0,0:0:0:0:
71,273,166878,1,8,0:0:0:0:
39,194,167047,1,8,0:0:0:0:
89,127,167215,1,8,0:0:0:0:
173,129,167384,1,8,0:0:0:0:
237,183,167553,6,0,P|302:200|379:177,1,140,4|8,0:0|0:0,0:0:0:0:
435,129,168058,1,2,0:0:0:0:
402,51,168227,1,0,0:0:0:0:
318,50,168395,1,2,0:0:0:0:
237,25,168564,2,0,P|216:64|215:107,1,70,8|2,0:0|0:0,0:0:0:0:
238,169,168901,6,0,P|144:149|87:170,1,140,4|8,0:0|0:0,0:0:0:0:
41,217,169406,1,2,0:0:0:0:
48,300,169575,1,0,0:0:0:0:
120,256,169744,1,2,0:0:0:0:
122,339,169912,2,0,L|197:315,1,70,8|2,0:0|0:0,0:0:0:0:
271,302,170249,5,4,0:0:0:0:
339,350,170418,1,2,0:0:0:0:
419,325,170586,2,0,P|444:282|443:253,1,70,8|0,0:0|0:0,0:0:0:0:
413,184,170923,1,4,0:0:0:0:
331,163,171092,1,2,0:0:0:0:
262,211,171260,2,0,P|247:163|258:127,1,70,8|0,0:0|0:0,0:0:0:0:
301,77,171597,5,4,0:0:0:0:
223,43,171766,2,0,L|223:8,2,35,8|8|8,0:0|0:0|0:0,0:0:0:0:
159,98,172103,2,0,L|152:156,2,35,8|8|8,0:0|0:0|0:0,0:0:0:0:
387,52,172609,1,8,0:0:0:0:
299,267,172946,5,4,0:0:0:0:
299,267,173620,1,2,0:0:0:0:
299,267,174294,1,2,0:0:0:0:
170,270,174631,1,2,0:0:0:0:
146,152,174968,6,0,L|203:156,3,46.6666666666667,10|8|8|8,0:0|0:0|0:0|0:0,0:0:0:0:
307,53,175642,6,0,L|387:60,1,70,4|0,0:0|0:0,0:0:0:0:
438,105,175979,1,8,0:0:0:0:
470,175,176148,2,0,P|468:211|443:254,1,70,4|0,0:0|0:0,0:0:0:0:
383,274,176485,2,0,L|290:259,1,70,4|0,0:0|0:0,0:0:0:0:
264,203,176822,6,0,L|117:253,1,140,4|0,0:0|0:0,0:0:0:0:
63,211,177328,2,0,P|54:172|68:139,1,70,8|0,0:0|0:0,0:0:0:0:
94,73,177665,1,2,0:0:0:0:
167,95,177833,1,0,0:0:0:0:
222,41,178002,2,0,L|318:47,1,70,8|2,0:0|0:0,0:0:0:0:
369,46,178339,6,0,L|386:211,1,140,4|8,0:0|0:0,0:0:0:0:
318,226,178845,1,8,0:0:0:0:
318,226,178929,1,8,0:0:0:0:
318,226,179013,2,0,L|193:226,2,93.3333333333333,8|8|8,0:0|0:0|0:0,0:0:0:0:
429,278,179687,5,4,0:0:0:0:
