osu file format v14

[General]
AudioFilename: 14.Miraizu.mp3
AudioLeadIn: 1500
PreviewTime: 68788
Countdown: 0
SampleSet: Soft
StackLeniency: 0.7
Mode: 0
LetterboxInBreaks: 0
WidescreenStoryboard: 0

[Editor]
DistanceSpacing: 0.9
BeatDivisor: 4
GridSize: 4
TimelineZoom: 2.899999

[Metadata]
Title:Miraizu feat.Aida Miou(CV:Toyosaki Aki)
TitleUnicode:未来図 feat.合田 美桜(CV:豊崎 愛生)
Artist:HoneyWorks
ArtistUnicode:HoneyWorks
Creator:Fycho
Version:Easy
Source:
Tags:僕じゃダメですか? ~「告白実行委員会」キャラクターソング集~ 告白実行委員会 Kokuhaku Jikkou Iinkai Boku ja Dame desuka?
BeatmapID:696697
BeatmapSetID:306591

[Difficulty]
HPDrainRate:2
CircleSize:3
OverallDifficulty:2
ApproachRate:3
SliderMultiplier:1
SliderTickRate:1

[Events]
//Background and Video events
0,0,"48897080_p0.png",0,0
//Break Periods
2,80112,81169
2,89550,106787
//Storyboard Layer 0 (Background)
//Storyboard Layer 1 (Fail)
//Storyboard Layer 2 (Pass)
//Storyboard Layer 3 (Foreground)
//Storyboard Sound Samples

[TimingPoints]
362,337.078651685393,4,2,1,30,1,0
5755,-100,4,2,1,40,0,0
10474,-100,4,2,1,50,0,0
11148,-100,4,2,1,60,0,0
15024,-100,4,2,1,80,0,0
22609,-100,4,2,1,45,0,0
24631,-100,4,2,1,80,0,0
26148,-100,4,2,1,65,0,0
31373,-100,4,2,1,50,0,0
36766,-100,4,2,1,65,0,0
42159,-100,4,2,1,50,0,0
50249,-100,4,2,1,40,0,0
55979,-100,4,2,1,40,0,0
56317,-100,4,2,1,50,0,0
56654,-100,4,2,1,60,0,0
56991,-100,4,2,1,40,0,0
58339,-100,4,2,1,80,0,1
73845,-100,4,2,1,50,0,1
74182,-100,4,2,1,65,0,1
74519,-100,4,2,1,80,0,1
79912,-100,4,2,1,50,0,0
82609,-100,4,2,1,70,0,0
108227,-100,4,2,1,40,0,0
110923,-100,4,2,1,80,0,0
131822,-100,4,2,1,70,0,0
132496,-100,4,2,1,50,0,0
140923,-100,4,2,1,30,0,0
146317,-100,4,2,1,40,0,0
146654,-100,4,2,1,50,0,0
146991,-100,4,2,1,60,0,0
147328,-100,4,2,1,50,0,0
151036,-100,4,2,1,50,0,0
151373,-100,4,2,1,80,0,1
172946,-100,4,2,1,50,0,0
175642,-100,4,2,1,70,0,0

[Colours]
Combo1 : 2,255,66
Combo2 : 6,255,255
Combo3 : 255,60,157
Combo4 : 183,111,189

[HitObjects]
256,192,362,12,2,5755,0:0:0:0:
86,80,7103,5,0,0:0:0:0:
444,49,8451,1,2,0:0:0:0:
105,172,9800,2,0,P|81:249|143:351,1,200,2|0,0:0|0:0,0:0:0:0:
316,360,11148,5,4,0:0:0:0:
478,283,11822,2,0,L|461:175,1,100,2|0,0:0|0:0,0:0:0:0:
421,103,12496,2,0,P|309:100|244:169,1,200,2|2,0:0|0:0,0:0:0:0:
233,245,13508,1,0,0:0:0:0:
148,214,13845,6,0,P|110:162|113:114,1,100,4|0,0:0|0:0,0:0:0:0:
136,42,14519,2,0,L|196:52,1,50,8|8,0:0|0:0,0:0:0:0:
272,73,15024,2,0,L|433:62,1,150,4|8,0:0|0:0,0:0:0:0:
469,139,15867,2,0,P|497:205|493:238,1,100,2|8,0:0|0:0,0:0:0:0:
415,275,16541,6,0,L|306:286,2,100,4|8|2,0:0|0:0|0:0,0:0:0:0:
394,187,17553,1,8,0:0:0:0:
315,142,17890,2,0,L|206:153,2,100,2|8|2,0:0|0:0|0:0,0:0:0:0:
386,87,18901,1,8,0:0:0:0:
316,29,19238,6,0,L|96:51,1,200,2|2,0:0|0:0,0:0:0:0:
37,91,20249,1,8,0:0:0:0:
111,141,20586,2,0,P|139:199|132:250,1,100,4|8,0:0|0:0,0:0:0:0:
120,321,21260,2,0,L|335:310,1,200,10|4,0:0|0:0,0:0:0:0:
431,168,22609,6,0,L|226:177,2,200,0|2|8,0:0|0:0|0:0,0:0:0:0:
333,311,24631,2,0,P|246:332|188:308,1,150,4|12,0:0|0:0,0:0:0:0:
116,261,25474,1,12,0:0:0:0:
170,189,25811,6,0,P|186:111|152:42,1,150,4|8,0:0|0:0,0:0:0:0:
241,13,26654,1,2,0:0:0:0:
324,46,26991,1,8,0:0:0:0:
413,39,27328,2,0,L|446:203,1,150,2|2,0:0|0:0,0:0:0:0:
435,275,28170,1,2,0:0:0:0:
361,326,28508,6,0,P|290:338|218:298,1,150,4|8,0:0|0:0,0:0:0:0:
228,213,29350,2,0,L|116:202,1,100,2|8,0:0|0:0,0:0:0:0:
107,115,30024,2,0,L|271:132,1,150,4|4,0:0|0:0,0:0:0:0:
344,110,30867,2,0,L|402:101,1,50,8|8,0:0|0:0,0:0:0:0:
442,26,31373,6,0,P|477:59|482:108,1,100,4|8,0:0|0:0,0:0:0:0:
447,191,32047,2,0,B|309:222|309:222|258:189,1,200,2|2,0:0|0:0,0:0:0:0:
128,159,33227,2,0,L|123:316,1,150,2|8,0:0|0:0,0:0:0:0:
209,335,34069,6,0,L|210:224,1,100,2|8,0:0|0:0,0:0:0:0:
231,147,34744,2,0,L|444:122,1,200,2|2,0:0|0:0,0:0:0:0:
482,247,35923,2,0,L|322:267,1,150,2|8,0:0|0:0,0:0:0:0:
246,291,36766,6,0,L|127:298,1,100,12|8,0:0|0:0,0:0:0:0:
120,210,37440,2,0,L|219:204,1,100,8|8,0:0|0:0,0:0:0:0:
245,117,38114,2,0,L|126:124,1,100,12|8,0:0|0:0,0:0:0:0:
119,36,38788,2,0,L|218:30,1,100,8|8,0:0|0:0,0:0:0:0:
306,49,39463,6,0,P|425:92|441:174,1,200,4|8,0:0|0:0,0:0:0:0:
422,240,40474,1,8,0:0:0:0:
371,314,40811,2,0,L|157:314,1,200,10|10,0:0|0:0,0:0:0:0:
85,284,41822,1,2,0:0:0:0:
135,209,42159,6,0,P|134:154|110:117,1,100,4|2,0:0|0:0,0:0:0:0:
88,29,42833,2,0,L|195:35,1,100,2|8,0:0|0:0,0:0:0:0:
274,61,43508,1,0,0:0:0:0:
362,46,43845,1,2,0:0:0:0:
431,103,44182,2,0,L|409:205,1,100,2|8,0:0|0:0,0:0:0:0:
407,290,44856,6,0,L|287:289,1,100,0|2,0:0|0:0,0:0:0:0:
220,306,45530,2,0,P|170:298|122:311,2,100,2|8|0,0:0|0:0|0:0,0:0:0:0:
278,374,46541,1,2,0:0:0:0:
331,301,46878,2,0,L|343:193,1,100,2|8,0:0|0:0,0:0:0:0:
280,135,47553,6,0,L|172:139,1,100,4|2,0:0|0:0,0:0:0:0:
159,226,48227,2,0,L|258:222,2,100,2|8|0,0:0|0:0|0:0,0:0:0:0:
69,229,49238,2,0,P|52:298|64:347,1,100,2|2,0:0|0:0,0:0:0:0:
133,372,49912,1,8,0:0:0:0:
212,330,50249,6,0,L|381:317,2,150,12|10|8,0:0|0:0|0:0,0:0:0:0:
154,260,51597,2,0,P|153:137|225:121,1,200,8|8,0:0|0:0,0:0:0:0:
294,91,52609,1,8,0:0:0:0:
376,126,52946,6,0,L|400:337,2,200
214,46,54968,1,0,0:0:0:0:
256,192,55642,12,2,56991,0:0:0:0:
242,52,58339,6,0,P|131:70|89:158,1,200,4|2,0:0|0:0,0:0:0:0:
161,195,59350,1,8,0:0:0:0:
240,237,59687,2,0,L|215:351,2,100,2|8|2,0:0|0:0|0:0,0:0:0:0:
325,209,60699,1,8,0:0:0:0:
405,169,61036,6,0,P|421:124|403:71,1,100,2|8,0:0|0:0,0:0:0:0:
316,66,61710,2,0,L|258:67,1,50,0|12,0:0|0:0,0:0:0:0:
188,112,62215,2,0,L|28:127,1,150,4|12,0:0|0:0,0:0:0:0:
85,203,63058,1,2,0:0:0:0:
36,278,63395,1,8,0:0:0:0:
106,334,63732,6,0,P|186:348|285:280,1,200,4|2,0:0|0:0,0:0:0:0:
271,196,64744,1,8,0:0:0:0:
244,110,65081,2,0,L|396:98,2,150,4|4|8,0:0|0:0|0:0,0:0:0:0:
178,171,66429,6,0,L|55:156,1,100,4|8,0:0|0:0,0:0:0:0:
17,224,67103,2,0,P|4:291|23:337,1,100,2|8,0:0|0:0,0:0:0:0:
101,336,67777,2,0,L|265:348,2,150,4|8|8,0:0|0:0|0:0,0:0:0:0:
148,259,69126,6,0,L|256:265,1,100,4|8,0:0|0:0,0:0:0:0:
314,203,69800,1,2,0:0:0:0:
401,223,70137,1,8,0:0:0:0:
471,166,70474,2,2,P|467:74|417:13,2,150,2|2|10,0:0|0:0|0:0,0:0:0:0:
401,223,71822,6,0,L|379:332,1,100,2|8,0:0|0:0,0:0:0:0:
291,322,72496,2,0,L|288:265,1,50,8|12,0:0|0:0,0:0:0:0:
212,223,73002,2,0,L|50:263,1,150,12|12,0:0|0:0,0:0:0:0:
49,170,73845,2,0,L|162:140,1,100,2|8,0:0|0:0,0:0:0:0:
233,122,74519,6,0,P|255:28|249:9,1,100,4|8,0:0|0:0,0:0:0:0:
343,10,75193,2,0,L|456:21,1,100,2|8,0:0|0:0,0:0:0:0:
463,107,75867,2,0,P|441:151|441:201,1,100,4|8,0:0|0:0,0:0:0:0:
470,286,76541,2,0,L|348:304,1,100,2|8,0:0|0:0,0:0:0:0:
284,277,77215,6,0,L|178:287,1,100,12|8,0:0|0:0,0:0:0:0:
99,256,77890,2,0,P|81:174|92:143,1,100,12|8,0:0|0:0,0:0:0:0:
146,95,78564,2,0,L|245:104,1,100,4|8,0:0|0:0,0:0:0:0:
327,141,79238,2,0,P|331:91|312:45,2,100,10|0|4,0:0|0:0|0:0,0:0:0:0:
178,68,82609,6,0,P|151:126|154:225,1,150,4|4,0:0|0:0,0:0:0:0:
206,280,83451,1,4,0:0:0:0:
287,242,83788,2,0,L|451:235,1,150,4|8,0:0|0:0,0:0:0:0:
438,325,84631,2,0,L|319:330,1,100,2|8,0:0|0:0,0:0:0:0:
248,333,85305,6,0,P|145:302|84:311,1,150,2|2,0:0|0:0,0:0:0:0:
63,225,86148,1,2,0:0:0:0:
98,142,86485,2,0,L|261:132,1,150,4|8,0:0|0:0,0:0:0:0:
317,189,87328,1,2,0:0:0:0:
405,171,87665,1,8,0:0:0:0:
494,178,88002,6,0,L|501:101|504:68,1,100,2|8,0:0|0:0,0:0:0:0:
417,49,88676,2,0,L|214:70,1,200,8|2,0:0|0:0,0:0:0:0:
88,93,108227,6,0,L|294:84,1,200,0|2,0:0|0:0,0:0:0:0:
428,196,109575,2,0,L|228:204,1,200,0|2,0:0|0:0,0:0:0:0:
139,218,110586,1,0,0:0:0:0:
53,188,110923,6,0,P|34:211|25:281,1,100,4|8,0:0|0:0,0:0:0:0:
83,346,111597,2,0,L|249:333,2,150,2|2|8,0:0|0:0|0:0,0:0:0:0:
41,265,112946,2,0,P|50:210|28:157,1,100,2|8,0:0|0:0,0:0:0:0:
28,79,113620,6,0,L|280:119,1,250,2|12,0:0|0:0,0:0:0:0:
249,204,114800,2,0,P|333:191|365:127,1,150,4|8,0:0|0:0,0:0:0:0:
343,51,115642,2,0,L|450:43,1,100,2|8,0:0|0:0,0:0:0:0:
455,132,116317,5,4,0:0:0:0:
511,201,116654,1,8,0:0:0:0:
424,225,116991,2,0,L|407:334,1,100,2|8,0:0|0:0,0:0:0:0:
318,321,117665,2,0,P|186:313|169:320,2,150,2|2|8,0:0|0:0|0:0,0:0:0:0:
318,231,119013,5,2,0:0:0:0:
348,146,119350,1,8,0:0:0:0:
289,77,119687,2,0,L|181:70,1,100,2|8,0:0|0:0,0:0:0:0:
100,54,120361,2,0,P|65:107|67:202,2,150,2|2|8,0:0|0:0|0:0,0:0:0:0:
189,70,121710,6,0,L|345:58,2,150,4|2|10,0:0|0:0|0:0,0:0:0:0:
205,158,123058,2,0,L|6:174,1,200,2|8,0:0|0:0,0:0:0:0:
35,258,124069,1,8,0:0:0:0:
68,341,124406,6,0,L|167:332,1,100,4|8,0:0|0:0,0:0:0:0:
242,281,125081,2,0,L|311:307,1,50,8|12,0:0|0:0,0:0:0:0:
375,323,125586,2,0,P|420:225|407:175,1,150,4|8,0:0|0:0,0:0:0:0:
366,110,126429,2,0,L|258:139,1,100,8|8,0:0|0:0,0:0:0:0:
180,151,127103,5,4,0:0:0:0:
94,123,127440,1,8,0:0:0:0:
29,185,127777,2,0,L|12:298,1,100,2|8,0:0|0:0,0:0:0:0:
23,372,128451,2,0,L|133:359,1,100,2|8,0:0|0:0,0:0:0:0:
204,323,129126,2,0,L|310:331,1,100,2|10,0:0|0:0,0:0:0:0:
393,330,129800,6,0,P|432:198|412:142,1,200,2|2,0:0|0:0,0:0:0:0:
333,101,130811,1,8,0:0:0:0:
251,139,131148,2,0,L|53:173,2,200,2|8|4,0:0|0:0|0:0,0:0:0:0:
427,101,133170,6,0,P|472:166|448:288,1,200,2|0,0:0|0:0,0:0:0:0:
312,168,134519,1,2,0:0:0:0:
183,285,135193,6,0,P|138:220|162:98,1,200,2|2,0:0|0:0,0:0:0:0:
327,50,136541,2,0,L|428:44,1,100,0|2,0:0|0:0,0:0:0:0:
419,133,137215,2,0,L|319:138,1,100,0|8,0:0|0:0,0:0:0:0:
254,201,137890,6,0,P|152:258|65:243,1,200,4|2,0:0|0:0,0:0:0:0:
36,70,139238,2,0,P|138:13|225:28,1,200,0|2,0:0|0:0,0:0:0:0:
266,99,140249,1,8,0:0:0:0:
339,47,140586,6,0,L|457:70,1,100,8|8,0:0|0:0,0:0:0:0:
444,155,141260,2,0,L|345:135,1,100,8|8,0:0|0:0,0:0:0:0:
305,216,141935,2,0,L|423:239,1,100,8|8,0:0|0:0,0:0:0:0:
399,325,142609,2,0,L|300:305,1,100,8|8,0:0|0:0,0:0:0:0:
211,301,143283,6,0,L|206:91,2,200
325,161,145305,1,0,0:0:0:0:
256,192,145979,12,2,147328,0:0:0:0:
157,273,148676,6,0,L|169:73,1,200,2|2,0:0|0:0,0:0:0:0:
348,68,150024,2,0,L|360:267,1,200,2|2,0:0|0:0,0:0:0:0:
219,155,151373,6,0,P|163:75|67:66,1,200,4|2,0:0|0:0,0:0:0:0:
49,154,152384,1,8,0:0:0:0:
79,238,152721,2,0,L|57:335,2,100,2|8|2,0:0|0:0|0:0,0:0:0:0:
164,209,153732,1,8,0:0:0:0:
219,280,154069,6,0,P|264:296|317:278,1,100,2|8,0:0|0:0,0:0:0:0:
374,216,154744,2,0,L|432:215,1,50,0|12,0:0|0:0,0:0:0:0:
411,125,155249,2,0,L|261:139,1,150,4|12,0:0|0:0,0:0:0:0:
174,162,156092,1,2,0:0:0:0:
104,105,156429,1,8,0:0:0:0:
41,169,156766,6,0,P|27:249|95:348,1,200,4|2,0:0|0:0,0:0:0:0:
166,297,157777,1,8,0:0:0:0:
245,254,158114,2,0,L|394:242,2,150,4|2|8,0:0|0:0|0:0,0:0:0:0:
213,169,159463,5,4,0:0:0:0:
299,142,159800,1,8,0:0:0:0:
387,128,160137,2,0,P|400:61|381:15,1,100,2|8,0:0|0:0,0:0:0:0:
301,42,160811,2,0,L|137:30,2,150,4|8|8,0:0|0:0|0:0,0:0:0:0:
354,114,162159,6,0,L|453:119,1,100,4|8,0:0|0:0,0:0:0:0:
459,209,162833,1,2,0:0:0:0:
391,268,163170,1,8,0:0:0:0:
306,298,163508,2,0,P|221:289|164:342,2,150,2|2|10,0:0|0:0|0:0,0:0:0:0:
321,209,164856,6,0,L|343:100,1,100,2|8,0:0|0:0,0:0:0:0:
250,105,165530,2,0,L|247:55,1,50,8|12,0:0|0:0,0:0:0:0:
157,67,166036,2,0,L|11:102,1,150,12|12,0:0|0:0,0:0:0:0:
25,192,166878,2,0,L|121:166,1,100,2|8,0:0|0:0,0:0:0:0:
211,174,167553,6,0,P|233:268|227:287,1,100,4|8,0:0|0:0,0:0:0:0:
162,324,168227,2,0,L|65:303,1,100,2|8,0:0|0:0,0:0:0:0:
59,213,168901,2,0,P|80:168|80:118,1,100,4|8,0:0|0:0,0:0:0:0:
96,29,169575,2,0,L|200:21,1,100,2|8,0:0|0:0,0:0:0:0:
191,111,170249,6,0,L|297:101,1,100,4|8,0:0|0:0,0:0:0:0:
359,43,170923,2,0,P|377:125|366:156,1,100,4|8,0:0|0:0,0:0:0:0:
349,225,171597,2,0,L|448:234,1,100,4|8,0:0|0:0,0:0:0:0:
487,152,172272,2,0,P|468:106|472:56,2,100,10|0|4,0:0|0:0|0:0,0:0:0:0:
328,67,173620,5,2,0:0:0:0:
163,141,174294,1,2,0:0:0:0:
296,261,174968,1,10,0:0:0:0:
464,196,175642,6,0,P|491:138|488:39,1,150,4|4,0:0|0:0,0:0:0:0:
402,41,176485,1,4,0:0:0:0:
323,84,176822,2,0,L|159:91,1,150,4|8,0:0|0:0,0:0:0:0:
173,180,177665,2,0,L|292:175,1,100,2|8,0:0|0:0,0:0:0:0:
358,202,178339,6,0,P|360:251|337:295,1,100,4|8,0:0|0:0,0:0:0:0:
248,285,179013,2,0,P|146:280|54:344,1,200,8|4,0:0|0:0,0:0:0:0:
