osu file format v14

[General]
AudioFilename: Ima Suki ni Naru MP3.mp3
AudioLeadIn: 0
PreviewTime: 213836
Countdown: 0
SampleSet: None
StackLeniency: 0.7
Mode: 0
LetterboxInBreaks: 0
WidescreenStoryboard: 0

[Editor]
DistanceSpacing: 1.2
BeatDivisor: 4
GridSize: 4
TimelineZoom: 1.2

[Metadata]
Title:Ima Suki ni Naru. feat.Setoguchi Hina(CV:Asakura Momo)
TitleUnicode:今好きになる。 feat.瀬戸口雛(CV:麻倉もも)
Artist:HoneyWorks
ArtistUnicode:HoneyWorks
Creator:Gear
Version:Hard
Source:
Tags:僕じゃダメですか Boku Ja Dame Desu Ka Kokuhaku Jikkou Iinkai Character Song Collection Confession Executive Committee Love Series Right Now I'll Fall In
BeatmapID:742256
BeatmapSetID:293396

[Difficulty]
HPDrainRate:4.5
CircleSize:3.5
OverallDifficulty:5.5
ApproachRate:7.5
SliderMultiplier:1.4
SliderTickRate:2

[Events]
//Background and Video events
Video,-1250,"ImaSukiNiNaruPV.avi"
0,0,"newsukibg.png",0,0
//Break Periods
2,94036,104305
2,197095,201717
//Storyboard Layer 0 (Background)
//Storyboard Layer 1 (Fail)
//Storyboard Layer 2 (Pass)
//Storyboard Layer 3 (Foreground)
//Storyboard Sound Samples

[TimingPoints]
660,352.941176470588,4,2,1,40,1,0
660,-166.666666666667,4,2,1,40,0,0
6307,-125,4,2,1,60,0,0
7718,-100,4,2,1,60,0,0
9130,-125,4,2,1,40,0,0
11248,-100,4,2,1,60,0,0
11954,-125,4,2,1,40,0,0
13365,-100,4,2,1,60,0,0
34542,-125,4,2,1,40,0,0
37365,-100,4,2,1,60,0,0
62777,-166.666666666667,4,2,1,60,0,0
65601,-100,4,1,1,50,0,0
67718,-100,4,2,1,40,0,0
68424,-100,4,2,1,60,0,1
88895,-100,4,3,1,60,0,1
89601,-100,4,2,1,40,0,0
91012,-125,4,2,1,40,0,0
92424,-100,4,2,1,60,0,0
110777,-125,4,2,1,40,0,0
113601,-100,4,2,1,60,0,0
115012,-100,4,2,1,20,0,0
116424,-100,4,2,1,60,0,0
139012,-166.666666666667,4,2,1,40,0,0
141836,-100,4,2,1,50,0,0
144659,-100,4,2,1,60,0,1
165130,-100,4,3,1,60,0,1
165836,-125,4,2,1,60,0,0
168659,-100,4,2,1,60,0,0
170071,-100,4,2,1,60,0,1
191248,-100,4,2,1,60,0,0
208189,-166.666666666667,4,2,1,60,0,0
211012,-100,4,1,1,50,0,0
213836,-100,4,2,1,60,0,1
235012,-100,4,2,1,60,0,0
246307,-100,4,2,1,5,0,0
247718,-100,4,2,1,60,0,0
253277,-100,4,2,1,5,0,0

[Colours]
Combo1 : 69,234,21
Combo2 : 255,128,192
Combo3 : 33,219,239
Combo4 : 243,150,22

[HitObjects]
256,336,660,6,0,L|256:252,1,83.9999974365235
208,164,1365,2,0,P|200:122|208:80,1,83.9999974365235
304,81,2071,6,0,P|311:122|304:164,1,83.9999974365235
300,264,2777,2,0,P|324:297|358:322,1,83.9999974365235
392,228,3483,6,0,P|425:203|450:169,1,83.9999974365235
356,132,4189,1,0,0:0:0:0:
255,116,4542,2,0,P|235:120|214:116,1,41.9999987182618
140,56,4895,6,0,P|121:93|122:135,1,83.9999974365235
160,228,5601,1,0,0:0:0:0:
256,260,5954,1,0,0:0:0:0:
352,228,6307,6,0,L|352:172,1,56
352,92,6659,1,0,0:0:0:0:
352,92,6836,1,0,0:0:0:0:
272,92,7012,1,0,0:0:0:0:
192,88,7189,2,0,L|164:88,5,28
128,88,7718,6,0,P|73:129|58:196,1,140
64,280,8248,1,0,0:0:0:0:
147,275,8424,2,0,P|181:286|211:303,1,70
168,192,8777,2,0,P|202:193|236:202,1,70
188,106,9130,6,0,P|243:98|298:102,1,112
289,247,9836,2,0,L|288:359,2,112
84,192,11248,6,0,L|37:192,5,46.6666666666667
64,111,11954,6,0,P|108:79|162:81,1,112
204,188,12659,2,0,B|224:204|256:212|288:204|308:188,1,112
396,116,13365,6,0,L|466:116,1,70
468,200,13718,2,0,L|398:200,1,70
326,164,14071,2,0,L|256:164,1,70
258,248,14424,1,0,0:0:0:0:
258,248,14601,1,0,0:0:0:0:
184,212,14777,6,0,P|149:207|115:214,1,70
44,264,15130,2,0,P|46:331|102:369,1,140
188,368,15659,1,0,0:0:0:0:
188,368,15836,2,0,L|264:368,1,70
339,344,16189,6,0,P|364:279|339:215,2,140
256,280,17071,1,0,0:0:0:0:
255,280,17248,2,0,P|221:286|187:280,1,70
140,212,17601,6,0,L|116:145,1,70
108,64,17954,2,0,P|169:33|239:37,1,140
316,72,18483,1,0,0:0:0:0:
288,152,18659,2,0,P|279:185|287:219,1,70
364,184,19012,6,0,L|434:184,1,70
448,312,19365,2,0,L|398:262,1,70
316,256,19718,1,0,0:0:0:0:
348,332,19895,1,0,0:0:0:0:
264,320,20071,2,0,L|194:320,1,70
108,320,20424,6,0,P|75:306|53:280,1,70
51,196,20777,2,0,P|83:136|150:122,1,140
232,148,21307,1,0,0:0:0:0:
240,232,21483,2,0,P|235:266|239:301,1,70
316,264,21836,6,0,B|420:264|420:264|450:244,2,140
324,180,22718,1,0,0:0:0:0:
324,180,22895,2,0,L|396:180,1,70
392,96,23248,6,0,L|322:96,1,70
236,95,23601,2,0,P|205:158|210:227,1,140
256,300,24130,1,0,0:0:0:0:
300,227,24307,2,0,P|333:218|368:215,1,70
436,264,24659,6,0,L|427:333,1,70
444,180,25012,2,0,L|452:110,1,70
392,52,25365,1,0,0:0:0:0:
392,52,25542,1,0,0:0:0:0:
336,116,25718,2,0,P|307:135|275:150,1,70
192,148,26071,6,0,L|122:148,2,70
232,224,26601,1,0,0:0:0:0:
232,224,26689,1,0,0:0:0:0:
232,224,26777,6,0,P|244:272|260:292,2,70
276,152,27307,1,0,0:0:0:0:
276,152,27395,1,0,0:0:0:0:
276,152,27483,6,0,P|311:117|320:93,2,70
192,148,28012,1,0,0:0:0:0:
192,148,28100,1,0,0:0:0:0:
192,148,28188,6,0,P|144:134|119:138,1,70
92,216,28542,2,0,L|92:251,3,35
92,271,28895,6,0,P|153:300|215:272,1,140
256,200,29424,1,0,0:0:0:0:
319,251,29601,2,0,P|334:283|346:316,1,70
420,356,29954,2,0,P|448:335|462:304,1,70
464,220,30307,6,0,L|464:150,2,70
384,192,30836,1,0,0:0:0:0:
319,251,31012,2,0,L|296:317,1,70
212,316,31365,2,0,L|189:249,1,70
164,168,31718,6,0,P|112:123|43:126,2,140
108,232,32601,1,0,0:0:0:0:
60,300,32777,2,0,P|91:315|125:312,1,70
188,256,33130,6,0,P|245:220|310:240,1,140
372,296,33659,1,0,0:0:0:0:
427,236,33836,2,0,P|437:202|440:167,1,70
424,84,34189,2,0,L|449:58,2,35
336,84,34542,6,0,L|224:84,2,112
176,300,35954,2,0,L|288:300,2,112
92,192,37012,1,0,0:0:0:0:
175,84,37365,6,0,P|208:72|243:67,1,70
228,152,37718,2,0,P|259:166|287:188,1,70
216,236,38071,2,0,P|227:268|232:303,3,70
148,291,38777,6,0,P|80:285|40:230,1,140
40,144,39307,1,0,0:0:0:0:
112,100,39483,1,0,0:0:0:0:
160,168,39659,1,0,0:0:0:0:
232,124,39836,2,0,L|266:130,3,35
308,132,40189,6,0,B|352:132|352:132|404:120|404:120|446:120,2,140
324,48,41071,1,0,0:0:0:0:
324,48,41248,2,0,L|254:48,1,70
168,51,41601,6,0,P|138:70|114:96,2,70
200,132,42130,1,0,0:0:0:0:
128,176,42307,2,0,P|98:194|74:220,1,70
60,304,42659,1,0,0:0:0:0:
60,304,42836,1,0,0:0:0:0:
144,300,43012,6,0,P|173:281|197:255,1,70
280,256,43365,2,0,P|303:281|333:300,1,70
415,304,43718,2,0,P|467:258|477:190,1,140
448,112,44248,1,0,0:0:0:0:
380,164,44424,6,0,P|311:176|242:164,1,140
176,112,44954,1,0,0:0:0:0:
100,151,45130,2,0,P|88:184|92:219,1,70
128,296,45483,1,0,0:0:0:0:
208,272,45659,1,0,0:0:0:0:
208,272,45748,1,0,0:0:0:0:
208,271,45836,6,0,P|276:282|330:325,1,140
400,372,46365,1,0,0:0:0:0:
407,288,46542,2,0,P|426:220|463:161,1,140
500,88,47071,1,0,0:0:0:0:
500,88,47159,1,0,0:0:0:0:
500,88,47248,6,0,P|446:44|377:41,1,140
304,84,47777,1,0,0:0:0:0:
332,164,47954,2,0,L|332:234,2,70
412,132,48483,1,0,0:0:0:0:
460,200,48659,6,0,P|466:234|459:268,1,70
408,336,49012,2,0,P|373:342|339:335,1,70
291,267,49365,2,0,P|284:232|291:198,1,70
343,131,49718,2,0,P|377:124|411:131,1,70
460,200,50071,6,0,P|448:267|393:308,1,140
308,320,50601,1,0,0:0:0:0:
252,256,50777,2,0,P|218:245|184:245,1,70
112,287,51130,2,0,P|94:286|78:279,3,35
56,264,51483,6,0,P|43:195|53:126,1,140
100,56,52012,1,0,0:0:0:0:
171,99,52189,2,0,P|237:122|307:118,1,140
384,80,52718,1,0,0:0:0:0:
428,152,52895,6,0,L|447:181,4,35
364,204,53424,1,0,0:0:0:0:
308,268,53601,2,0,P|338:285|372:286,1,70
352,368,53954,2,0,P|317:366|287:349,1,70
224,292,54307,6,0,L|182:235,1,70
256,196,54659,2,0,L|214:139,1,70
160,76,55012,1,0,0:0:0:0:
96,132,55189,2,0,P|84:145|75:160,5,35
68,188,55718,6,0,L|68:258,1,70
197,277,56071,2,0,L|148:228,1,70
256,156,56424,1,0,0:0:0:0:
256,156,56601,1,0,0:0:0:0:
314,277,56777,2,0,L|364:228,1,70
420,164,57130,6,0,P|397:100|331:84,1,140
260,124,57659,1,0,0:0:0:0:
260,123,57836,2,0,P|225:131|191:130,1,70
108,116,58189,2,0,P|78:133|56:161,1,70
56,244,58542,6,0,P|104:292|172:293,1,140
240,240,59071,1,0,0:0:0:0:
239,240,59248,2,0,P|272:227|307:222,1,70
392,236,59601,2,0,P|423:250|451:271,1,70
380,316,59954,6,0,L|242:341,1,140
160,356,60483,2,0,L|125:361,2,35
132,276,60836,1,0,0:0:0:0:
84,208,61012,2,0,P|115:193|150:194,1,70
212,252,61365,6,0,P|279:262|339:228,1,140
340,144,61895,1,0,0:0:0:0:
340,144,61983,1,0,0:0:0:0:
340,144,62071,1,0,0:0:0:0:
276,88,62248,1,0,0:0:0:0:
216,147,62424,2,0,P|198:150|181:152,3,35
156,148,62777,6,0,P|114:146|79:168,1,83.9999974365235
108,264,63483,2,0,P|150:266|185:244,1,83.9999974365235
256,172,64189,5,0,0:0:0:0:
256,172,64895,2,0,P|297:176|339:170,1,83.9999974365235
420,116,65601,6,0,L|430:46,2,70
404,200,66130,1,0,0:0:0:0:
359,271,66307,2,0,P|392:283|427:280,1,70
484,220,66659,1,0,0:0:0:0:
484,220,66836,1,0,0:0:0:0:
420,116,67012,6,0,P|389:99|355:91,2,70
360,176,67542,1,0,0:0:0:0:
360,176,67718,5,0,0:0:0:0:
256,304,68424,6,0,P|227:242|255:180,1,140
332,144,68954,1,0,0:0:0:0:
400,196,69130,2,0,L|409:265,1,70
484,220,69483,2,0,L|474:150,1,70
463,67,69836,6,0,P|396:55|335:87,1,140
253,231,70542,2,0,P|230:205|220:172,1,70
156,116,70895,2,0,P|139:146|137:181,1,70
204,316,71248,6,0,P|271:328|332:296,1,140
360,216,71777,1,0,0:0:0:0:
416,280,71954,2,0,L|416:350,2,70
440,200,72483,1,0,0:0:0:0:
383,140,72659,6,0,P|391:105|409:75,1,70
304,88,73012,2,0,P|274:69|240:60,1,70
156,72,73365,1,0,0:0:0:0:
124,152,73542,1,0,0:0:0:0:
208,140,73718,1,0,0:0:0:0:
72,84,73895,1,0,0:0:0:0:
72,84,73983,1,0,0:0:0:0:
71,84,74071,6,0,P|40:144|61:209,1,140
120,272,74601,1,0,0:0:0:0:
200,244,74777,2,0,P|224:219|255:202,1,70
340,312,75130,2,0,P|306:303|276:285,1,70
327,156,75483,6,0,P|396:163|445:211,2,140
244,168,76365,1,0,0:0:0:0:
200,243,76542,2,0,P|170:262|135:266,1,70
92,196,76895,6,0,L|71:129,2,70
168,160,77424,1,0,0:0:0:0:
168,160,77601,2,0,L|147:93,2,70
244,124,78130,1,0,0:0:0:0:
308,68,78307,6,0,P|322:99|323:134,1,70
280,256,78659,1,0,0:0:0:0:
280,256,78836,1,0,0:0:0:0:
152,236,79012,1,0,0:0:0:0:
152,236,79101,1,0,0:0:0:0:
152,236,79189,2,0,P|127:211|110:180,2,70
191,164,79718,6,0,P|255:135|324:134,1,140
404,164,80248,1,0,0:0:0:0:
427,243,80424,2,0,P|421:278|399:305,1,70
328,352,80777,2,0,P|295:363|260:358,1,70
200,300,81130,6,0,P|147:254|79:246,1,140
32,176,81659,1,0,0:0:0:0:
52,92,81836,2,0,P|84:105|108:130,1,70
180,84,82189,2,0,P|193:116|193:150,1,70
164,232,82542,6,0,P|212:279|280:272,1,140
308,192,83071,1,0,0:0:0:0:
308,192,83248,2,0,P|259:144|191:151,1,140
108,168,83777,1,0,0:0:0:0:
163,232,83954,6,0,P|98:251|39:217,2,140
192,152,84836,1,0,0:0:0:0:
243,215,85012,2,0,P|260:246|284:271,1,70
304,284,85277,1,0,0:0:0:0:
323,291,85365,6,0,P|391:281|427:223,2,140
344,208,86248,1,0,0:0:0:0:
344,208,86424,2,0,L|274:208,1,70
220,144,86777,6,0,B|176:144|176:144|124:156|124:156|82:156,2,140
196,224,87659,1,0,0:0:0:0:
196,224,87836,2,0,L|127:237,1,70
44,252,88189,5,0,0:0:0:0:
44,252,88365,1,0,0:0:0:0:
44,168,88542,2,0,P|66:141|97:126,1,70
260,168,88895,6,0,P|282:231|247:289,1,140
44,168,89601,1,0,0:0:0:0:
256,192,89689,12,0,91012,0:0:0:0:
224,244,92424,6,0,L|155:230,2,70
208,160,92954,1,0,0:0:0:0:
288,184,93130,1,0,0:0:0:0:
268,100,93307,2,0,L|277:66,2,35
224,244,93659,1,0,0:0:0:0:
224,244,93748,1,0,0:0:0:0:
224,244,93836,5,0,0:0:0:0:
256,120,105130,6,0,L|256:192,1,70
292,268,105483,2,0,P|257:272|222:268,1,70
172,200,105836,1,0,0:0:0:0:
172,200,106012,1,0,0:0:0:0:
100,244,106189,2,0,P|95:278|98:313,1,70
176,352,106542,6,0,P|210:356|245:353,1,70
284,276,106895,2,0,P|249:271|214:274,1,70
172,200,107248,2,0,L|166:165,2,35
132,276,107601,1,0,0:0:0:0:
132,276,107777,1,0,0:0:0:0:
84,208,107954,6,0,L|59:70,1,140
144,76,108483,2,0,L|150:110,2,35
228,88,108836,2,0,L|234:122,5,35
240,152,109365,6,0,P|290:197|357:188,1,140
384,108,109895,1,0,0:0:0:0:
464,136,110071,2,0,P|509:186|500:253,1,140
308,316,110777,6,0,P|256:335|205:317,2,112
256,192,111836,1,0,0:0:0:0:
204,68,112189,6,0,P|255:48|306:66,2,112
156,196,113248,1,0,0:0:0:0:
355,195,113601,6,0,P|386:212|412:236,1,70
336,272,113954,2,0,P|337:306|329:340,1,70
260,291,114307,2,0,P|246:302|230:310,3,35
188,312,114659,2,0,L|153:312,3,35
123,311,115012,6,0,P|44:254|74:160,1,210
127,228,115718,2,0,P|189:257|210:322,1,140
210,322,116424,6,0,B|254:322|254:322|306:334|306:334|348:334,1,140
332,252,116954,1,0,0:0:0:0:
331,252,117130,2,0,P|366:249|397:264,1,70
480,252,117483,2,0,P|499:223|508:189,1,70
508,104,117836,6,0,L|508:34,2,70
436,148,118365,1,0,0:0:0:0:
372,92,118542,2,0,P|337:87|302:91,1,70
244,152,118895,1,0,0:0:0:0:
244,152,119071,1,0,0:0:0:0:
287,223,119248,6,0,P|287:292|239:339,2,140
212,260,120130,1,0,0:0:0:0:
212,260,120307,2,0,L|142:260,1,70
59,259,120659,6,0,P|44:192|59:124,1,140
116,60,121189,1,0,0:0:0:0:
187,103,121365,2,0,P|220:116|255:119,1,70
332,84,121718,1,0,0:0:0:0:
376,156,121895,1,0,0:0:0:0:
376,156,121983,1,0,0:0:0:0:
376,155,122071,6,0,P|330:208|312:275,1,140
332,360,122601,1,0,0:0:0:0:
408,324,122777,2,0,P|453:271|471:204,1,140
456,120,123307,1,0,0:0:0:0:
456,120,123395,1,0,0:0:0:0:
456,120,123483,6,0,P|394:88|326:100,1,140
264,156,124012,1,0,0:0:0:0:
288,236,124189,2,0,L|288:306,2,70
348,176,124718,1,0,0:0:0:0:
368,260,124895,6,0,L|368:336,1,70
448,300,125248,2,0,L|448:230,1,70
448,144,125601,2,0,L|448:74,1,70
368,44,125954,2,0,L|368:114,1,70
323,184,126307,6,0,P|260:207|236:270,1,140
320,268,126836,1,0,0:0:0:0:
320,268,127012,2,0,L|221:169,1,140
156,112,127542,1,0,0:0:0:0:
80,148,127718,6,0,P|72:240|116:280,1,140
164,328,128248,1,0,0:0:0:0:
164,328,128424,2,0,P|180:261|143:204,1,140
80,148,128954,1,0,0:0:0:0:
156,112,129130,6,0,P|222:95|279:132,1,140
312,208,129659,1,0,0:0:0:0:
364,140,129836,2,0,P|361:105|354:70,1,70
436,56,130189,2,0,P|443:90|445:125,1,70
448,208,130542,6,0,P|427:274|379:323,1,140
296,324,131071,1,0,0:0:0:0:
220,288,131248,2,0,P|241:260|271:242,1,70
216,180,131601,2,0,P|186:198|164:225,1,70
132,304,131954,6,0,P|65:287|31:228,1,140
32,144,132483,1,0,0:0:0:0:
112,168,132659,2,0,P|145:176|180:169,1,70
256,132,133012,1,0,0:0:0:0:
332,169,133189,1,0,0:0:0:0:
259,216,133365,6,0,P|250:282|299:329,1,140
384,332,133895,1,0,0:0:0:0:
384,332,134071,2,0,P|416:296|420:256,1,70
420,192,134424,2,0,L|420:122,1,70
420,36,134777,6,0,P|350:31|280:35,1,140
212,88,135307,1,0,0:0:0:0:
212,87,135483,2,0,P|191:115|165:137,1,70
84,155,135836,2,0,P|78:190|83:225,1,70
108,308,136189,6,0,P|174:318|225:272,1,140
256,192,136718,2,0,L|256:157,2,35
340,176,137071,1,0,0:0:0:0:
418,208,137248,2,0,P|423:173|416:140,1,70
376,68,137601,6,0,P|307:59|244:88,1,140
184,144,138130,1,0,0:0:0:0:
184,144,138218,1,0,0:0:0:0:
184,144,138307,1,0,0:0:0:0:
232,212,138483,1,0,0:0:0:0:
164,264,138659,2,0,L|157:298,3,35
152,328,139012,6,0,P|189:347|230:342,1,83.9999974365235
256,244,139718,2,0,P|297:239|333:258,1,83.9999974365235
324,360,140424,5,0,0:0:0:0:
323,359,141130,2,0,P|322:318|339:280,1,83.9999974365235
408,203,141836,6,0,P|410:169|400:135,1,70
328,180,142189,2,0,P|293:177|259:187,1,70
304,260,142542,2,0,P|301:294|311:328,1,70
384,283,142895,2,0,P|418:285|452:275,1,70
471,191,143248,6,0,P|388:134|291:164,1,210
252,240,143954,2,0,P|236:271|207:290,1,70
124,288,144307,2,0,P|92:272|73:243,1,70
71,160,144659,6,0,P|113:105|180:94,1,140
264,96,145189,1,0,0:0:0:0:
252,180,145365,2,0,P|248:214|251:249,1,70
304,316,145718,2,0,P|338:319|373:316,1,70
427,252,146071,6,0,P|444:184|426:117,1,140
260,84,146777,2,0,P|225:78|191:68,1,70
146,140,147130,2,0,P|163:171|184:200,1,70
268,316,147483,6,0,P|335:308|367:249,1,140
348,168,148012,1,0,0:0:0:0:
428,188,148189,2,0,L|498:188,2,70
408,108,148718,1,0,0:0:0:0:
328,83,148895,6,0,P|274:125|269:193,1,140
316,264,149424,1,0,0:0:0:0:
400,276,149601,1,0,0:0:0:0:
368,196,149778,1,0,0:0:0:0:
452,208,149954,1,0,0:0:0:0:
316,264,150131,1,0,0:0:0:0:
316,264,150219,1,0,0:0:0:0:
315,264,150307,6,0,P|284:204|305:139,1,140
384,108,150836,1,0,0:0:0:0:
316,56,151012,2,0,L|250:30,1,70
158,86,151365,2,0,L|224:112,1,70
256,244,151718,6,0,P|194:272|131:245,2,140
312,180,152601,1,0,0:0:0:0:
340,260,152777,2,0,L|340:330,1,70
256,344,153130,6,0,L|189:365,2,70
219,267,153659,1,0,0:0:0:0:
219,267,153836,2,0,L|152:287,2,70
184,188,154365,1,0,0:0:0:0:
220,112,154542,6,0,P|254:107|289:111,1,70
384,196,154895,1,0,0:0:0:0:
384,196,155071,1,0,0:0:0:0:
289,272,155248,1,0,0:0:0:0:
289,272,155336,1,0,0:0:0:0:
289,272,155424,2,0,P|254:276|220:272,2,70
256,192,155954,6,0,L|116:192,1,140
32,196,156483,1,0,0:0:0:0:
68,120,156659,2,0,P|58:86|42:55,1,70
124,28,157012,2,0,P|157:36|192:38,1,70
248,100,157365,6,0,L|236:239,1,140
228,324,157895,1,0,0:0:0:0:
303,291,158071,2,0,P|338:290|370:276,1,70
420,208,158424,2,0,P|420:173|408:140,1,70
340,188,158777,6,0,P|281:220|217:196,1,140
211,112,159306,1,0,0:0:0:0:
211,112,159483,2,0,P|270:78|334:102,1,140
410,140,160012,1,0,0:0:0:0:
340,188,160189,6,0,P|397:223|463:205,2,140
333,103,161071,1,0,0:0:0:0:
268,151,161247,2,0,P|243:176|213:194,1,70
191,201,161512,1,0,0:0:0:0:
171,203,161601,6,0,P|107:175|88:110,2,140
172,118,162483,1,0,0:0:0:0:
172,118,162659,2,0,L|241:117,1,70
288,188,163012,6,0,B|332:188|332:188|384:199|384:199|425:200,2,140
312,268,163894,1,0,0:0:0:0:
312,268,164071,2,0,L|380:281,1,70
464,296,164424,5,0,0:0:0:0:
464,296,164600,1,0,0:0:0:0:
464,213,164777,2,0,P|442:186|411:171,1,70
248,213,165130,6,0,P|226:276|261:334,1,140
464,213,165836,1,0,0:0:0:0:
256,192,165924,12,0,167248,0:0:0:0:
260,92,168659,6,0,L|260:162,1,70
176,218,169012,2,0,L|176:148,1,70
256,244,169365,6,0,B|328:244|328:244|356:260,2,105
324,336,170071,6,0,P|392:337|439:288,1,140
420,208,170601,2,0,P|400:160|416:68,1,140
336,36,171130,2,0,L|266:43,1,70
219,111,171483,6,0,P|265:163|268:232,1,140
236,308,172012,1,0,0:0:0:0:
236,308,172101,1,0,0:0:0:0:
236,308,172189,2,0,P|284:340|360:336,2,105
160,268,172895,6,0,P|109:222|103:153,1,140
152,88,173424,2,0,P|220:100|289:88,1,140
364,44,173954,2,0,P|375:76|370:110,1,70
340,188,174307,2,0,P|311:207|277:211,1,70
196,188,174659,1,0,0:0:0:0:
172,268,174836,1,0,0:0:0:0:
252,292,175012,2,0,L|286:299,3,35
312,308,175365,2,0,L|346:315,3,35
371,324,175718,6,0,P|406:316|434:297,1,70
456,188,176071,2,0,P|448:153|429:125,1,70
320,96,176424,2,0,P|285:103|257:122,1,70
235,232,176777,2,0,P|242:266|261:294,1,70
372,312,177130,6,0,L|406:318,3,35
420,244,177483,2,0,L|385:237,3,35
420,168,177836,2,0,L|436:64,2,105
336,176,178542,6,0,L|320:280,2,105
252,172,179248,2,0,L|236:276,2,105
168,168,179954,6,0,L|156:237,1,70
136,320,180307,2,0,P|101:323|68:312,1,70
76,228,180659,2,0,L|87:158,1,70
104,76,181012,2,0,P|138:72|171:83,1,70
167,167,181365,6,0,P|215:216|284:215,2,140
248,140,182248,1,0,0:0:0:0:
248,140,182424,2,0,L|248:70,1,70
324,32,182777,6,0,P|392:31|439:80,2,140
360,108,183660,1,0,0:0:0:0:
360,108,183836,2,0,L|360:184,1,70
360,200,184101,6,0,L|360:248,1,35
160,304,184542,2,0,L|127:317,3,35
160,304,184895,2,0,L|160:164,1,140
160,80,185424,1,0,0:0:0:0:
240,56,185601,6,0,L|275:56,2,35
244,140,185954,1,0,0:0:0:0:
244,140,186130,1,0,0:0:0:0:
243,224,186307,2,0,P|277:213|306:194,1,70
328,112,186659,2,0,L|328:77,3,35
328,55,187012,6,0,P|394:41|451:79,1,140
452,164,187542,1,0,0:0:0:0:
384,212,187718,2,0,L|314:212,1,70
284,292,188071,2,0,L|354:292,1,70
384,372,188424,6,0,L|244:372,1,140
196,300,188954,1,0,0:0:0:0:
232,223,189130,2,0,P|227:189|210:159,1,70
152,100,189483,2,0,P|119:86|85:85,1,70
20,136,189836,6,0,P|19:204|58:262,1,140
136,292,190365,1,0,0:0:0:0:
212,252,190542,2,0,L|278:230,1,70
296,120,190895,6,0,B|268:152|268:152|175:181,1,140
256,192,191336,12,0,196895,0:0:0:0:
160,192,202542,6,0,P|131:129|141:60,2,140
244,188,203424,1,0,0:0:0:0:
204,264,203601,2,0,P|206:298|222:329,1,70
287,276,203954,6,0,P|337:228|341:160,1,140
280,100,204483,1,0,0:0:0:0:
200,128,204659,2,0,L|185:59,2,70
220,212,205189,1,0,0:0:0:0:
168,280,205365,6,0,P|136:295|102:300,1,70
132,380,205718,2,0,P|166:375|197:359,1,70
251,296,206071,2,0,P|318:276|387:286,1,140
460,332,206601,1,0,0:0:0:0:
460,248,206777,6,0,B|460:144|460:144|440:113,1,140
372,60,207307,1,0,0:0:0:0:
360,144,207483,2,0,L|360:214,1,70
320,288,207836,1,0,0:0:0:0:
276,216,208012,1,0,0:0:0:0:
236,288,208189,6,0,P|205:259|195:219,1,83.9999974365235
196,120,208895,2,0,P|206:79|236:51,1,83.9999974365235
336,52,209601,5,0,0:0:0:0:
336,52,210307,2,0,L|336:136,1,83.9999974365235
335,239,211012,6,0,P|362:262|394:277,1,70
367,159,211365,2,0,P|333:154|300:163,1,70
176,239,211718,2,0,P|149:262|117:277,1,70
144,159,212071,2,0,P|178:154|211:163,1,70
212,360,212424,5,0,0:0:0:0:
324,280,212601,1,0,0:0:0:0:
188,280,212777,1,0,0:0:0:0:
300,360,212954,1,0,0:0:0:0:
256,232,213130,6,0,L|256:197,7,35
256,168,213836,6,0,P|225:107|159:93,1,140
84,132,214365,1,0,0:0:0:0:
151,183,214542,2,0,P|152:218|149:253,1,70
112,332,214895,2,0,P|146:335|181:334,1,70
231,268,215248,6,0,P|279:218|347:209,1,140
424,248,215777,1,0,0:0:0:0:
420,164,215954,2,0,L|442:97,1,70
372,48,216307,2,0,L|349:114,1,70
320,192,216659,6,0,P|252:199|200:155,1,140
184,72,217189,1,0,0:0:0:0:
108,108,217365,2,0,L|41:131,2,70
124,192,217895,1,0,0:0:0:0:
88,268,218071,6,0,P|121:278|154:270,1,70
208,208,218424,2,0,P|241:199|274:210,1,70
288,292,218777,1,0,0:0:0:0:
352,240,218954,1,0,0:0:0:0:
364,324,219130,1,0,0:0:0:0:
274,210,219307,1,0,0:0:0:0:
274,210,219395,1,0,0:0:0:0:
274,209,219483,6,0,P|218:248|210:315,1,140
288,292,220012,1,0,0:0:0:0:
352,240,220189,2,0,L|352:170,1,70
304,52,220542,1,0,0:0:0:0:
304,52,220718,1,0,0:0:0:0:
228,159,220895,6,0,P|159:163|106:119,1,140
60,52,221424,1,0,0:0:0:0:
24,128,221601,2,0,P|19:162|21:197,1,70
72,264,221954,2,0,P|106:268|141:266,1,70
199,204,222307,6,0,P|199:169|185:136,1,70
300,268,222659,6,0,P|300:302|314:335,1,70
304,148,223012,6,0,P|328:120|432:120,1,140
472,188,223542,1,0,0:0:0:0:
452,268,223718,6,0,L|382:268,1,70
252,268,224071,1,0,0:0:0:0:
252,268,224248,1,0,0:0:0:0:
252,136,224424,1,0,0:0:0:0:
252,136,224512,1,0,0:0:0:0:
252,136,224601,2,0,P|227:110|197:93,2,70
175,176,225130,6,0,P|115:207|48:190,1,140
36,104,225659,1,0,0:0:0:0:
96,44,225836,2,0,L|165:53,1,70
248,56,226189,2,0,L|317:46,1,70
400,36,226542,6,0,P|405:105|378:168,1,140
296,180,227071,1,0,0:0:0:0:
240,116,227248,2,0,L|192:64,1,70
148,136,227601,2,0,L|195:187,1,70
168,268,227954,6,0,P|216:315|284:308,1,140
312,228,228483,1,0,0:0:0:0:
312,228,228660,2,0,P|263:180|195:187,1,140
112,204,229189,1,0,0:0:0:0:
167,268,229366,6,0,P|102:287|43:253,2,140
196,188,230248,1,0,0:0:0:0:
247,251,230424,2,0,P|264:282|288:307,1,70
308,320,230689,1,0,0:0:0:0:
327,327,230777,6,0,P|395:317|431:259,2,140
348,244,231660,1,0,0:0:0:0:
348,244,231836,2,0,L|278:244,1,70
224,180,232189,6,0,B|180:180|180:180|128:192|128:192|86:192,2,140
200,260,233071,1,0,0:0:0:0:
200,260,233248,2,0,L|131:273,1,70
48,288,233601,5,0,0:0:0:0:
48,288,233777,1,0,0:0:0:0:
48,204,233954,2,0,P|70:177|101:162,1,70
184,164,234307,1,0,0:0:0:0:
196,248,234483,2,0,L|200:282,5,35
203,311,235012,6,0,P|271:306|314:253,1,140
308,72,235718,2,0,P|240:77|197:130,1,140
196,216,236248,1,0,0:0:0:0:
272,180,236424,6,0,P|335:208|363:271,2,140
258,284,237306,1,0,0:0:0:0:
257,285,237483,2,0,P|228:304|208:333,1,70
288,360,237836,6,0,L|358:360,1,70
444,360,238189,2,0,P|457:291|443:223,1,140
388,160,238718,1,0,0:0:0:0:
331,224,238895,2,0,P|297:226|266:211,1,70
220,140,239248,6,0,L|150:140,1,70
136,268,239601,2,0,L|186:218,1,70
268,212,239954,1,0,0:0:0:0:
236,288,240131,1,0,0:0:0:0:
320,276,240307,2,0,L|390:276,1,70
472,275,240659,6,0,P|472:206|436:147,1,140
364,108,241189,1,0,0:0:0:0:
312,172,241365,2,0,P|279:183|244:182,1,70
168,144,241718,2,0,L|152:75,1,70
68,88,242071,6,0,B|93:188|93:188|81:222,2,140
152,75,242954,1,0,0:0:0:0:
152,75,243130,2,0,L|168:144,1,70
192,224,243483,6,0,P|256:248|320:223,1,140
320,140,244012,1,0,0:0:0:0:
320,140,244189,2,0,P|255:115|191:140,1,140
120,180,244718,1,0,0:0:0:0:
192,224,244895,6,0,P|256:248|320:223,1,140
256,68,245601,2,0,L|256:138,3,70
232,224,246307,22,0,B|228:192|164:164|120:212|140:360|184:292|220:332|256:368|256:368|292:332|328:292|372:360|392:212|348:164|284:192|280:224,1,560,0|6,0:0|0:0,0:0:0:0:
256,192,247807,12,0,253277,0:0:0:0:
