osu file format v14

[General]
AudioFilename: Hatsukoi no Ehon.mp3
AudioLeadIn: 0
PreviewTime: 138463
Countdown: 1
SampleSet: Soft
StackLeniency: 0.7
Mode: 0
LetterboxInBreaks: 1
WidescreenStoryboard: 0

[Editor]
Bookmarks: 34568,83832,156779,169884
DistanceSpacing: 1.75
BeatDivisor: 4
GridSize: 4
TimelineZoom: 1.7

[Metadata]
Title:Hatsukoi no Ehon feat.Aida Miou(CV:Toyosaki Aki)
TitleUnicode:初恋の絵本 feat.合田 美桜(CV:豊崎 愛生)
Artist:HoneyWorks
ArtistUnicode:HoneyWorks
Creator:Keada
Version:Extra
Source:
Tags:告白実行委員会 Kokuhaku Jikkou Iinkai 僕じゃダメですか? Boku ja Dame desuka?
BeatmapID:891063
BeatmapSetID:410618

[Difficulty]
HPDrainRate:6
CircleSize:4.5
OverallDifficulty:8
ApproachRate:9.3
SliderMultiplier:1.6
SliderTickRate:1

[Events]
//Background and Video events
0,0,"hutskl.jpg",0,0
//Break Periods
2,137042,139488
//Storyboard Layer 0 (Background)
//Storyboard Layer 1 (Fail)
//Storyboard Layer 2 (Pass)
//Storyboard Layer 3 (Foreground)
//Storyboard Sound Samples

[TimingPoints]
942,344.827586206897,4,2,1,30,1,0
942,-133.333333333333,4,2,1,30,0,0
10597,315.789473684211,4,2,1,40,1,0
10597,-200,4,2,1,40,0,0
11832,315.789473684211,4,2,1,70,1,0
26989,-133.333333333333,4,2,1,50,0,0
27147,-133.333333333333,4,2,1,5,0,0
27305,-133.333333333333,4,2,1,50,0,0
27463,-133.333333333333,4,2,1,5,0,0
27621,-133.333333333333,4,2,1,50,0,0
27779,-133.333333333333,4,2,1,5,0,0
27937,-133.333333333333,4,2,1,50,0,0
28095,-133.333333333333,4,2,1,5,0,0
28253,-133.333333333333,4,2,1,50,0,0
28410,-133.333333333333,4,2,1,5,0,0
28568,-133.333333333333,4,2,1,50,0,0
28726,-133.333333333333,4,2,1,5,0,0
28884,-133.333333333333,4,2,1,50,0,0
29042,-133.333333333333,4,2,1,5,0,0
29200,-133.333333333333,4,2,1,50,0,0
29358,-133.333333333333,4,2,1,5,0,0
29516,-133.333333333333,4,2,1,50,0,0
29674,-133.333333333333,4,2,1,5,0,0
29832,-133.333333333333,4,2,1,50,0,0
29989,-133.333333333333,4,2,1,5,0,0
30147,-133.333333333333,4,2,1,50,0,0
30305,-133.333333333333,4,2,1,5,0,0
30463,-133.333333333333,4,2,1,50,0,0
30621,-133.333333333333,4,2,1,5,0,0
30779,-133.333333333333,4,2,1,50,0,0
30937,-133.333333333333,4,2,1,5,0,0
31095,-133.333333333333,4,2,1,50,0,0
31253,-133.333333333333,4,2,1,5,0,0
31410,-133.333333333333,4,2,1,50,0,0
31568,-133.333333333333,4,2,1,5,0,0
31726,-133.333333333333,4,2,1,50,0,0
31884,-133.333333333333,4,2,1,5,0,0
32042,-105.263157894737,4,2,1,55,0,0
32200,-105.263157894737,4,2,1,5,0,0
32358,-105.263157894737,4,2,1,55,0,0
32516,-105.263157894737,4,2,1,5,0,0
32674,-105.263157894737,4,2,1,55,0,0
32832,-105.263157894737,4,2,1,5,0,0
32989,-105.263157894737,4,2,1,55,0,0
33147,-105.263157894737,4,2,1,5,0,0
33305,-105.263157894737,4,2,1,55,0,0
33463,-105.263157894737,4,2,1,5,0,0
33621,-105.263157894737,4,2,1,55,0,0
33779,-105.263157894737,4,2,1,5,0,0
33937,-105.263157894737,4,2,1,55,0,0
34095,-105.263157894737,4,2,1,5,0,0
34253,-105.263157894737,4,2,1,55,0,0
34410,-105.263157894737,4,2,1,5,0,0
34568,-105.263157894737,4,2,1,55,0,0
35832,-105.263157894737,4,2,1,65,0,0
37095,-105.263157894737,4,2,1,55,0,0
42147,-105.263157894737,4,2,1,65,0,0
44674,-90.9090909090909,4,2,1,70,0,0
59832,-90.9090909090909,4,2,1,60,0,0
64253,-133.333333333333,4,2,1,65,0,0
64884,-83.3333333333333,4,2,1,80,0,1
74910,-83.3333333333333,4,2,1,70,0,0
74989,-83.3333333333333,4,2,1,80,0,1
81305,-133.333333333333,4,2,1,60,0,0
84463,-100,4,2,1,60,0,0
85095,-100,4,2,1,70,0,0
97726,-90.9090909090909,4,2,1,80,0,0
107832,-133.333333333333,4,2,1,50,0,0
112568,-133.333333333333,4,2,1,60,0,0
124253,-133.333333333333,4,2,1,65,0,0
128042,-133.333333333333,4,2,1,50,0,0
133095,-100,4,2,1,70,0,0
140674,-83.3333333333333,4,2,1,80,0,1
150700,-83.3333333333333,4,2,1,70,0,0
150779,-83.3333333333333,4,2,1,70,0,1
158674,-83.3333333333333,4,2,1,70,0,0
158989,-83.3333333333333,4,2,1,70,0,1
159305,-83.3333333333333,4,2,1,70,0,0
159621,-83.3333333333333,4,2,1,70,0,1
177305,-133.333333333333,4,2,1,50,0,0

[HitObjects]
240,220,942,6,0,P|196:192|272:156,1,180.000006866455
268,288,1631,2,0,B|196:312|180:236|88:284,1,180.000006866455
20,360,2321,6,0,P|48:292|-16:192,1,180.000006866455
48,92,3010,2,0,B|96:92|96:92|116:104|116:104|192:104,1,120.000004577637
164,104,3700,5,0,0:0:0:0:
179,283,4045,1,0,0:0:0:0:
359,267,4390,1,0,0:0:0:0:
343,88,4735,1,0,0:0:0:0:
128,194,5079,5,0,0:0:0:0:
265,310,5424,1,0,0:0:0:0:
381,172,5769,1,0,0:0:0:0:
243,56,6114,1,0,0:0:0:0:
157,293,6459,6,0,P|204:322|281:297,1,120.000004577637
92,64,7148,2,0,B|60:96|64:152|64:152|108:176|112:240,1,180.000006866455
109,219,7838,5,0,0:0:0:0:
256,112,8183,1,0,0:0:0:0:
396,224,8528,1,0,0:0:0:0:
256,340,8873,1,0,0:0:0:0:
256,36,9217,5,0,0:0:0:0:
336,288,9562,2,0,B|340:308|340:308|336:340,2,40.000001525879
219,243,9907,2,0,B|216:223|216:223|220:203,2,40.000001525879
268,128,10252,6,0,L|280:160,3,30.0000011444092
351,172,10597,6,0,P|307:220|211:192,1,160
80,76,11832,6,0,L|64:252,1,160,6|0,0:0|0:0,0:0:0:0:
128,336,12305,1,2,0:0:0:0:
136,216,12463,1,2,0:0:0:0:
60,308,12621,1,2,0:0:0:0:
176,280,12779,1,2,0:0:0:0:
65,235,12937,1,2,0:0:0:0:
196,348,13095,6,0,P|232:352|292:236,1,160,6|0,0:0|0:0,0:0:0:0:
296,144,13568,1,2,0:0:0:0:
136,216,13726,2,0,L|180:156,1,53.3333333333333,4|4,0:3|0:3,0:0:0:0:
224,60,13937,1,8,0:3:0:0:
224,60,14042,2,0,L|227:129,1,53.3333333333333,8|0,0:3|0:0,0:0:0:0:
280,224,14253,1,8,0:0:0:0:
280,224,14358,6,0,P|320:248|424:188,1,160,4|0,0:0|0:0,0:0:0:0:
332,40,14832,1,2,0:0:0:0:
332,40,14910,1,2,0:0:0:0:
332,40,14989,1,2,0:0:0:0:
167,172,15147,1,2,0:0:0:0:
344,176,15305,1,2,0:0:0:0:
148,96,15463,5,2,0:0:0:0:
148,96,15542,1,2,0:0:0:0:
148,96,15621,2,0,P|104:128|128:240,1,160,6|0,0:0|0:0,0:0:0:0:
400,228,16095,2,0,P|416:153|362:99,1,160,6|8,0:0|0:0,0:0:0:0:
167,172,16568,2,0,P|228:176|264:160,1,80,0|8,0:0|0:0,0:0:0:0:
264,160,16805,1,2,0:0:0:0:
280,148,16884,5,6,0:0:0:0:
180,24,17042,1,0,0:0:0:0:
176,244,17200,1,0,0:0:0:0:
244,72,17358,1,2,0:0:0:0:
104,216,17516,1,2,0:0:0:0:
284,232,17674,1,2,0:0:0:0:
176,100,17832,1,2,0:0:0:0:
224,304,17989,5,2,0:0:0:0:
224,304,18068,1,2,0:0:0:0:
224,304,18147,2,0,P|280:320|320:324,1,80,6|0,0:0|0:0,0:0:0:0:
420,300,18463,1,2,0:0:0:0:
176,244,18621,2,0,B|56:236|56:236|88:272,1,160,0|4,0:0|0:0,0:0:0:0:
284,232,19095,2,0,P|288:196|284:136,1,80,10|0,0:0|0:0,0:0:0:0:
176,100,19332,1,2,0:0:0:0:
176,100,19410,6,0,P|224:104|268:80,1,80,6|0,0:0|0:0,0:0:0:0:
404,144,19726,1,2,0:0:0:0:
404,63,19884,1,2,0:0:0:0:
473,104,20042,1,2,0:0:0:0:
340,108,20200,1,2,0:0:0:0:
472,28,20358,1,2,0:0:0:0:
472,180,20516,1,2,0:0:0:0:
336,32,20674,5,10,0:0:0:0:
408,220,20832,1,10,0:0:0:0:
232,204,20989,1,10,0:0:0:0:
472,180,21147,1,10,0:0:0:0:
272,72,21305,1,10,0:0:0:0:
472,260,21463,1,8,0:0:0:0:
192,360,21621,2,0,P|144:352|104:324,1,80,8|0,0:0|0:0,0:0:0:0:
336,32,21937,5,6,0:0:0:0:
256,192,22016,12,0,24147,0:0:0:0:
256,72,24463,5,10,0:0:0:0:
132,176,24621,1,2,0:0:0:0:
148,188,24700,1,2,0:0:0:0:
164,200,24779,1,10,0:0:0:0:
336,292,24937,1,2,0:0:0:0:
320,304,25016,1,2,0:0:0:0:
304,316,25095,1,10,0:0:0:0:
63,226,25253,1,2,2:0:0:0:
60,206,25332,1,2,2:0:0:0:
57,186,25410,1,10,0:0:0:0:
284,184,25568,1,2,0:0:0:0:
281,204,25646,1,2,2:0:0:0:
278,224,25726,2,0,B|346:212|426:320|426:320|346:212|386:120|386:120|418:60|418:60|396:104|418:176,1,560,10|0,0:0|0:0,0:0:0:0:
484,324,26989,6,0,P|448:316|412:324,1,60.0000022888184,2|0,0:0|0:0,0:0:0:0:
300,348,27305,1,0,0:0:0:0:
300,348,27463,1,0,0:0:0:0:
128,304,27621,2,0,P|99:296|69:299,1,60.0000022888184,2|0,0:0|0:0,0:0:0:0:
0,376,27937,2,0,P|29:378|58:371,1,60.0000022888184,2|0,0:0|0:0,0:0:0:0:
148,216,28253,5,0,0:0:0:0:
244,184,28410,1,0,0:0:0:0:
316,260,28568,2,0,P|345:262|374:255,1,60.0000022888184,2|0,0:0|0:0,0:0:0:0:
248,125,28884,2,0,P|240:153|243:183,1,60.0000022888184,2|0,0:0|0:0,0:0:0:0:
305,289,29199,2,0,P|307:318|300:347,1,60.0000022888184,2|0,0:0|0:0,0:0:0:0:
148,216,29516,6,0,P|140:187|143:157,1,60.0000022888184,2|0,0:0|0:0,0:0:0:0:
220,64,29832,1,0,0:0:0:0:
220,64,29989,1,0,0:0:0:0:
48,116,30147,2,0,P|77:118|106:111,1,60.0000022888184,2|0,0:0|0:0,0:0:0:0:
220,64,30463,1,0,0:0:0:0:
304,124,30621,1,0,0:0:0:0:
256,216,30779,6,0,P|233:196|218:171,1,60.0000022888184,2|0,0:0|0:0,0:0:0:0:
388,232,31095,2,0,P|368:209|343:194,1,60.0000022888184,2|0,0:0|0:0,0:0:0:0:
97,131,31410,2,0,P|116:153|141:168,1,60.0000022888184,2|0,0:0|0:0,0:0:0:0:
104,8,31726,2,0,P|126:27|141:52,1,60.0000022888184,2|0,0:0|0:0,0:0:0:0:
80,248,32042,6,0,P|94:222|140:192,1,75.9999979705811,2|0,0:0|0:0,0:0:0:0:
291,173,32358,2,0,P|276:147|232:116,1,75.9999979705811,2|0,0:0|0:0,0:0:0:0:
48,116,32674,2,0,P|36:96|32:36,1,75.9999979705811,2|0,0:0|0:0,0:0:0:0:
308,101,32989,2,0,P|306:138|290:172,1,75.9999979705811,2|0,0:0|0:0,0:0:0:0:
36,316,33305,6,0,P|76:324|116:320,1,75.9999979705811,2|0,0:0|0:0,0:0:0:0:
252,260,33621,2,0,P|289:257|326:265,1,75.9999979705811,2|0,0:0|0:0,0:0:0:0:
36,316,33937,6,0,P|28:276|32:236,1,75.9999979705811,2|0,0:0|0:0,0:0:0:0:
92,100,34253,2,0,P|94:62|86:25,1,75.9999979705811,2|0,0:0|0:0,0:0:0:0:
166,347,34568,1,10,0:0:0:0:
185,224,34726,1,2,0:0:0:0:
240,334,34884,1,10,0:0:0:0:
131,278,35042,1,2,0:0:0:0:
252,260,35200,1,10,0:0:0:0:
75,179,35358,1,2,0:0:0:0:
257,143,35516,1,10,0:0:0:0:
131,278,35674,1,2,0:0:0:0:
154,95,35832,5,10,0:0:0:0:
327,268,35990,1,10,0:0:0:0:
289,25,36148,1,10,0:0:0:0:
178,244,36306,1,10,0:0:0:0:
397,133,36463,1,10,0:0:0:0:
75,133,36621,1,10,0:0:0:0:
334,321,36779,1,10,0:0:0:0:
235,17,36937,1,10,0:0:0:0:
136,321,37095,5,6,0:0:0:0:
136,321,37253,1,0,0:0:0:0:
136,321,37410,2,0,L|124:228,1,75.9999979705811
304,88,37726,1,0,0:0:0:0:
304,88,37884,1,0,0:0:0:0:
304,88,38041,2,0,L|316:181,1,75.9999979705811
75,133,38358,6,0,P|136:96|232:144,1,151.999995941162
464,284,38989,2,0,P|403:321|307:273,1,151.999995941162
376,12,39621,2,0,P|408:64|376:160,1,151.999995941162
166,73,40095,2,0,P|230:51|306:91,1,151.999995941162
303,87,40568,1,0,0:0:0:0:
96,256,40884,6,0,B|72:192|72:192|72:96,1,151.999995941162
192,240,41358,2,0,B|163:302|163:302|95:370,1,151.999995941162
104,361,41832,1,0,0:0:0:0:
144,160,42147,6,0,P|188:148|244:148,1,75.9999979705811,6|0,0:0|0:0,0:0:0:0:
392,324,42463,1,10,0:0:0:0:
430,177,42621,1,10,0:0:0:0:
283,215,42779,1,10,0:0:0:0:
493,283,42937,1,10,0:0:0:0:
338,116,43095,1,10,0:0:0:0:
272,336,43253,1,10,0:0:0:0:
512,184,43410,5,10,0:0:0:0:
503,147,43488,1,10,0:0:0:0:
480,118,43567,1,2,0:0:0:0:
445,101,43646,1,2,0:0:0:0:
408,104,43725,1,10,0:0:0:0:
371,104,43805,1,10,0:0:0:0:
337,88,43884,1,2,0:0:0:0:
313,58,43963,1,2,0:0:0:0:
305,22,44041,1,10,0:0:0:0:
306,58,44121,1,10,0:0:0:0:
290,92,44200,1,10,0:0:0:0:
261,117,44279,1,10,0:0:0:0:
225,125,44358,2,0,P|205:138|183:172,1,37.9999989852906,10|2,0:0|0:0,0:0:0:0:
217,268,44516,2,0,P|236:254|258:220,1,37.9999989852906,2|2,0:0|0:0,0:0:0:0:
371,104,44674,6,0,P|340:160|368:248,1,132.00000402832,6|0,0:0|0:0,0:0:0:0:
380,268,44989,2,0,L|356:388,1,88.000002685547,10|0,0:0|0:0,0:0:0:0:
217,268,45305,1,2,0:0:0:0:
261,117,45463,1,0,0:0:0:0:
264,332,45621,2,0,P|224:348|160:328,1,88.000002685547,10|0,0:0|0:0,0:0:0:0:
12,132,45937,6,0,P|52:116|116:136,1,88.000002685547,2|0,0:0|0:0,0:0:0:0:
217,268,46253,2,0,P|259:274|300:258,1,88.000002685547,10|0,0:0|0:0,0:0:0:0:
371,104,46568,1,2,0:0:0:0:
371,104,46726,1,2,0:0:0:0:
144,232,46884,2,0,P|140:284|156:324,1,88.000002685547,10|0,0:0|0:0,0:0:0:0:
436,216,47200,5,2,0:0:0:0:
304,217,47358,1,0,0:0:0:0:
371,104,47516,1,10,0:0:0:0:
304,217,47674,1,0,0:0:0:0:
305,66,47832,1,2,0:0:0:0:
433,143,47989,1,0,0:0:0:0:
224,264,48147,1,10,0:0:0:0:
224,96,48305,1,0,0:0:0:0:
368,180,48463,6,0,L|384:284,1,88.000002685547,2|0,0:0|0:0,0:0:0:0:
210,182,48779,2,0,L|223:95,1,88.000002685547,10|0,0:0|0:0,0:0:0:0:
436,68,49095,1,2,0:0:0:0:
436,68,49253,1,2,0:0:0:0:
381,266,49410,2,0,L|285:250,1,88.000002685547,10|0,0:0|0:0,0:0:0:0:
60,128,49726,6,0,P|104:120|176:140,1,88.000002685547,6|0,0:0|0:0,0:0:0:0:
436,68,50042,2,0,P|392:76|320:56,1,88.000002685547,10|0,0:0|0:0,0:0:0:0:
60,128,50358,2,0,P|52:172|72:244,1,88.000002685547,2|0,0:0|0:0,0:0:0:0:
312,368,50674,2,0,P|318:324|310:281,1,88.000002685547,10|0,0:0|0:0,0:0:0:0:
120,60,50989,6,0,P|146:95|182:119,1,88.000002685547,2|0,0:0|0:0,0:0:0:0:
436,68,51305,2,0,P|392:61|349:69,1,88.000002685547,10|0,0:0|0:0,0:0:0:0:
68,220,51621,2,0,P|111:226|154:218,1,88.000002685547,2|0,0:0|0:0,0:0:0:0:
297,2,51937,2,0,P|261:28|237:64,1,88.000002685547,10|0,0:0|0:0,0:0:0:0:
364,296,52253,6,0,L|356:180,1,88.000002685547,2|0,0:0|0:0,0:0:0:0:
120,60,52568,2,0,L|113:147,1,88.000002685547,10|0,0:0|0:0,0:0:0:0:
364,296,52884,2,0,L|276:219,1,88.000002685547,2|0,0:0|0:0,0:0:0:0:
68,220,53199,2,0,L|125:286,1,88.000002685547,10|0,0:0|0:0,0:0:0:0:
324,57,53516,6,0,L|208:65,1,88.000002685547,2|0,0:0|0:0,0:0:0:0:
38,280,53831,2,0,L|125:286,1,88.000002685547,10|0,0:0|0:0,0:0:0:0:
344,160,54147,2,0,P|404:156|452:172,2,88.000002685547,2|0|8,0:0|0:0|0:0,0:0:0:0:
224,212,54621,1,0,0:0:0:0:
456,340,54779,5,14,0:0:0:0:
452,76,54937,1,10,0:0:0:0:
224,212,55095,1,2,0:0:0:0:
216,220,55410,1,2,0:0:0:0:
208,228,55726,1,2,0:0:0:0:
472,208,56042,5,14,0:0:0:0:
238,83,56200,1,10,0:0:0:0:
246,348,56358,1,2,0:0:0:0:
252,360,56674,1,2,0:0:0:0:
256,372,56989,1,2,0:0:0:0:
400,80,57305,5,14,0:0:0:0:
179,227,57463,1,10,0:0:0:0:
417,343,57621,1,2,0:0:0:0:
428,352,57937,1,2,0:0:0:0:
440,360,58253,1,2,0:0:0:0:
144,152,58568,6,0,P|104:204|156:308,1,176.000005371094,6|2,0:0|0:0,0:0:0:0:
404,227,59042,2,0,P|442:152|399:79,1,176.000005371094
399,79,59516,1,2,0:0:0:0:
180,228,59832,5,14,0:0:0:0:
364,156,60147,1,0,0:0:0:0:
364,156,60779,1,0,0:0:0:0:
364,156,61410,1,0,0:0:0:0:
364,156,62042,1,0,0:0:0:0:
432,268,62200,1,0,2:2:0:0:
432,268,62279,1,0,2:2:0:0:
432,268,62358,5,0,2:2:0:0:
396,293,62436,1,0,2:2:0:0:
353,299,62515,1,0,2:2:0:0:
311,286,62594,1,0,2:2:0:0:
280,255,62673,1,0,2:2:0:0:
249,224,62753,1,0,2:2:0:0:
207,211,62832,1,0,2:2:0:0:
164,217,62911,1,0,2:2:0:0:
128,242,62989,5,0,2:2:0:0:
138,222,63067,1,0,2:2:0:0:
145,202,63146,1,0,2:2:0:0:
148,180,63225,1,0,2:2:0:0:
146,158,63304,1,0,2:2:0:0:
139,137,63383,1,0,2:2:0:0:
129,117,63462,1,0,2:2:0:0:
115,101,63541,1,0,2:2:0:0:
97,87,63620,5,0,2:2:0:0:
97,87,64253,2,0,B|134:87|134:87|172:104|172:104|232:104,1,120.000004577637
436,272,64884,6,0,P|352:292|284:244,1,143.999995605469,6|0,0:0|0:0,0:0:0:0:
268,232,65200,2,0,P|212:216|164:224,1,95.9999970703126,10|0,0:0|0:0,0:0:0:0:
32,352,65516,1,2,0:0:0:0:
224,328,65674,1,0,0:0:0:0:
100,168,65832,2,0,P|88:232|96:272,1,95.9999970703126,10|0,0:0|0:0,0:0:0:0:
376,212,66147,6,0,P|380:124|368:16,1,191.999994140625,2|10,0:0|0:0,0:0:0:0:
224,44,66621,1,0,0:0:0:0:
268,232,66779,2,0,P|292:284|332:336,1,95.9999970703126,2|0,0:0|0:0,0:0:0:0:
472,144,67095,2,0,P|418:124|353:115,1,95.9999970703126,10|0,0:0|0:0,0:0:0:0:
156,224,67410,6,0,P|68:244|28:176,1,143.999995605469,2|0,0:0|0:0,0:0:0:0:
24,164,67726,2,0,L|36:52,1,95.9999970703126,10|0,0:0|0:0,0:0:0:0:
224,44,68042,1,2,0:0:0:0:
100,168,68200,1,0,0:0:0:0:
280,200,68358,2,0,L|384:200,1,95.9999970703126,10|0,0:0|0:0,0:0:0:0:
224,44,68674,6,0,P|204:88|196:160,1,95.9999970703126,2|0,0:0|0:0,0:0:0:0:
308,290,68989,2,0,P|299:242|279:199,1,95.9999970703126,10|0,0:0|0:0,0:0:0:0:
52,192,69305,2,0,P|96:212|168:220,1,95.9999970703126,2|0,0:0|0:0,0:0:0:0:
298,108,69620,2,0,P|250:116|207:136,1,95.9999970703126,10|0,0:0|0:0,0:0:0:0:
268,368,69937,6,0,P|340:368|392:292,1,143.999995605469,2|0,0:0|0:0,0:0:0:0:
396,272,70253,2,0,P|392:240|400:168,1,95.9999970703126,10|0,0:0|0:0,0:0:0:0:
424,84,70568,1,2,0:0:0:0:
472,228,70726,1,0,0:0:0:0:
298,108,70884,2,0,P|290:60|294:12,1,95.9999970703126,10|0,0:0|0:0,0:0:0:0:
472,228,71200,6,0,P|472:304|392:368,1,143.999995605469,2|0,0:0|0:0,0:0:0:0:
384,372,71516,2,0,P|344:364|272:384,1,95.9999970703126,10|0,0:0|0:0,0:0:0:0:
72,264,71832,2,0,P|64:216|76:148,1,95.9999970703126,2|0,0:0|0:0,0:0:0:0:
298,108,72147,1,10,0:0:0:0:
180,260,72305,1,0,0:0:0:0:
248,40,72463,6,0,P|296:32|364:44,1,95.9999970703126,2|0,0:0|0:0,0:0:0:0:
274,257,72779,2,0,P|225:265|157:252,1,95.9999970703126,10|0,0:0|0:0,0:0:0:0:
28,136,73095,1,2,0:0:0:0:
220,116,73253,1,0,0:0:0:0:
120,320,73410,2,0,P|72:336|12:312,1,95.9999970703126,10|0,0:0|0:0,0:0:0:0:
172,56,73726,6,0,P|216:40|262:50,1,95.9999970703126,10|0,0:0|0:0,0:0:0:0:
284,80,73963,1,0,0:0:0:0:
312,100,74042,1,10,0:0:0:0:
343,117,74120,1,0,0:0:0:0:
378,121,74199,1,0,0:0:0:0:
413,113,74278,1,0,0:0:0:0:
442,92,74357,1,10,0:0:0:0:
407,102,74437,1,0,0:0:0:0:
379,124,74516,1,0,0:0:0:0:
360,154,74595,1,0,0:0:0:0:
354,189,74674,1,10,0:0:0:0:
348,224,74753,1,0,0:0:0:0:
329,254,74832,1,0,0:0:0:0:
301,276,74911,1,0,0:0:0:0:
266,286,74989,6,0,L|160:284,1,95.9999970703126,6|0,0:0|0:0,0:0:0:0:
52,104,75305,2,0,L|158:106,1,95.9999970703126,10|0,0:0|0:0,0:0:0:0:
354,189,75621,1,2,0:0:0:0:
336,360,75779,1,0,0:0:0:0:
272,160,75937,2,0,L|272:56,1,95.9999970703126,10|0,0:0|0:0,0:0:0:0:
440,260,76253,6,0,B|384:260|384:260|356:276|356:276|276:276,1,143.999995605469,2|0,0:0|0:0,0:0:0:0:
268,312,76568,2,0,L|172:312,1,95.9999970703126,10|0,0:0|0:0,0:0:0:0:
28,180,76884,1,2,0:0:0:0:
212,232,77042,1,0,0:0:0:0:
80,372,77200,2,0,L|64:272,1,95.9999970703126,10|0,0:0|0:0,0:0:0:0:
172,52,77516,6,0,B|192:80|192:80|192:216,1,143.999995605469,2|0,0:0|0:0,0:0:0:0:
212,232,77832,2,0,P|272:248|316:232,1,95.9999970703126,10|0,0:0|0:0,0:0:0:0:
476,60,78147,2,0,B|492:32|492:32|364:32,1,143.999995605469,2|0,0:0|0:0,0:0:0:0:
344,64,78463,2,0,P|288:72|232:48,1,95.9999970703126,10|0,0:0|0:0,0:0:0:0:
44,192,78779,6,0,P|104:196|152:176,1,95.9999970703126,2|0,0:0|0:0,0:0:0:0:
364,272,79095,2,0,P|304:268|256:288,1,95.9999970703126,10|0,0:0|0:0,0:0:0:0:
92,373,79410,2,0,P|96:313|76:265,1,95.9999970703126,2|0,0:0|0:0,0:0:0:0:
172,52,79726,2,0,P|168:112|188:160,1,95.9999970703126,10|0,0:0|0:0,0:0:0:0:
416,216,80042,5,2,0:0:0:0:
184,224,80200,2,0,B|40:224|40:224|96:272,1,191.999994140625
480,256,80674,2,0,P|488:204|464:148,1,95.9999970703126,2|0,0:0|0:0,0:0:0:0:
252,48,80989,1,10,0:0:0:0:
348,252,81147,1,0,0:0:0:0:
432,76,81305,6,0,B|416:72|396:80|396:80|376:72|376:72|352:80|312:72,1,120.000004577637,6|0,0:0|0:0,0:0:0:0:
314,72,81937,1,0,0:0:0:0:
368,324,82253,6,0,B|328:336|296:312|256:280|256:280|224:252|192:224|120:240|120:240|191:224|208:148|180:80|112:72|40:104|36:192|108:216|128:156,1,600.000022888184
120,170,84463,1,0,0:0:0:0:
298,144,84621,1,0,0:0:0:0:
323,323,84779,1,0,0:0:0:0:
145,348,84937,1,0,0:0:0:0:
252,80,85095,6,0,P|308:68|376:120,1,120,6|0,0:0|0:0,0:0:0:0:
380,132,85410,1,10,0:0:0:0:
380,132,85568,1,10,0:0:0:0:
236,332,85726,1,10,0:0:0:0:
236,332,85884,1,10,0:0:0:0:
172,104,86042,1,10,0:0:0:0:
172,104,86200,1,10,0:0:0:0:
448,192,86358,5,10,0:0:0:0:
416,216,86436,1,0,0:0:0:0:
378,224,86515,1,0,0:0:0:0:
339,215,86594,1,0,0:0:0:0:
309,189,86673,1,2,0:0:0:0:
278,163,86753,1,0,0:0:0:0:
240,153,86832,1,0,0:0:0:0:
201,162,86911,1,0,0:0:0:0:
170,186,86989,1,2,0:0:0:0:
156,224,87068,1,0,0:0:0:0:
168,264,87147,1,2,0:0:0:0:
196,292,87226,1,2,0:0:0:0:
236,304,87305,1,10,0:0:0:0:
276,296,87384,1,2,0:0:0:0:
308,272,87463,1,2,0:0:0:0:
320,232,87542,1,2,0:0:0:0:
309,189,87621,6,0,L|305:89,1,80,6|0,0:0|0:0,0:0:0:0:
172,104,87937,1,10,0:0:0:0:
276,296,88095,2,0,P|316:304|372:280,1,80,0|2,0:0|0:0,0:0:0:0:
476,164,88410,1,0,0:0:0:0:
364,48,88568,1,10,0:0:0:0:
240,153,88726,1,0,0:0:0:0:
452,72,88884,5,2,0:0:0:0:
268,68,89042,1,0,0:0:0:0:
364,216,89200,1,10,0:0:0:0:
364,48,89358,1,0,0:0:0:0:
280,276,89516,1,2,0:0:0:0:
476,164,89674,1,0,0:0:0:0:
268,68,89832,1,10,0:0:0:0:
364,312,89989,1,0,0:0:0:0:
452,72,90147,6,0,B|456:28|456:28|400:152,1,160,6|10,0:0|0:0,0:0:0:0:
280,276,90621,2,0,P|236:276|192:260,1,80,0|2,0:0|0:0,0:0:0:0:
104,136,90937,1,0,0:0:0:0:
104,136,91016,1,0,0:0:0:0:
104,136,91095,1,10,0:0:0:0:
248,204,91253,1,0,0:0:0:0:
116,292,91410,5,2,0:0:0:0:
24,160,91568,1,0,0:0:0:0:
184,148,91726,1,10,0:0:0:0:
48,336,91884,2,0,P|40:296|48:244,1,80,0|2,0:0|0:0,0:0:0:0:
152,76,92200,1,0,0:0:0:0:
152,76,92279,1,0,0:0:0:0:
152,76,92358,5,10,0:0:0:0:
186,96,92436,1,0,0:0:0:0:
225,102,92515,1,0,0:0:0:0:
263,91,92594,1,0,0:0:0:0:
294,66,92674,2,0,P|344:56|396:72,1,80,6|0,0:0|0:0,0:0:0:0:
456,148,92989,1,10,0:0:0:0:
244,178,93147,2,0,P|232:154|228:82,1,80,0|2,0:0|0:0,0:0:0:0:
340,128,93463,1,0,0:0:0:0:
232,308,93621,2,0,P|184:288|152:248,1,80,10|0,0:0|0:0,0:0:0:0:
152,76,93937,5,6,0:0:0:0:
308,36,94095,1,0,0:0:0:0:
272,247,94253,1,10,0:0:0:0:
241,95,94410,1,0,0:0:0:0:
344,256,94568,1,2,0:0:0:0:
92,144,94726,1,0,0:0:0:0:
220,12,94884,1,10,0:0:0:0:
292,168,95042,1,0,0:0:0:0:
100,280,95200,6,0,P|92:224|96:168,1,80,6|0,0:0|0:0,0:0:0:0:
96,172,95437,1,0,0:0:0:0:
92,144,95516,1,10,0:0:0:0:
120,156,95594,1,0,0:0:0:0:
149,160,95673,1,0,0:0:0:0:
179,155,95752,1,0,0:0:0:0:
206,141,95832,5,2,0:0:0:0:
232,111,95910,1,0,0:0:0:0:
267,93,95989,1,0,0:0:0:0:
307,89,96068,1,0,0:0:0:0:
345,99,96147,1,10,0:0:0:0:
372,129,96225,1,0,0:0:0:0:
382,167,96304,1,0,0:0:0:0:
374,206,96383,1,0,0:0:0:0:
349,237,96463,5,2,0:0:0:0:
320,275,96541,1,0,0:0:0:0:
332,322,96620,1,0,0:0:0:0:
376,343,96699,1,0,0:0:0:0:
420,322,96778,1,10,0:0:0:0:
448,283,96858,1,0,0:0:0:0:
437,236,96937,1,0,0:0:0:0:
393,215,97016,1,0,0:0:0:0:
349,237,97095,5,2,0:0:0:0:
317,274,97173,1,0,0:0:0:0:
273,298,97252,1,0,0:0:0:0:
224,304,97331,1,0,0:0:0:0:
176,292,97410,1,10,0:0:0:0:
135,264,97489,1,0,0:0:0:0:
107,223,97568,1,0,0:0:0:0:
95,175,97647,1,0,0:0:0:0:
102,125,97726,6,0,L|124:24,1,88.000002685547,6|0,0:0|0:0,0:0:0:0:
330,151,98042,2,0,L|348:236,1,88.000002685547,10|0,0:0|0:0,0:0:0:0:
176,292,98358,1,2,0:0:0:0:
232,124,98516,1,0,0:0:0:0:
306,334,98674,2,0,L|210:298,1,88.000002685547,10|0,0:0|0:0,0:0:0:0:
168,72,98989,6,0,P|224:48|304:80,1,132.00000402832,2|0,0:0|0:0,0:0:0:0:
320,100,99305,2,0,P|376:116|428:96,1,88.000002685547,10|0,0:0|0:0,0:0:0:0:
500,16,99621,1,2,0:0:0:0:
368,40,99779,1,0,0:0:0:0:
452,196,99937,2,0,L|480:100,1,88.000002685547,10|0,0:0|0:0,0:0:0:0:
244,168,100253,6,0,B|264:180|288:168|288:168|304:180|304:180|344:164|380:188,1,132.00000402832,2|0,0:0|0:0,0:0:0:0:
416,268,100568,2,0,P|364:264|332:236,1,88.000002685547,10|0,0:0|0:0,0:0:0:0:
252,88,100884,1,2,0:0:0:0:
128,216,101042,1,0,0:0:0:0:
316,136,101200,2,0,P|328:72|312:28,1,88.000002685547,10|0,0:0|0:0,0:0:0:0:
64,256,101516,6,0,P|100:284|192:256,1,132.00000402832,2|0,0:0|0:0,0:0:0:0:
212,240,101832,2,0,P|256:232|316:252,1,88.000002685547,10|0,0:0|0:0,0:0:0:0:
430,352,102147,2,0,B|422:332|422:332|426:312|426:312|418:292|414:252,1,88.000002685547,2|0,0:0|0:0,0:0:0:0:
492,264,102384,2,0,B|484:244|484:244|488:224|488:224|480:204|476:164,1,88.000002685547
404,192,102621,1,0,0:0:0:0:
184,320,102779,6,0,P|232:320|276:296,1,88.000002685547,2|0,0:0|0:0,0:0:0:0:
344,60,103095,2,0,P|300:59|260:76,1,88.000002685547,10|0,0:0|0:0,0:0:0:0:
212,240,103410,1,2,0:0:0:0:
376,176,103568,1,0,0:0:0:0:
136,256,103726,2,0,P|108:300|108:352,1,88.000002685547,10|0,0:0|0:0,0:0:0:0:
492,264,104042,6,0,B|496:236|492:216|492:216|500:192|500:192|488:164|496:116,1,132.00000402832,2|0,0:0|0:0,0:0:0:0:
492,92,104358,2,0,L|388:92,1,88.000002685547,10|0,0:0|0:0,0:0:0:0:
212,240,104674,2,0,L|316:240,1,88.000002685547,2|0,0:0|0:0,0:0:0:0:
344,28,104989,2,0,P|316:84|340:152,1,132.00000402832,10|0,0:0|0:0,0:0:0:0:
376,176,105305,6,0,B|380:200|380:200|388:216|388:216|392:244,2,58.6666684570313,8|8|8,0:0|0:3|0:0,0:0:0:0:
300,240,105621,2,0,B|293:263|293:263|293:281|293:281|284:308,2,58.6666684570313,8|4|8,0:0|0:3|0:0,0:0:0:0:
212,240,105937,2,0,B|188:236|188:236|172:224|172:224|148:220,1,58.6666684570313,8|8,0:3|0:0,0:0:0:0:
96,180,106147,1,4,0:3:0:0:
96,180,106253,2,0,B|120:176|120:176|136:164|136:164|160:160,1,58.6666684570313,8|0,0:0|0:0,0:0:0:0:
216,124,106463,1,8,0:3:0:0:
216,124,106568,6,0,L|208:28,1,88.000002685547,6|2,0:0|0:0,0:0:0:0:
48,112,106884,1,2,0:0:0:0:
128,268,107042,1,6,0:0:0:0:
208,36,107200,1,10,0:0:0:0:
44,256,107358,1,10,0:0:0:0:
320,256,107516,1,10,0:0:0:0:
208,36,107674,1,10,0:0:0:0:
168,180,107832,6,0,P|208:196|280:156,2,120.000004577637
168,180,108779,1,0,0:0:0:0:
471,71,109095,6,0,P|414:55|365:86,2,120.000004577637
472,72,110042,1,0,0:0:0:0:
444,280,110358,6,0,P|459:223|429:173,2,120.000004577637
443,280,111305,1,0,0:0:0:0:
104,140,111621,6,0,P|88:196|118:246,2,120.000004577637
308,264,112568,1,2,0:0:0:0:
308,264,112726,1,2,0:0:0:0:
308,264,112884,2,0,L|316:348,1,60.0000022888184,2|0,0:0|0:0,0:0:0:0:
140,260,113200,2,0,L|145:200,2,60.0000022888184,2|0|2,0:0|0:0|0:0,0:0:0:0:
228,220,113674,1,0,0:0:0:0:
304,176,113832,2,0,L|280:96,1,60.0000022888184,2|0,0:0|0:0,0:0:0:0:
104,80,114147,6,0,P|152:112|228:76,1,120.000004577637,2|2,0:0|0:0,0:0:0:0:
164,40,114621,1,0,0:0:0:0:
68,144,114779,2,0,L|60:216,1,60.0000022888184,2|0,0:0|0:0,0:0:0:0:
234,279,115095,2,0,L|227:219,1,60.0000022888184,2|0,0:0|0:0,0:0:0:0:
68,144,115410,5,2,0:0:0:0:
32,208,115568,1,0,0:0:0:0:
48,280,115726,2,0,L|72:344,1,60.0000022888184,2|0,0:0|0:0,0:0:0:0:
312,220,116042,5,2,0:0:0:0:
248,184,116200,1,0,0:0:0:0:
176,200,116358,2,0,L|112:224,1,60.0000022888184,2|0,0:0|0:0,0:0:0:0:
344,292,116674,6,0,P|372:264|388:220,1,60.0000022888184,2|0,0:0|0:0,0:0:0:0:
201,115,116989,2,0,B|245:99|285:115|285:115|325:95|325:95|382:129|437:107,1,240.000009155274,2|2,0:0|0:0,0:0:0:0:
430,110,117779,1,0,0:0:0:0:
248,184,117937,5,6,0:0:0:0:
332,188,118095,1,0,0:0:0:0:
404,232,118253,2,0,P|452:228|476:216,1,60.0000022888184,2|0,0:0|0:0,0:0:0:0:
248,184,118568,5,2,0:0:0:0:
304,246,118726,1,0,0:0:0:0:
324,328,118884,2,0,P|360:359|386:367,1,60.0000022888184,2|0,0:0|0:0,0:0:0:0:
176,136,119200,5,2,0:0:0:0:
171,219,119358,1,0,0:0:0:0:
127,291,119516,2,0,P|131:338|143:362,1,60.0000022888184,2|0,0:0|0:0,0:0:0:0:
239,81,119832,5,2,0:0:0:0:
176,136,119990,1,0,0:0:0:0:
94,155,120148,2,0,P|62:191|54:217,1,60.0000022888184,2|0,0:0|0:0,0:0:0:0:
58,202,120384,1,0,0:0:0:0:
58,202,120463,5,2,0:0:0:0:
127,291,120621,1,0,0:0:0:0:
228,296,120779,2,0,L|308:292,1,60.0000022888184,2|0,0:0|0:0,0:0:0:0:
218,62,121095,5,2,0:0:0:0:
129,130,121253,1,0,0:0:0:0:
124,231,121411,2,0,L|128:311,1,60.0000022888184,2|0,0:0|0:0,0:0:0:0:
357,221,121726,5,2,0:0:0:0:
289,132,121884,1,0,0:0:0:0:
188,127,122042,2,0,L|108:131,1,60.0000022888184,2|0,0:0|0:0,0:0:0:0:
129,130,122279,1,0,0:0:0:0:
129,130,122358,1,2,0:0:0:0:
216,204,122516,1,0,0:0:0:0:
289,132,122674,2,0,L|320:64,1,60.0000022888184,2|0,0:0|0:0,0:0:0:0:
218,62,122989,5,10,0:0:0:0:
187,253,123147,1,2,0:0:0:0:
99,80,123305,1,10,0:0:0:0:
272,168,123463,1,2,0:0:0:0:
80,199,123621,1,10,0:0:0:0:
259,378,123779,1,2,0:0:0:0:
221,129,123937,1,10,0:0:0:0:
105,353,124095,1,2,0:0:0:0:
331,239,124253,5,8,0:0:0:0:
124,32,124410,1,8,0:0:0:0:
169,321,124568,1,8,0:0:0:0:
302,61,124726,1,8,0:0:0:0:
42,193,124884,1,10,0:0:0:0:
348,316,125042,1,10,0:0:0:0:
174,35,125200,1,10,0:0:0:0:
150,365,125358,1,10,0:0:0:0:
362,112,125516,5,10,0:0:0:0:
402,92,125594,1,10,0:0:0:0:
446,97,125673,1,2,0:0:0:0:
481,124,125752,1,2,0:0:0:0:
497,165,125831,1,10,0:0:0:0:
462,193,125910,1,10,0:0:0:0:
445,234,125989,1,2,0:0:0:0:
448,278,126068,1,2,0:0:0:0:
472,316,126147,5,10,0:0:0:0:
439,287,126225,1,10,0:0:0:0:
396,275,126304,1,2,0:0:0:0:
352,284,126383,1,2,0:0:0:0:
316,310,126462,1,10,0:0:0:0:
280,336,126542,1,10,0:0:0:0:
236,344,126621,1,10,0:0:0:0:
193,333,126700,1,10,0:0:0:0:
159,304,126778,5,10,0:0:0:0:
236,104,126937,1,8,0:0:0:0:
352,284,127095,1,8,0:0:0:0:
120,176,127253,1,8,0:0:0:0:
360,160,127410,1,8,0:0:0:0:
264,372,127568,1,8,0:0:0:0:
236,104,127726,1,8,0:0:0:0:
236,104,127884,1,8,0:0:0:0:
236,104,128042,6,0,P|268:108|312:92,1,60.0000022888184
380,72,128358,1,0,0:0:0:0:
360,160,128516,1,0,0:0:0:0:
384,248,128674,2,0,P|416:232|440:192,1,60.0000022888184
444,124,128989,1,0,0:0:0:0:
360,160,129147,1,0,0:0:0:0:
296,224,129305,6,0,P|292:272|296:292,1,60.0000022888184
386,307,129621,2,0,P|388:277|383:247,1,60.0000022888184
360,160,129937,1,0,0:0:0:0:
272,136,130095,1,0,0:0:0:0:
224,60,130253,1,0,0:0:0:0:
176,136,130410,1,0,0:0:0:0:
92,164,130568,6,0,P|88:120|96:92,1,60.0000022888184
224,60,130884,2,0,P|228:89|223:119,1,60.0000022888184
152,244,131200,2,0,P|147:273|152:303,1,60.0000022888184
284,252,131516,2,0,P|288:222|284:192,1,60.0000022888184
224,60,131832,2,0,B|200:64|200:64|168:60,2,40.000001525879
284,112,132147,2,0,B|308:108|308:108|340:112,2,40.000001525879
208,136,132463,1,0,0:0:0:0:
208,136,132568,2,0,L|204:184,1,40.000001525879
288,256,132779,1,0,0:0:0:0:
288,256,132884,2,0,L|292:208,1,40.000001525879
300,32,133095,6,0,P|352:52|416:24,1,120,6|0,0:0|0:0,0:0:0:0:
444,8,133410,1,8,0:0:0:0:
444,8,133568,1,8,0:0:0:0:
420,208,133726,1,8,0:0:0:0:
420,208,133884,1,8,0:0:0:0:
264,92,134042,1,8,0:0:0:0:
264,92,134200,1,8,0:0:0:0:
464,112,134358,5,10,0:0:0:0:
464,112,134516,1,10,0:0:0:0:
296,216,134674,1,10,0:0:0:0:
296,216,134832,1,10,0:0:0:0:
336,20,134989,1,10,0:0:0:0:
336,20,135147,1,10,0:0:0:0:
368,296,135305,5,8,0:0:0:0:
368,296,135463,1,8,0:0:0:0:
364,128,140042,6,0,L|364:156,13,22.0000006713867,10|0|0|0|10|0|0|0|0|0|0|0|0|0,0:0|0:0|0:0|0:0|0:0|0:0|0:0|0:0|0:0|0:0|0:0|0:0|0:0|0:0,0:0:0:0:
364,184,140674,6,0,P|308:160|196:184,1,143.999995605469,6|0,0:0|0:0,0:0:0:0:
192,200,140989,2,0,P|132:200|96:180,1,95.9999970703126,10|0,0:0|0:0,0:0:0:0:
156,48,141305,1,2,0:0:0:0:
300,60,141463,1,0,0:0:0:0:
192,200,141621,2,0,L|188:304,1,95.9999970703126,10|0,0:0|0:0,0:0:0:0:
436,336,141937,6,0,P|444:260|376:196,1,143.999995605469,2|0,0:0|0:0,0:0:0:0:
364,184,142253,2,0,P|348:144|364:64,1,95.9999970703126,10|0,0:0|0:0,0:0:0:0:
156,48,142568,2,0,P|159:95|142:140,1,95.9999970703126,2|0,0:0|0:0,0:0:0:0:
264,344,142884,2,0,P|248:304|264:224,1,95.9999970703126,10|0,0:0|0:0,0:0:0:0:
487,67,143200,6,0,B|455:91|455:91|343:91,1,143.999995605469,2|0,0:0|0:0,0:0:0:0:
312,60,143516,2,0,B|264:56|264:56|212:72,1,95.9999970703126,10|0,0:0|0:0,0:0:0:0:
140,192,143832,1,2,0:0:0:0:
276,152,143989,1,0,0:0:0:0:
76,112,144147,2,0,P|44:172|44:232,1,95.9999970703126,10|0,0:0|0:0,0:0:0:0:
368,168,144463,6,0,P|358:121|332:81,1,95.9999970703126,2|0,0:0|0:0,0:0:0:0:
140,192,144779,2,0,P|179:218|226:228,1,95.9999970703126,10|0,0:0|0:0,0:0:0:0:
348,0,145095,2,0,P|301:9|261:35,1,95.9999970703126,2|0,0:0|0:0,0:0:0:0:
272,304,145410,2,0,P|298:264|308:217,1,95.9999970703126,10|0,0:0|0:0,0:0:0:0:
72,232,145726,6,0,P|120:268|208:232,1,143.999995605469,2|0,0:0|0:0,0:0:0:0:
216,204,146042,2,0,P|240:164|288:132,1,95.9999970703126,10|0,0:0|0:0,0:0:0:0:
448,228,146358,1,2,0:0:0:0:
272,304,146516,1,0,0:0:0:0:
400,72,146674,2,0,L|500:80,1,95.9999970703126,10|0,0:0|0:0,0:0:0:0:
272,304,146989,5,2,0:0:0:0:
448,380,147147,1,0,0:0:0:0:
320,148,147305,2,0,L|220:156,1,95.9999970703126,10|0,0:0|0:0,0:0:0:0:
52,36,147621,2,0,L|152:44,1,95.9999970703126,2|0,0:0|0:0,0:0:0:0:
245,284,147937,2,0,P|209:228|229:148,1,143.999995605469,10|0,0:0|0:0,0:0:0:0:
248,116,148253,6,0,P|264:80|260:12,1,95.9999970703126,2|0,0:0|0:0,0:0:0:0:
52,36,148568,2,0,P|50:83|67:127,1,95.9999970703126,10|0,0:0|0:0,0:0:0:0:
245,284,148884,1,2,0:0:0:0:
316,72,149042,2,0,P|276:43|222:40,1,95.9999970703126,0|10,0:0|0:0,0:0:0:0:
88,200,149358,1,0,0:0:0:0:
328,256,149516,6,0,B|348:180|348:180|376:160,1,95.9999970703126,2|2,0:0|0:0,0:0:0:0:
384,156,149753,1,2,0:0:0:0:
404,144,149832,1,10,0:0:0:0:
192,144,149989,1,2,0:0:0:0:
168,140,150068,1,2,0:0:0:0:
144,136,150147,1,10,0:0:0:0:
328,256,150305,1,2,0:0:0:0:
352,260,150384,1,2,0:0:0:0:
376,264,150463,1,10,0:0:0:0:
338,292,150541,1,2,0:0:0:0:
335,338,150620,1,2,0:0:0:0:
367,372,150699,1,2,0:0:0:0:
414,369,150779,6,0,L|484:280,1,95.9999970703126,6|0,0:0|0:0,0:0:0:0:
464,224,151016,1,0,0:0:0:0:
464,224,151095,2,0,L|448:112,1,95.9999970703126,10|0,0:0|0:0,0:0:0:0:
192,144,151410,1,2,0:0:0:0:
180,316,151568,1,0,0:0:0:0:
288,128,151726,2,0,L|272:16,1,95.9999970703126,10|0,0:0|0:0,0:0:0:0:
54,302,152042,6,0,P|114:338|194:298,1,143.999995605469,2|0,0:0|0:0,0:0:0:0:
216,280,152358,2,0,P|252:256|332:260,1,95.9999970703126,10|0,0:0|0:0,0:0:0:0:
464,376,152674,2,0,P|421:367|367:308,1,95.9999970703126,2|0,0:0|0:0,0:0:0:0:
380,124,152989,2,0,P|404:160|400:240,1,95.9999970703126,10|0,0:0|0:0,0:0:0:0:
132,264,153305,6,0,B|104:204|104:204|116:112,1,143.999995605469,2|0,0:0|0:0,0:0:0:0:
128,80,153621,2,0,L|156:188,1,95.9999970703126,10|0,0:0|0:0,0:0:0:0:
376,308,153937,2,0,B|404:248|404:248|392:156,1,143.999995605469,2|0,0:0|0:0,0:0:0:0:
380,124,154253,2,0,L|352:232,1,95.9999970703126,10|0,0:0|0:0,0:0:0:0:
132,264,154568,5,2,0:0:0:0:
268,80,154726,1,0,0:0:0:0:
223,293,154884,2,0,L|123:261,1,95.9999970703126,10|0,0:0|0:0,0:0:0:0:
404,264,155200,1,2,0:0:0:0:
268,80,155358,1,0,0:0:0:0:
313,293,155516,2,0,L|413:261,1,95.9999970703126,10|0,0:0|0:0,0:0:0:0:
212,20,155832,6,0,P|192:92|232:156,1,143.999995605469,2|0,0:0|0:0,0:0:0:0:
256,184,156147,2,0,P|264:224|252:312,1,95.9999970703126,10|0,0:0|0:0,0:0:0:0:
32,372,156463,2,0,P|28:324|37:277,1,95.9999970703126,2|0,0:0|0:0,0:0:0:0:
256,184,156779,2,0,P|208:192|161:189,1,95.9999970703126,10|0,0:0|0:0,0:0:0:0:
16,4,157095,6,0,P|108:8|152:72,1,143.999995605469,2|0,0:0|0:0,0:0:0:0:
168,84,157410,2,0,P|216:96|268:72,1,95.9999970703126,10|0,0:0|0:0,0:0:0:0:
498,260,157726,2,0,P|406:256|362:192,1,143.999995605469,2|0,0:0|0:0,0:0:0:0:
346,180,158041,2,0,P|298:168|246:192,1,95.9999970703126,10|0,0:0|0:0,0:0:0:0:
56,288,158358,6,0,B|112:288|112:288|144:308|144:308|228:308,1,143.999995605469,6|0,0:0|0:0,0:0:0:0:
314,320,158674,1,10,0:0:0:0:
321,284,158752,1,10,0:0:0:0:
329,249,158831,1,10,0:0:0:0:
337,214,158910,1,10,0:0:0:0:
346,180,158989,2,0,L|346:75,1,95.9999970703126,14|0,0:0|0:0,0:0:0:0:
60,60,159305,5,10,0:0:0:0:
67,95,159384,1,10,0:0:0:0:
75,130,159463,1,10,0:0:0:0:
83,165,159542,1,10,0:0:0:0:
91,200,159621,2,0,L|92:308,1,95.9999970703126,14|0,0:0|0:0,0:0:0:0:
476,193,159937,5,10,0:0:0:0:
447,171,160015,1,10,0:0:0:0:
413,160,160094,1,10,0:0:0:0:
377,163,160173,1,10,0:0:0:0:
345,179,160253,2,0,P|304:196|272:192,3,47.9999985351563,10|10|10|10,0:0|0:0|0:0|0:0,0:0:0:0:
292,116,160568,2,0,P|250:98|231:72,3,47.9999985351563,10|10|10|10,0:0|0:0|0:0|0:0,0:0:0:0:
188,32,160884,6,0,P|160:100|236:184,1,191.999994140625,6|10,0:0|0:0,0:0:0:0:
248,96,161279,1,10,0:0:0:0:
248,96,161358,2,0,L|48:160,1,191.999994140625,6|0,0:0|0:0,0:0:0:0:
40,176,161753,1,2,0:0:0:0:
16,200,161832,1,10,0:0:0:0:
51,199,161910,1,8,0:0:0:0:
83,215,161989,1,8,0:0:0:0:
103,244,162068,1,8,0:0:0:0:
106,280,162147,6,0,P|104:304|104:336,1,47.9999985351563,6|0,0:0|0:0,0:0:0:0:
216,276,162305,2,0,P|215:252|213:228,1,47.9999985351563,10|0,0:0|0:0,0:0:0:0:
144,132,162463,1,10,0:0:0:0:
144,132,162542,1,10,0:0:0:0:
144,132,162621,2,0,P|148:92|108:16,1,95.9999970703126,6|0,0:0|0:0,0:0:0:0:
96,64,162858,1,2,0:0:0:0:
72,96,162937,1,8,0:0:0:0:
100,73,163015,1,8,0:0:0:0:
133,61,163094,1,10,0:0:0:0:
169,60,163173,1,8,0:0:0:0:
204,70,163252,1,8,0:0:0:0:
236,88,163332,1,8,0:0:0:0:
268,104,163410,6,0,P|324:120|372:100,1,95.9999970703126,6|2,0:0|0:0,0:0:0:0:
312,24,163726,1,10,0:0:0:0:
192,188,163884,1,2,0:0:0:0:
180,200,163963,1,2,0:0:0:0:
168,212,164042,1,10,0:0:0:0:
215,204,164120,1,10,0:0:0:0:
262,196,164199,1,10,0:0:0:0:
310,189,164278,1,10,0:0:0:0:
357,181,164357,1,10,0:0:0:0:
349,203,164436,1,2,0:0:0:0:
341,226,164515,1,2,0:0:0:0:
334,249,164594,1,2,0:0:0:0:
328,272,164674,2,0,P|320:312|324:348,1,47.9999985351563,10|0,0:0|0:0,0:0:0:0:
456,348,164832,1,2,0:0:0:0:
480,360,164910,1,2,0:0:0:0:
496,340,164989,2,0,P|494:316|487:292,1,47.9999985351563,10|0,0:0|0:0,0:0:0:0:
349,203,165147,2,0,P|350:179|357:155,1,47.9999985351563,10|0,0:0|0:0,0:0:0:0:
456,72,165305,5,10,0:0:0:0:
450,118,165383,1,10,0:0:0:0:
418,153,165462,1,2,0:0:0:0:
372,164,165541,1,2,0:0:0:0:
328,145,165620,1,10,0:0:0:0:
303,105,165699,1,10,0:0:0:0:
306,58,165778,1,10,0:0:0:0:
336,21,165857,1,10,0:0:0:0:
382,8,165936,5,6,0:0:0:0:
378,86,166253,1,0,0:0:0:0:
372,164,166884,1,0,0:0:0:0:
364,240,167516,1,0,0:0:0:0:
356,316,168147,1,0,0:0:0:0:
512,175,168463,6,0,P|400:159|336:175,1,143.999995605469,6|0,0:0|0:0,0:0:0:0:
300,196,168779,1,10,0:0:0:0:
300,196,168937,1,10,0:0:0:0:
472,28,169095,1,10,0:0:0:0:
472,28,169253,1,10,0:0:0:0:
236,8,169410,1,10,0:0:0:0:
236,8,169568,1,10,0:0:0:0:
236,240,169726,6,0,P|264:264|296:280,1,47.9999985351563,10|0,0:0|0:0,0:0:0:0:
392,292,169884,2,0,P|428:289|462:277,1,47.9999985351563,10|0,0:0|0:0,0:0:0:0:
416,164,170042,1,10,0:0:0:0:
384,180,170120,1,0,0:0:0:0:
348,183,170199,1,2,0:0:0:0:
314,173,170278,1,2,0:0:0:0:
286,150,170357,1,10,0:0:0:0:
258,127,170437,1,2,0:0:0:0:
224,116,170516,1,2,0:0:0:0:
188,119,170595,1,2,0:0:0:0:
156,136,170673,1,10,0:0:0:0:
159,182,170752,1,2,0:0:0:0:
131,219,170831,1,2,0:0:0:0:
85,227,170910,1,2,0:0:0:0:
45,202,170989,6,0,L|32:88,1,95.9999970703126,6|0,0:0|0:0,0:0:0:0:
359,88,171305,2,0,L|347:183,1,95.9999970703126,10|0,0:0|0:0,0:0:0:0:
131,219,171621,1,2,0:0:0:0:
288,56,171779,1,0,0:0:0:0:
180,280,171937,2,0,P|124:296|68:272,1,95.9999970703126,10|0,0:0|0:0,0:0:0:0:
288,56,172253,6,0,P|352:16|428:44,1,143.999995605469,2|0,0:0|0:0,0:0:0:0:
480,104,172568,2,0,L|448:216,1,95.9999970703126,10|0,0:0|0:0,0:0:0:0:
144,356,172884,2,0,P|104:292|132:215,1,143.999995605469,2|0,0:0|0:0,0:0:0:0:
192,163,173199,2,0,L|304:195,1,95.9999970703126,10|0,0:0|0:0,0:0:0:0:
488,20,173516,6,0,L|376:52,1,95.9999970703126,2|0,0:0|0:0,0:0:0:0:
124,64,173832,2,0,L|236:96,1,95.9999970703126,10|0,0:0|0:0,0:0:0:0:
309,278,174147,2,0,P|285:234|301:150,1,95.9999970703126,2|0,0:0|0:0,0:0:0:0:
400,24,174463,2,0,P|424:68|408:152,1,95.9999970703126,10|0,0:0|0:0,0:0:0:0:
178,291,174779,6,0,P|238:259|330:299,1,143.999995605469,2|0,0:0|0:0,0:0:0:0:
252,356,175095,2,8,L|240:224,1,95.9999970703126,10|0,0:0|0:0,0:0:0:0:
474,89,175410,2,0,P|414:121|322:81,1,143.999995605469,2|0,0:0|0:0,0:0:0:0:
400,24,175726,2,8,L|412:156,1,95.9999970703126,10|0,0:0|0:0,0:0:0:0:
252,356,176042,5,2,0:0:0:0:
178,291,176200,1,0,0:0:0:0:
180,196,176358,2,0,L|204:88,1,95.9999970703126,10|0,0:0|0:0,0:0:0:0:
431,239,176674,1,2,0:0:0:0:
366,313,176832,1,0,0:0:0:0:
271,311,176990,2,0,L|163:287,1,95.9999970703126,10|0,0:0|0:0,0:0:0:0:
172,77,177305,6,0,B|172:121|172:121|180:141|180:141|180:213,2,120.000004577637,6|0|0,0:0|0:0|0:0,0:0:0:0:
172,77,178253,5,0,0:0:0:0:
256,192,178332,12,0,180621,0:0:0:0:
