osu file format v14

[General]
AudioFilename: Hatsukoi no Ehon.mp3
AudioLeadIn: 1000
PreviewTime: 44358
Countdown: 0
SampleSet: Soft
StackLeniency: 0.7
Mode: 0
LetterboxInBreaks: 0
WidescreenStoryboard: 1

[Editor]
DistanceSpacing: 2
BeatDivisor: 4
GridSize: 4
TimelineZoom: 2.6

[Metadata]
Title:Hatsukoi no Ehon feat.Aida Miou(CV:Toyosaki Aki)
TitleUnicode:初恋の絵本 feat.合田 美桜(CV:豊崎 愛生)
Artist:HoneyWorks
ArtistUnicode:HoneyWorks
Creator:Akari-
Version:Insane
Source:
Tags:告白実行委員会 Kokuhaku Jikkou Iinkai 僕じゃダメですか? Boku ja Dame desuka? deetz
BeatmapID:679823
BeatmapSetID:301693

[Difficulty]
HPDrainRate:6
CircleSize:4
OverallDifficulty:7
ApproachRate:9
SliderMultiplier:1.7
SliderTickRate:1

[Events]
//Background and Video events
0,0,"bg.png",0,0
//Break Periods
//Storyboard Layer 0 (Background)
//Storyboard Layer 1 (Fail)
//Storyboard Layer 2 (Pass)
//Storyboard Layer 3 (Foreground)
//Storyboard Sound Samples

[TimingPoints]
252,344.827586206897,4,2,2,50,1,0
252,-133.333333333333,4,2,2,50,0,0
942,-133.333333333333,4,2,2,50,0,0
10597,315.789473684211,4,2,2,20,1,0
10597,-133.333333333333,4,2,2,20,0,0
11702,-117.647058823529,4,2,1,60,0,0
11832,315.789473684211,4,2,1,80,1,0
18147,-100,4,2,1,80,0,0
24937,-90.9090909090909,4,2,1,80,0,0
25253,-83.3333333333333,4,2,1,80,0,0
26674,-100,4,2,1,80,0,0
37095,-133.333333333333,4,2,2,60,0,0
42147,-100,4,2,1,80,0,0
57937,-133.333333333333,4,2,1,80,0,0
58568,-100,4,2,1,80,0,0
63621,-133.333333333333,4,2,2,20,0,0
64253,-100,4,2,2,20,0,0
64884,-100,4,2,1,90,0,1
81305,-133.333333333333,4,2,1,60,0,0
82253,-111.111111111111,4,2,2,60,0,0
85095,-100,4,2,1,70,0,0
87305,-90.9090909090909,4,2,1,70,0,0
107832,-133.333333333333,4,2,2,50,0,0
117937,-111.111111111111,4,2,1,50,0,0
122989,-100,4,2,1,70,0,0
128042,-133.333333333333,4,2,2,50,0,0
133095,-90.9090909090909,4,2,1,70,0,0
140042,-76.9230769230769,4,2,1,70,0,0
140674,-90.9090909090909,4,2,1,70,0,1
165937,-133.333333333333,4,2,1,70,0,1
168463,-100,4,2,1,70,0,1
177305,-100,4,2,1,80,0,0
177621,-100,4,2,2,60,0,0

[Colours]
Combo1 : 255,0,204
Combo2 : 39,231,124
Combo3 : 232,139,0
Combo4 : 1,197,254
Combo5 : 170,201,48

[HitObjects]
256,312,252,6,0,L|256:168,1,127.500004863739
336,88,941,6,0,P|396:120|432:180,1,127.500004863739
404,304,1631,2,0,P|344:272|308:212,1,127.500004863739
212,112,2320,6,0,L|196:244,2,127.500004863739
332,24,3355,1,0,0:0:0:0:
360,160,3700,6,0,P|324:192|232:208,1,127.500004863739
44,104,4389,2,0,P|80:136|172:152,1,127.500004863739
328,112,5079,5,0,0:0:0:0:
196,44,5424,1,0,0:0:0:0:
176,300,5769,1,0,0:0:0:0:
356,284,6114,1,0,0:0:0:0:
248,156,6458,6,0,P|192:152|48:200,1,191.250007295609
52,296,7148,2,0,P|128:280|200:260,1,127.500004863739
336,240,7838,5,0,0:0:0:0:
176,160,8183,1,0,0:0:0:0:
184,336,8527,2,0,L|316:336,1,127.500004863739
256,200,9217,1,0,0:0:0:0:
256,192,9562,12,0,10596,0:0:0:0:
68,264,11228,6,0,L|268:220,1,191.250007295609
396,268,11832,6,0,P|416:208|336:120,1,170
256,124,12305,2,0,P|280:56|320:32,1,85
428,52,12621,2,0,P|453:85|459:127,1,85
368,264,12937,1,0,0:0:0:0:
368,264,13016,1,0,0:0:0:0:
368,264,13095,6,0,B|368:188|368:188|352:156|352:156|348:80,1,170
236,44,13568,1,0,0:0:0:0:
240,160,13726,2,0,P|216:232|160:264,2,113.333333333333
184,32,14358,6,0,P|128:152|152:176,1,170
260,264,14832,1,0,0:0:0:0:
260,264,14910,1,0,0:0:0:0:
260,264,14989,2,0,L|164:264,2,85
388,344,15463,1,0,0:0:0:0:
388,344,15542,1,0,0:0:0:0:
388,344,15621,6,0,P|416:280|404:160,1,170
328,112,16095,2,0,P|404:84|356:16,1,170
248,112,16568,2,0,P|288:184|312:188,1,85
404,204,16884,6,0,P|376:256|328:280,1,85
200,260,17200,1,0,0:0:0:0:
304,180,17358,1,0,0:0:0:0:
180,132,17516,1,0,0:0:0:0:
84,328,17674,1,0,0:0:0:0:
24,164,17832,1,0,0:0:0:0:
124,284,17989,1,0,0:0:0:0:
216,168,18147,6,0,L|312:168,1,85
388,88,18463,2,0,L|284:88,1,85
120,48,18779,1,0,0:0:0:0:
248,32,18937,1,0,0:0:0:0:
204,192,19095,1,0,0:0:0:0:
48,164,19253,1,0,0:0:0:0:
48,164,19332,1,0,0:0:0:0:
48,164,19410,6,0,L|48:324,1,127.5
48,328,19726,2,0,P|116:324|152:344,1,85
136,152,20042,2,0,P|186:197|198:236,1,85
332,124,20358,2,0,P|336:192|316:228,1,85
168,332,20674,5,0,0:0:0:0:
256,192,20832,1,0,0:0:0:0:
340,320,20989,1,0,0:0:0:0:
176,200,21147,5,0,0:0:0:0:
352,284,21305,1,0,0:0:0:0:
256,132,21463,1,0,0:0:0:0:
256,340,21621,5,0,0:0:0:0:
448,296,21779,1,0,0:0:0:0:
324,160,21937,1,0,0:0:0:0:
256,192,22016,12,0,24463,0:0:0:0:
204,120,24621,6,0,L|204:56,2,42.5
328,140,24937,6,0,L|396:140,2,46.7500014266968
308,264,25253,6,0,L|308:340,2,50.9999984436036
184,244,25568,5,0,0:0:0:0:
184,244,25647,1,0,0:0:0:0:
184,244,25726,2,0,B|136:284|88:280|64:228|80:172|88:124|104:76|176:112|192:160|212:172|212:172|408:172,1,509.999984436036
480,212,26674,2,0,P|480:136|456:100,1,85
