osu file format v14

[General]
AudioFilename: (HoneyWorks - Feat.Miku) Ima suki ni naru (Sub espaol & Romaji).mp3
AudioLeadIn: 0
PreviewTime: 69528
Countdown: 0
SampleSet: Soft
StackLeniency: 0.7
Mode: 0
LetterboxInBreaks: 1
WidescreenStoryboard: 0

[Editor]
Bookmarks: 7322,12440,13146,16410,29381,35381,66969,68381,69528,95028,98028,106322,116204,167028,171351,173204,176204,179204,185381,185734,186087,186440,186793,187146,198087,212204,214322,247499,248557,248910
DistanceSpacing: 0.8
BeatDivisor: 4
GridSize: 8
TimelineZoom: 2.6

[Metadata]
Title:Ima suki ni naru
TitleUnicode:今好きになる
Artist:HoneyWorks - Feat.Miku
ArtistUnicode:HoneyWorks - Feat.Miku
Creator:Cuenquero
Version:Insane
Source:
Tags:honey works miku hatsune
BeatmapID:676514
BeatmapSetID:301734

[Difficulty]
HPDrainRate:7
CircleSize:4
OverallDifficulty:8
ApproachRate:9
SliderMultiplier:1.5
SliderTickRate:1

[Events]
//Background and Video events
0,0,"47265585_p0.jpg",0,0
//Break Periods
2,140404,142428
2,171463,172604
2,192992,197487
2,209580,211604
//Storyboard Layer 0 (Background)
//Storyboard Layer 1 (Fail)
//Storyboard Layer 2 (Pass)
//Storyboard Layer 3 (Foreground)
//Storyboard Sound Samples

[TimingPoints]
1852,352.941176470588,4,2,1,90,1,0
10057,-125,4,2,1,81,0,0
10410,-100,4,2,1,68,0,0
11646,-200,4,2,1,57,0,0
12440,-100,4,2,1,90,0,0
13234,-100,4,2,1,50,0,0
14028,-133.333333333333,4,2,1,50,0,0
14469,-100,4,2,1,85,0,0
35557,-200,4,2,1,85,0,0
38557,-100,4,2,1,85,0,0
49322,-133.333333333333,4,2,1,90,0,0
55234,-133.333333333333,4,2,1,72,0,0
56999,-133.333333333333,4,2,1,49,0,0
58322,-100,4,2,1,83,0,0
68822,-100,4,2,1,70,0,0
69616,-100,4,2,1,90,0,1
77293,-66.6666666666667,4,2,1,90,0,1
79410,-100,4,2,1,90,0,1
90793,-100,4,2,1,90,0,0
110293,-200,4,2,1,90,0,0
114087,-100,4,2,1,90,0,0
116204,-100,4,2,1,51,0,0
116999,-100,4,2,1,90,0,0
117616,-83.3333333333333,4,2,1,90,0,1
124763,-83.3333333333333,4,2,1,80,0,1
125557,-83.3333333333333,4,2,1,90,0,1
128469,-133.333333333333,4,2,1,90,0,0
143028,-100,4,2,1,90,0,0
145851,-66.6666666666667,4,2,1,90,0,1
147087,-83.3333333333333,4,2,1,90,0,1
167028,-83.3333333333333,4,2,1,90,0,0
170646,-83.3333333333333,4,2,1,22,0,0
171175,-83.3333333333333,4,2,1,90,0,0
176204,-83.3333333333333,4,2,1,90,0,1
182999,-100,4,2,1,90,0,1
185028,-50,4,2,1,90,0,1
187234,-83.3333333333333,4,2,1,90,0,1
192440,-83.3333333333333,4,2,1,80,0,0
192616,-83.3333333333333,4,2,1,60,0,0
198087,-100,4,2,1,70,0,0
226322,-100,4,2,1,90,0,1
236204,-66.6666666666667,4,2,1,90,0,0
246793,-100,4,2,1,80,0,0
247499,-200,4,2,1,80,0,0
248204,-200,4,2,1,50,0,0
248469,-200,4,2,1,20,0,0
248822,-200,4,2,1,80,0,0
254204,-200,4,2,1,20,0,0
254734,-200,4,2,1,5,0,0

[Colours]
Combo1 : 231,193,152
Combo2 : 241,181,114
Combo3 : 223,139,47

[HitObjects]
88,80,1851,5,0,0:0:0:0:
160,240,2204,2,0,B|256:240|256:240|312:200,1,150
368,64,2910,2,0,B|400:96|400:96|400:128,2,75
376,200,3616,1,0,0:0:0:0:
376,200,3969,2,0,B|376:304|376:304|328:320,1,150
160,216,4675,6,0,P|72:160|48:104,1,150
400,88,5381,2,0,P|344:144|272:168,1,150
278,167,5910,1,0,0:0:0:0:
278,167,6087,1,0,0:0:0:0:
48,256,6793,6,0,P|72:192|144:136,1,150
304,96,7499,2,0,P|368:144|376:160,1,75
432,240,7851,1,0,0:0:0:0:
336,304,8028,1,0,0:0:0:0:
208,304,8204,2,0,L|184:264,6,37.5
368,280,8910,5,0,0:0:0:0:
368,280,8999,1,0,0:0:0:0:
368,280,9087,2,0,P|432:264|456:240,1,75
464,128,9440,2,0,P|432:88|400:80,1,75
312,56,9793,1,0,0:0:0:0:
176,144,9969,1,0,0:0:0:0:
80,72,10146,2,0,L|8:96,1,60
168,232,10499,2,0,L|232:280,1,75
432,296,10851,5,0,0:0:0:0:
432,296,11028,2,0,B|416:336|416:336|352:336,1,75
280,312,11381,1,0,0:0:0:0:
152,184,11557,1,0,0:0:0:0:
240,80,11734,2,0,B|280:56|280:56|320:56,1,75
96,224,12499,6,0,L|160:192,5,37.5
232,232,13146,2,0,L|312:256,2,75
424,144,13675,2,0,P|392:112|360:104,1,75
224,224,14028,1,0,0:0:0:0:
104,168,14204,1,0,0:0:0:0:
141,77,14381,1,0,0:0:0:0:
141,77,14557,1,0,0:0:0:0:
136,272,14734,5,0,0:0:0:0:
336,176,14910,1,0,0:0:0:0:
104,128,15087,1,0,0:0:0:0:
224,288,15263,1,0,0:0:0:0:
336,96,15440,2,0,P|424:136|432:144,1,75
432,224,15793,2,0,P|400:296|384:304,1,75
304,312,16146,5,0,0:0:0:0:
304,312,16234,1,0,0:0:0:0:
304,312,16322,2,0,P|240:320|216:304,1,75
176,248,16675,2,0,P|224:216|272:216,1,75
392,232,17028,1,0,0:0:0:0:
432,128,17204,2,0,P|384:88|352:72,1,75
256,64,17557,1,0,0:0:0:0:
144,128,17734,2,0,L|80:176,1,75
64,288,18087,1,0,0:0:0:0:
176,304,18263,1,0,0:0:0:0:
272,200,18440,6,0,P|328:216|360:232,1,75
424,288,18793,1,0,0:0:0:0:
304,312,18969,1,0,0:0:0:0:
304,312,19057,1,0,0:0:0:0:
304,312,19146,2,0,P|224:320|208:312,1,75
160,288,19499,2,0,P|136:224|136:192,1,75
328,56,19851,5,0,0:0:0:0:
328,56,20028,2,0,P|384:120|384:136,1,75
432,224,20381,2,0,L|384:288,1,75
288,208,20734,1,0,0:0:0:0:
208,80,20910,1,0,0:0:0:0:
128,224,21087,1,0,0:0:0:0:
128,224,21175,1,0,0:0:0:0:
128,224,21263,2,0,B|88:176|88:176|104:144,1,75
200,64,21616,5,0,0:0:0:0:
400,80,21793,2,0,P|448:136|456:168,1,75
384,272,22146,1,0,0:0:0:0:
232,232,22322,1,0,0:0:0:0:
296,120,22499,2,0,P|256:72|224:64,1,75
246,67,22851,1,0,0:0:0:0:
120,168,23028,6,0,P|64:192|40:216,1,75
216,296,23381,2,0,P|272:280|296:280,1,75
336,152,23734,1,0,0:0:0:0:
336,152,23822,1,0,0:0:0:0:
336,152,23910,2,0,P|360:112|392:96,2,75
352,248,24440,2,0,P|400:280|416:280,2,75
192,272,24969,5,0,0:0:0:0:
104,192,25146,1,0,0:0:0:0:
176,80,25322,2,0,P|208:56|256:48,1,75
241,47,25675,1,0,0:0:0:0:
408,168,25851,2,0,P|448:216|464:248,1,75
344,264,26204,2,0,P|328:216|288:192,1,75
224,56,26557,5,0,0:0:0:0:
96,176,26734,1,0,0:0:0:0:
200,304,26910,2,0,L|272:336,2,75
64,216,27440,5,0,0:0:0:0:
64,216,27528,1,0,0:0:0:0:
64,216,27616,1,0,0:0:0:0:
136,128,27793,1,0,0:0:0:0:
136,128,27881,1,0,0:0:0:0:
136,128,27969,1,0,0:0:0:0:
248,88,28146,6,0,P|336:64|352:64,1,75
319,65,28410,1,0,0:0:0:0:
319,65,28499,1,0,0:0:0:0:
448,96,28675,1,0,0:0:0:0:
448,96,28763,1,0,0:0:0:0:
448,96,28851,1,0,0:0:0:0:
424,216,29028,6,0,P|376:256|328:264,1,112.5
296,256,29381,1,0,0:0:0:0:
260,245,29469,1,0,0:0:0:0:
225,230,29557,1,0,0:0:0:0:
193,211,29645,1,0,0:0:0:0:
163,188,29733,1,0,0:0:0:0:
136,162,29822,1,0,0:0:0:0:
112,133,29910,1,0,0:0:0:0:
176,64,30087,6,0,P|224:80|256:104,1,75
424,160,30440,2,0,P|448:208|448:232,1,75
264,296,30793,1,0,0:0:0:0:
264,296,30969,1,0,0:0:0:0:
264,296,31146,2,0,P|208:288|184:256,1,75
112,200,31499,2,0,P|88:152|96:120,1,75
192,72,31851,5,0,0:0:0:0:
304,104,32028,1,0,0:0:0:0:
400,136,32204,2,0,P|432:168|440:208,1,75
384,280,32557,1,0,0:0:0:0:
200,272,32734,1,0,0:0:0:0:
64,184,32910,2,0,B|88:112|88:112|192:112,1,150
162,112,33440,1,0,0:0:0:0:
264,64,33616,5,0,0:0:0:0:
416,104,33793,1,0,0:0:0:0:
256,176,33969,1,0,0:0:0:0:
440,200,34146,1,0,0:0:0:0:
288,288,34322,1,0,0:0:0:0:
400,240,34499,1,0,0:0:0:0:
400,240,34675,2,0,B|320:280|320:280|240:280,2,150
128,104,35734,6,0,B|96:144|96:144|96:216,1,112.5
168,288,36440,1,0,0:0:0:0:
392,304,37146,2,0,B|432:264|432:264|432:192,1,112.5
360,120,37851,1,0,0:0:0:0:
96,80,38557,5,0,0:0:0:0:
96,80,38734,1,0,0:0:0:0:
344,64,38910,1,0,0:0:0:0:
344,64,39087,1,0,0:0:0:0:
432,176,39263,2,0,P|472:232|464:256,2,75
208,128,39793,2,0,P|232:168|312:192,1,112.5
324,197,40146,5,0,0:0:0:0:
362,197,40233,1,0,0:0:0:0:
398,189,40321,1,0,0:0:0:0:
430,169,40409,1,0,0:0:0:0:
446,136,40498,1,0,0:0:0:0:
437,100,40586,1,0,0:0:0:0:
410,75,40674,1,0,0:0:0:0:
375,62,40762,5,0,0:0:0:0:
338,55,40851,1,0,0:0:0:0:
301,52,40939,1,0,0:0:0:0:
263,50,41027,1,0,0:0:0:0:
226,50,41115,1,0,0:0:0:0:
188,51,41204,1,0,0:0:0:0:
96,96,41381,6,0,P|104:144|136:176,1,75
200,232,41734,1,0,0:0:0:0:
320,304,41910,1,0,0:0:0:0:
448,272,42087,2,0,P|456:216|432:184,2,75
352,280,42616,1,0,0:0:0:0:
216,168,42793,1,0,0:0:0:0:
344,160,42969,1,0,0:0:0:0:
232,288,43146,1,0,0:0:0:0:
232,288,43234,1,0,0:0:0:0:
232,288,43322,2,0,P|152:312|128:312,2,75
304,232,43851,1,0,0:0:0:0:
304,232,43940,1,0,0:0:0:0:
304,232,44028,1,0,0:0:0:0:
168,72,44204,5,0,0:0:0:0:
320,96,44381,1,0,0:0:0:0:
432,160,44557,2,0,P|448:240|440:256,1,75
336,256,44910,1,0,0:0:0:0:
192,296,45087,1,0,0:0:0:0:
192,296,45263,2,0,B|136:240|136:240|136:160,1,150
176,104,45793,2,0,P|208:56|224:48,2,75
296,256,46322,5,0,0:0:0:0:
296,256,46499,2,0,P|336:304|368:328,1,75
432,240,46851,1,0,0:0:0:0:
344,88,47028,2,0,P|392:96|408:136,1,75
336,216,47381,2,0,P|296:192|248:184,2,75
384,312,47910,1,0,0:0:0:0:
384,312,48087,1,0,0:0:0:0:
256,240,48263,1,0,0:0:0:0:
128,152,48440,2,0,P|112:224|184:296,2,150
248,160,49322,1,0,0:0:0:0:
248,160,49410,1,0,0:0:0:0:
248,160,49499,1,0,0:0:0:0:
136,80,49851,6,0,L|208:112,1,56.2500021457673
240,160,50204,2,0,L|176:200,1,56.2500021457673
225,267,50557,2,0,L|297:283,1,56.2500021457673
280,280,50910,1,0,0:0:0:0:
408,216,51087,1,0,0:0:0:0:
416,112,51263,2,0,P|344:80|304:88,2,112.500004291535
416,200,52146,1,0,0:0:0:0:
288,64,52322,5,0,0:0:0:0:
288,64,52410,1,0,0:0:0:0:
288,64,52499,2,0,L|176:112,1,112.500004291535
80,120,53028,1,0,0:0:0:0:
128,224,53204,5,0,0:0:0:0:
128,224,53293,1,0,0:0:0:0:
128,224,53381,2,0,P|136:288|144:304,1,56.2500021457673
232,288,53734,2,0,P|288:288|336:248,1,112.500004291535
400,112,54263,1,0,0:0:0:0:
400,112,54351,1,0,0:0:0:0:
400,112,54440,2,0,P|360:80|288:56,2,112.500004291535
160,80,55322,6,0,P|128:112|112:144,1,56.2500021457673
88,240,55675,1,0,0:0:0:0:
200,240,55851,1,0,0:0:0:0:
227,247,55939,1,0,0:0:0:0:
254,254,56027,1,0,0:0:0:0:
281,261,56115,1,0,0:0:0:0:
308,268,56203,1,0,0:0:0:0:
424,256,56381,1,0,0:0:0:0:
448,152,56557,5,0,0:0:0:0:
448,152,56646,1,0,0:0:0:0:
448,152,56734,2,0,P|432:104|408:96,1,56.2500021457673
248,56,57087,2,0,B|216:72|216:72|208:104,1,56.2500021457673
211,91,57440,2,0,B|192:128|192:128|168:136,1,56.2500021457673
177,132,57793,2,0,B|192:160|192:160|224:176,1,56.2500021457673
328,256,58146,5,0,0:0:0:0:
328,256,58322,1,0,0:0:0:0:
416,192,58499,1,0,0:0:0:0:
416,192,58675,1,0,0:0:0:0:
400,96,58851,2,0,P|368:72|320:72,2,75
248,80,59381,2,0,P|200:112|184:144,2,75
304,160,59910,1,0,0:0:0:0:
240,240,60087,1,0,0:0:0:0:
64,144,60264,5,0,0:0:0:0:
64,144,60352,1,0,0:0:0:0:
64,144,60440,2,0,P|56:192|88:216,1,75
176,248,60793,1,0,0:0:0:0:
344,240,60969,1,0,0:0:0:0:
344,240,61146,2,0,P|400:208|416:128,1,150
264,64,61675,6,0,P|176:64|160:72,1,75
104,232,62028,1,0,0:0:0:0:
264,296,62204,1,0,0:0:0:0:
440,208,62381,1,0,0:0:0:0:
400,72,62557,1,0,0:0:0:0:
296,80,62734,2,0,B|256:136|256:136|264:176,1,75
440,224,63087,1,0,0:0:0:0:
440,224,63263,1,0,0:0:0:0:
320,280,63440,6,0,L|264:296,4,37.5
376,208,63969,1,0,0:0:0:0:
400,104,64146,1,0,0:0:0:0:
288,96,64322,2,0,P|256:144|224:168,1,75
208,256,64675,2,0,L|304:272,1,75
384,216,65028,1,0,0:0:0:0:
384,216,65204,1,0,0:0:0:0:
264,224,65381,2,0,B|184:208|184:208|120:152,1,150
360,80,66087,6,0,P|320:64|288:64,1,75
144,104,66440,2,0,P|128:152|120:192,2,75
256,72,66969,1,0,0:0:0:0:
360,192,67146,1,0,0:0:0:0:
184,192,67322,1,0,0:0:0:0:
104,72,67499,1,0,0:0:0:0:
24,192,67675,1,0,0:0:0:0:
104,312,67851,1,0,0:0:0:0:
184,192,68028,1,0,0:0:0:0:
360,192,68204,1,0,0:0:0:0:
216,304,68381,6,0,P|168:296|128:272,1,75
80,208,68734,1,0,0:0:0:0:
80,208,68910,2,0,P|80:160|96:128,1,75
256,72,69616,6,0,P|400:104|416:120,1,150
296,336,70146,1,0,0:0:0:0:
144,336,70322,2,0,P|88:296|72:272,1,75
152,104,70675,2,0,P|240:96|256:104,2,75
208,264,71204,1,0,0:0:0:0:
352,224,71381,1,0,0:0:0:0:
256,152,71557,1,0,0:0:0:0:
464,120,71734,6,0,P|424:88|296:72,1,150
256,176,72263,1,0,0:0:0:0:
256,176,72440,1,0,0:0:0:0:
112,96,72616,2,0,P|80:152|88:184,1,75
152,272,72969,1,0,0:0:0:0:
152,272,73057,1,0,0:0:0:0:
152,272,73146,1,0,0:0:0:0:
368,120,73322,5,0,0:0:0:0:
368,120,73499,2,0,P|416:176|416:256,1,150
208,320,74028,2,0,P|160:280|160:248,1,75
160,104,74381,1,0,0:0:0:0:
416,264,74557,1,0,0:0:0:0:
416,264,74646,1,0,0:0:0:0:
416,264,74734,1,0,0:0:0:0:
120,248,74910,1,0,0:0:0:0:
344,96,75087,1,0,0:0:0:0:
344,96,75175,1,0,0:0:0:0:
344,96,75263,1,0,0:0:0:0:
440,184,75440,6,0,P|384:224|352:232,1,75
192,144,75793,2,0,P|136:104|96:104,2,75
416,248,76322,1,0,0:0:0:0:
416,248,76410,1,0,0:0:0:0:
416,248,76499,2,0,P|384:296|344:304,2,75
392,104,77028,5,0,0:0:0:0:
304,56,77204,1,0,0:0:0:0:
208,88,77381,2,0,B|88:168|88:168|64:264,1,225.000008583069
160,296,77910,1,0,0:0:0:0:
280,280,78087,2,0,P|344:248|376:208,1,112.500004291535
352,88,78440,2,0,B|216:88|216:88|208:96,1,112.500004291535
136,80,78793,1,0,0:0:0:0:
72,200,78969,1,0,0:0:0:0:
200,224,79146,2,0,P|256:176|320:160,1,112.500004291535
96,80,79499,5,0,0:0:0:0:
56,160,79675,1,0,0:0:0:0:
296,224,79851,1,0,0:0:0:0:
360,288,80028,1,0,0:0:0:0:
264,104,80204,1,0,0:0:0:0:
296,85,80292,1,0,0:0:0:0:
332,76,80380,1,0,0:0:0:0:
369,77,80468,1,0,0:0:0:0:
408,96,80557,2,0,P|432:136|416:192,1,75
144,224,80910,5,0,0:0:0:0:
272,80,81087,1,0,0:0:0:0:
320,272,81263,1,0,0:0:0:0:
312,56,81440,1,0,0:0:0:0:
424,56,81616,2,0,P|464:104|464:128,1,75
304,184,81969,2,0,P|272:224|256:264,1,75
432,256,82322,1,0,0:0:0:0:
408,285,82410,1,0,0:0:0:0:
378,307,82498,1,0,0:0:0:0:
343,319,82586,1,0,0:0:0:0:
305,322,82675,2,0,P|240:304|216:288,1,75
88,80,83028,5,0,0:0:0:0:
312,208,83204,1,0,0:0:0:0:
96,248,83381,1,0,0:0:0:0:
296,72,83557,1,0,0:0:0:0:
80,112,83734,1,0,0:0:0:0:
328,184,83910,1,0,0:0:0:0:
264,56,84087,1,0,0:0:0:0:
128,256,84263,1,0,0:0:0:0:
120,104,84440,2,0,P|160:88|208:104,1,75
256,248,84792,5,0,0:0:0:0:
256,248,84880,1,0,0:0:0:0:
256,248,84969,2,0,P|304:288|344:296,2,75
128,168,85499,1,0,0:0:0:0:
72,88,85675,2,0,P|120:56|160:48,2,75
216,216,86204,2,0,P|256:216|296:192,2,75
320,64,86734,5,0,0:0:0:0:
384,176,86910,2,0,P|376:232|368:264,1,75
216,264,87263,2,0,P|160:232|128:208,1,75
88,72,87616,1,0,0:0:0:0:
312,48,87793,1,0,0:0:0:0:
392,200,87969,2,0,P|360:256|336:280,2,75
152,72,88499,5,0,0:0:0:0:
152,72,88587,1,0,0:0:0:0:
152,72,88675,2,0,P|112:128|120:160,1,75
208,280,89028,1,0,0:0:0:0:
328,208,89204,1,0,0:0:0:0:
456,88,89381,2,0,P|416:64|384:32,1,75
395,44,89646,1,0,0:0:0:0:
395,44,89734,1,0,0:0:0:0:
224,72,89910,5,0,0:0:0:0:
152,176,90087,1,0,0:0:0:0:
176,208,90175,1,0,0:0:0:0:
205,230,90263,1,0,0:0:0:0:
240,245,90351,1,0,0:0:0:0:
276,251,90439,1,0,0:0:0:0:
320,248,90528,2,0,P|368:216|376:144,1,112.5
64,280,92028,5,0,0:0:0:0:
64,280,92116,1,0,0:0:0:0:
64,280,92204,2,0,B|152:280|152:280|208:248,1,150
440,96,92910,2,0,B|336:96|336:96|288:136,1,150
192,64,93616,1,0,0:0:0:0:
80,160,93793,1,0,0:0:0:0:
416,144,93969,1,0,0:0:0:0:
304,264,94146,1,0,0:0:0:0:
152,328,94322,2,0,L|104:224,1,112.5
88,192,94675,1,0,0:0:0:0:
76,156,94763,1,0,0:0:0:0:
87,121,94851,1,0,0:0:0:0:
115,97,94939,1,0,0:0:0:0:
152,88,95028,2,0,L|232:88|312:24,1,150
416,168,95557,5,0,0:0:0:0:
416,264,95734,2,0,P|360:320|344:320,2,75
288,48,96263,1,0,0:0:0:0:
96,168,96440,1,0,0:0:0:0:
424,184,96616,2,0,P|400:240|384:256,1,75
248,168,96969,2,0,P|200:128|160:136,2,75
408,312,97499,5,0,0:0:0:0:
352,64,97675,2,0,P|288:48|256:48,1,75
104,216,98028,1,0,0:0:0:0:
376,120,98204,2,0,P|416:176|424:216,2,75
216,72,98734,1,0,0:0:0:0:
120,160,98910,1,0,0:0:0:0:
208,272,99087,1,0,0:0:0:0:
392,320,99263,2,0,P|392:272|408:224,1,75
400,120,99616,1,0,0:0:0:0:
184,64,99793,6,0,P|136:96|120:120,1,75
72,208,100146,1,0,0:0:0:0:
360,120,100322,1,0,0:0:0:0:
160,88,100499,1,0,0:0:0:0:
256,264,100675,2,0,P|304:296|352:296,1,75
440,152,101028,6,0,P|408:112|368:88,2,75
400,296,101557,1,0,0:0:0:0:
112,88,101734,1,0,0:0:0:0:
216,104,101910,1,0,0:0:0:0:
328,120,102087,2,0,P|368:152|368:192,1,75
112,304,102440,5,0,0:0:0:0:
128,120,102616,2,0,P|168:72|200:64,1,75
472,144,102969,2,0,P|488:208|480:248,1,75
456,296,103322,1,0,0:0:0:0:
384,336,103499,2,0,B|336:336|336:336|288:336,1,75
256,264,103851,5,0,0:0:0:0:
128,144,104028,1,0,0:0:0:0:
256,48,104204,1,0,0:0:0:0:
392,168,104381,2,0,L|312:240,2,75
424,72,104910,1,0,0:0:0:0:
264,88,105087,6,0,P|200:104|192:128,1,75
264,264,105440,2,0,P|304:288|304:328,1,75
216,200,105793,1,0,0:0:0:0:
304,160,105969,1,0,0:0:0:0:
388,119,106146,1,0,0:0:0:0:
144,176,106322,6,0,P|112:144|80:152,1,75
85,148,106586,1,0,0:0:0:0:
85,148,106675,1,0,0:0:0:0:
160,288,106851,1,0,0:0:0:0:
160,288,106940,1,0,0:0:0:0:
160,288,107028,2,0,P|192:320|240:320,1,75
368,280,107381,5,0,0:0:0:0:
440,176,107557,1,0,0:0:0:0:
440,176,107646,1,0,0:0:0:0:
440,176,107734,2,0,P|424:128|360:96,1,112.5
339,89,108087,1,0,0:0:0:0:
301,85,108175,1,0,0:0:0:0:
264,84,108263,1,0,0:0:0:0:
226,86,108351,1,0,0:0:0:0:
189,91,108440,1,0,0:0:0:0:
152,104,108528,1,0,0:0:0:0:
120,120,108616,2,0,P|96:152|80:184,2,75
256,64,109146,6,0,P|320:104|328:120,1,75
360,240,109499,2,0,P|392:272|440:296,2,75
288,144,110028,1,0,0:0:0:0:
160,80,110204,1,0,0:0:0:0:
96,264,110381,2,0,P|136:296|168:312,1,75
384,240,110910,5,0,0:0:0:0:
384,240,111087,2,0,P|416:192|408:152,1,93.75
396,138,111616,1,0,0:0:0:0:
382,128,111704,1,0,0:0:0:0:
367,119,111792,1,0,0:0:0:0:
350,114,111880,1,0,0:0:0:0:
336,112,111969,2,0,P|288:112|256:128,1,75
263,122,112499,1,0,0:0:0:0:
263,122,112675,1,0,0:0:0:0:
80,256,113381,6,0,P|112:288|144:296,1,75
304,232,113910,1,0,0:0:0:0:
304,232,114087,1,0,0:0:0:0:
464,88,114793,6,0,P|432:56|360:48,1,112.5
331,54,115145,1,0,0:0:0:0:
294,63,115233,1,0,0:0:0:0:
258,73,115321,1,0,0:0:0:0:
222,83,115409,1,0,0:0:0:0:
186,94,115498,1,0,0:0:0:0:
150,105,115586,1,0,0:0:0:0:
115,119,115674,1,0,0:0:0:0:
82,135,115763,5,0,0:0:0:0:
52,158,115851,1,0,0:0:0:0:
33,190,115939,1,0,0:0:0:0:
28,227,116027,1,0,0:0:0:0:
112,312,116204,6,0,L|184:288,1,75
288,240,116557,1,0,0:0:0:0:
368,160,116734,2,0,B|400:120|400:120|400:80,1,75
88,112,117616,6,0,P|160:80|272:88,1,179.999994506836
408,184,118146,1,0,0:0:0:0:
80,288,118322,1,0,0:0:0:0:
208,72,118499,1,0,0:0:0:0:
208,72,118587,1,0,0:0:0:0:
208,72,118675,1,0,0:0:0:0:
400,136,118851,5,0,0:0:0:0:
400,136,119028,2,0,P|448:192|440:224,1,89.9999972534181
447,202,119293,1,0,0:0:0:0:
447,202,119381,1,0,0:0:0:0:
368,296,119557,1,0,0:0:0:0:
368,296,119734,2,0,P|296:304|256:272,2,89.9999972534181
408,80,120263,6,0,B|368:48|368:48|320:48,1,89.9999972534181
272,144,120616,2,0,B|232:112|232:112|184:112,1,89.9999972534181
160,232,120969,2,0,B|120:200|120:200|72:200,2,89.9999972534181
232,264,121499,1,0,0:0:0:0:
360,216,121675,1,0,0:0:0:0:
416,88,121851,2,0,P|360:64|320:64,1,89.9999972534181
200,80,122204,5,0,0:0:0:0:
200,80,122293,1,0,0:0:0:0:
200,80,122381,2,0,P|160:112|144:160,1,89.9999972534181
136,240,122734,1,0,0:0:0:0:
352,240,122910,2,0,P|408:240|424:272,1,89.9999972534181
272,56,123263,5,0,0:0:0:0:
136,152,123440,2,0,P|96:200|88:248,1,89.9999972534181
160,296,123793,1,0,0:0:0:0:
256,296,123969,1,0,0:0:0:0:
344,240,124146,1,0,0:0:0:0:
248,88,124322,2,0,P|312:104|328:128,2,89.9999972534181
144,128,124851,5,0,0:0:0:0:
113,161,124939,1,0,0:0:0:0:
100,203,125027,1,0,0:0:0:0:
105,247,125115,1,0,0:0:0:0:
127,286,125203,1,0,0:0:0:0:
164,311,125292,1,0,0:0:0:0:
200,336,125381,2,0,P|272:368|320:376,1,89.9999972534181
416,264,125734,5,0,0:0:0:0:
424,168,125910,2,0,P|408:104|368:80,1,89.9999972534181
192,96,126263,1,0,0:0:0:0:
336,96,126440,1,0,0:0:0:0:
192,240,126616,1,0,0:0:0:0:
336,240,126793,1,0,0:0:0:0:
200,120,126969,6,0,P|160:80|144:40,1,89.9999972534181
344,264,127322,2,0,P|392:304|400:336,1,89.9999972534181
336,128,127675,2,0,P|376:80|416:64,1,89.9999972534181
152,256,128028,2,0,P|112:304|112:336,2,89.9999972534181
200,80,128557,5,0,0:0:0:0:
296,120,128734,1,0,0:0:0:0:
208,176,128910,2,0,P|232:232|288:264,1,112.500004291535
360,240,129440,1,0,0:0:0:0:
328,168,129616,1,0,0:0:0:0:
304,96,129793,1,0,0:0:0:0:
176,80,129969,2,0,P|112:120|104:160,2,112.500004291535
376,88,130851,5,0,0:0:0:0:
272,176,131028,1,0,0:0:0:0:
416,224,131204,2,0,B|400:296|400:296|344:320,1,112.500004291535
120,64,131734,5,0,0:0:0:0:
400,104,132087,1,0,0:0:0:0:
120,232,132440,1,0,0:0:0:0:
408,288,132793,1,0,0:0:0:0:
224,320,133146,2,0,B|168:232|168:232|168:208,1,112.500004291535
96,96,133851,5,0,0:0:0:0:
96,96,134028,1,0,0:0:0:0:
232,288,134204,1,0,0:0:0:0:
232,288,134381,1,0,0:0:0:0:
376,96,134557,1,0,0:0:0:0:
376,96,134734,2,0,P|416:152|416:200,1,112.500004291535
417,193,135175,1,0,0:0:0:0:
417,193,135263,1,0,0:0:0:0:
296,296,135440,6,0,P|248:328|232:328,2,56.2500021457673
352,208,135969,1,0,0:0:0:0:
272,80,136322,1,0,0:0:0:0:
112,120,136499,1,0,0:0:0:0:
112,120,136587,1,0,0:0:0:0:
112,120,136675,2,0,P|96:168|112:192,1,56.2500021457673
416,80,137381,5,0,0:0:0:0:
352,168,137557,1,0,0:0:0:0:
240,240,137734,2,0,P|208:280|184:296,2,56.2500021457673
248,128,138263,1,0,0:0:0:0:
352,80,138440,2,0,P|432:128|336:176,2,225.000008583069
248,104,140028,1,0,0:0:0:0:
208,136,140116,1,0,0:0:0:0:
168,168,140204,1,0,0:0:0:0:
96,80,143028,5,0,0:0:0:0:
200,120,143204,2,0,L|240:152,2,37.5
208,216,143557,2,0,L|248:248,2,37.5
336,144,143910,2,0,L|376:176,2,37.5
200,80,144263,2,0,P|144:120|120:144,2,75
344,72,144793,1,0,0:0:0:0:
296,208,144969,1,0,0:0:0:0:
136,272,145146,1,0,0:0:0:0:
128,72,145851,6,0,P|80:144|144:280,1,225.000008583069
304,264,146381,1,0,0:0:0:0:
488,88,146557,2,0,P|416:32|264:40,1,225.000008583069
176,64,147087,1,0,0:0:0:0:
80,112,147263,2,0,P|96:176|128:232,2,89.9999972534181
160,48,147793,1,0,0:0:0:0:
432,80,147969,5,0,0:0:0:0:
368,240,148146,1,0,0:0:0:0:
184,296,148322,2,0,P|128:248|128:216,1,89.9999972534181
280,48,148675,2,0,P|320:80|344:128,2,89.9999972534181
184,64,149204,1,0,0:0:0:0:
96,120,149381,1,0,0:0:0:0:
184,264,149557,5,0,0:0:0:0:
304,272,149734,2,0,P|368:224|416:208,2,89.9999972534181
184,272,150263,1,0,0:0:0:0:
88,168,150440,1,0,0:0:0:0:
208,64,150616,2,0,B|320:56|320:56|392:88,1,179.999994506836
424,208,151146,5,0,0:0:0:0:
288,280,151322,1,0,0:0:0:0:
80,248,151499,2,0,P|56:184|64:136,2,89.9999972534181
248,288,152028,1,0,0:0:0:0:
232,136,152204,1,0,0:0:0:0:
416,128,152381,2,0,L|352:208,1,89.9999972534181
208,256,152734,1,0,0:0:0:0:
152,160,152910,1,0,0:0:0:0:
64,192,153087,2,0,L|48:288,2,89.9999972534181
80,72,153616,5,0,0:0:0:0:
200,144,153969,1,0,0:0:0:0:
80,240,154322,1,0,0:0:0:0:
256,296,154675,2,0,P|344:280|408:200,2,179.999994506836
112,216,155557,1,0,0:0:0:0:
56,112,155734,1,0,0:0:0:0:
248,80,155910,1,0,0:0:0:0:
352,120,156087,1,0,0:0:0:0:
328,296,156263,6,0,L|272:208,1,89.9999972534181
237,155,156616,1,0,0:0:0:0:
168,104,156793,2,0,P|104:80|72:176,1,179.999994506836
160,304,157322,5,0,0:0:0:0:
320,200,157499,1,0,0:0:0:0:
192,72,157675,2,0,P|120:104|96:144,1,89.9999972534181
256,248,158028,2,0,P|312:280|352:272,1,89.9999972534181
392,112,158381,1,0,0:0:0:0:
256,248,158557,2,0,B|192:280|192:280|160:264,1,89.9999972534181
112,176,158910,1,0,0:0:0:0:
192,72,159263,5,0,0:0:0:0:
320,128,159616,1,0,0:0:0:0:
128,232,159969,1,0,0:0:0:0:
224,48,160322,1,0,0:0:0:0:
128,216,160675,1,0,0:0:0:0:
104,64,161028,1,0,0:0:0:0:
296,160,161204,5,0,0:0:0:0:
296,160,161381,2,0,P|336:240|272:288,1,179.999994506836
416,248,162087,1,0,0:0:0:0:
288,296,162263,2,0,P|216:312|176:288,1,89.9999972534181
112,200,162616,2,0,P|112:136|152:104,1,89.9999972534181
126,118,162969,1,0,0:0:0:0:
280,80,163146,5,0,0:0:0:0:
280,80,163322,1,0,0:0:0:0:
392,168,163499,2,0,P|392:224|360:272,2,89.9999972534181
304,112,164028,1,0,0:0:0:0:
192,192,164204,1,0,0:0:0:0:
128,272,164381,5,0,0:0:0:0:
170,287,164469,1,0,0:0:0:0:
214,289,164557,1,0,0:0:0:0:
258,277,164645,1,0,0:0:0:0:
295,252,164733,1,0,0:0:0:0:
168,64,164910,6,0,P|88:88|56:120,1,89.9999972534181
168,144,165263,2,0,P|224:176|256:224,1,89.9999972534181
144,224,165616,2,0,P|96:256|64:296,1,89.9999972534181
160,304,165969,1,0,0:0:0:0:
160,304,166146,1,0,0:0:0:0:
296,304,166322,6,0,P|360:288|376:264,1,89.9999972534181
384,232,166587,1,0,0:0:0:0:
376,192,166675,2,0,P|360:144|312:120,1,89.9999972534181
288,104,166940,1,0,0:0:0:0:
240,104,167028,2,0,P|192:120|160:160,1,89.9999972534181
80,104,168263,5,0,0:0:0:0:
80,104,168351,1,0,0:0:0:0:
80,104,168440,2,0,P|88:200|104:208,1,89.9999972534181
184,208,168793,1,0,0:0:0:0:
280,112,169146,1,0,0:0:0:0:
464,88,169499,1,0,0:0:0:0:
416,232,169851,5,0,0:0:0:0:
416,232,170028,1,0,0:0:0:0:
296,312,170204,1,0,0:0:0:0:
296,312,170381,1,0,0:0:0:0:
256,192,170557,12,0,171263,0:0:0:0:
120,96,173204,5,0,0:0:0:0:
120,96,173293,1,0,0:0:0:0:
120,96,173381,2,0,P|104:160|112:208,1,89.9999972534181
104,256,173734,2,0,P|144:320|192:344,2,89.9999972534181
104,152,174263,1,0,0:0:0:0:
176,72,174440,1,0,0:0:0:0:
288,56,174616,2,0,P|360:64|392:88,1,89.9999972534181
440,248,174969,5,0,0:0:0:0:
320,304,175146,1,0,0:0:0:0:
144,256,175322,2,0,P|120:184|144:136,1,89.9999972534181
224,104,175675,1,0,0:0:0:0:
360,88,175851,1,0,0:0:0:0:
376,184,176204,5,0,0:0:0:0:
401,220,176292,1,0,0:0:0:0:
404,264,176380,1,0,0:0:0:0:
385,304,176468,1,0,0:0:0:0:
348,329,176556,1,0,0:0:0:0:
303,331,176645,1,0,0:0:0:0:
264,310,176733,1,0,0:0:0:0:
240,272,176821,1,0,0:0:0:0:
232,232,176910,2,0,L|224:184,1,44.999998626709
128,200,177087,6,0,L|136:256,1,44.999998626709
136,280,177263,1,0,0:0:0:0:
97,296,177351,1,0,0:0:0:0:
60,271,177439,1,0,0:0:0:0:
44,235,177527,1,0,0:0:0:0:
59,192,177615,1,0,0:0:0:0:
74,150,177704,1,0,0:0:0:0:
89,107,177792,1,0,0:0:0:0:
117,77,177880,1,0,0:0:0:0:
152,48,177969,2,0,L|224:16,1,44.999998626709
264,64,178146,2,0,L|296:104,1,44.999998626709
344,152,178322,2,0,L|408:176,1,44.999998626709
440,208,178499,2,0,L|440:256,1,44.999998626709
392,312,178675,2,0,L|344:344,2,44.999998626709
144,312,179028,5,0,0:0:0:0:
240,304,179204,1,0,0:0:0:0:
312,224,179381,1,0,0:0:0:0:
376,112,179557,1,0,0:0:0:0:
376,112,179646,1,0,0:0:0:0:
376,112,179734,2,0,B|320:80|320:80|280:80,1,89.9999972534181
112,176,180087,2,0,B|88:224|88:224|96:280,1,89.9999972534181
208,304,180440,1,0,0:0:0:0:
368,208,180616,5,0,0:0:0:0:
200,80,180793,1,0,0:0:0:0:
368,208,180969,1,0,0:0:0:0:
200,80,181146,1,0,0:0:0:0:
408,248,181322,1,0,0:0:0:0:
168,40,181499,1,0,0:0:0:0:
432,176,181675,1,0,0:0:0:0:
128,96,181851,1,0,0:0:0:0:
392,128,182028,6,0,P|440:96|448:48,1,89.9999972534181
112,168,182381,2,0,P|64:200|48:232,2,89.9999972534181
112,168,182822,1,0,0:0:0:0:
112,168,182910,1,0,0:0:0:0:
240,88,183087,2,0,P|296:64|336:56,1,75
416,120,183440,1,0,0:0:0:0:
336,272,183616,2,0,P|256:304|192:296,2,150
416,176,184499,2,0,P|376:112|360:104,1,75
112,240,185028,5,0,0:0:0:0:
160,286,185116,1,0,0:0:0:0:
222,313,185204,1,0,0:0:0:0:
289,319,185292,1,0,0:0:0:0:
354,302,185380,1,0,0:0:0:0:
352,168,185734,5,0,0:0:0:0:
295,131,185822,1,0,0:0:0:0:
230,113,185910,1,0,0:0:0:0:
163,114,185998,1,0,0:0:0:0:
99,135,186086,1,0,0:0:0:0:
64,240,186440,2,0,P|208:312|384:248,2,300
64,128,187322,1,0,0:0:0:0:
64,128,187410,1,0,0:0:0:0:
64,128,187499,2,0,P|104:80|152:72,1,89.9999972534181
360,88,187851,6,0,P|400:128|408:184,1,89.9999972534181
96,224,188204,2,0,P|96:280|136:336,2,89.9999972534181
216,64,188734,2,0,P|272:48|336:56,1,89.9999972534181
432,208,189087,1,0,0:0:0:0:
296,280,189263,1,0,0:0:0:0:
48,136,189440,2,0,P|96:72|120:64,1,89.9999972534181
320,64,189793,5,0,0:0:0:0:
416,144,189969,1,0,0:0:0:0:
328,280,190146,2,0,P|232:288|208:280,2,89.9999972534181
400,200,190675,1,0,0:0:0:0:
360,80,190851,1,0,0:0:0:0:
208,64,191028,2,0,P|120:88|64:184,1,179.999994506836
240,184,191557,1,0,0:0:0:0:
280,320,191734,2,0,P|360:296|416:184,1,179.999994506836
304,72,192263,1,0,0:0:0:0:
304,72,192440,2,0,L|160:192,1,179.999994506836
104,112,198087,5,0,0:0:0:0:
280,152,198440,1,0,0:0:0:0:
440,80,198793,1,0,0:0:0:0:
400,240,199146,2,0,P|360:288|320:304,2,75
368,80,200028,1,0,0:0:0:0:
368,80,200117,1,0,0:0:0:0:
368,80,200205,2,0,P|328:56|224:48,1,150
96,168,200910,6,0,P|96:232|120:264,1,75
208,224,201263,1,0,0:0:0:0:
272,192,201440,1,0,0:0:0:0:
336,152,201616,1,0,0:0:0:0:
424,96,201793,2,0,P|448:160|440:192,2,75
424,96,202322,1,0,0:0:0:0:
120,80,202675,6,0,P|64:144|96:168,1,150
95,167,203204,1,0,0:0:0:0:
208,208,203381,1,0,0:0:0:0:
312,216,203557,1,0,0:0:0:0:
312,216,203646,1,0,0:0:0:0:
312,216,203734,1,0,0:0:0:0:
408,96,203910,6,0,P|344:72|312:72,1,75
338,71,204175,1,0,0:0:0:0:
338,71,204263,1,0,0:0:0:0:
216,152,204440,2,0,P|200:224|176:240,1,75
88,320,204793,2,0,P|160:336|184:328,1,75
320,144,205146,2,0,P|368:176|376:208,2,75
56,152,205675,1,0,0:0:0:0:
192,112,205851,1,0,0:0:0:0:
192,112,206028,1,0,0:0:0:0:
448,272,206557,6,0,L|368:320,1,75
40,96,206910,2,0,L|104:48,1,75
416,64,207263,1,0,0:0:0:0:
64,312,207616,1,0,0:0:0:0:
336,48,207969,1,0,0:0:0:0:
144,336,208322,1,0,0:0:0:0:
144,336,208499,2,0,P|224:336|240:328,1,75
320,320,208851,5,0,0:0:0:0:
320,272,209027,1,0,0:0:0:0:
320,224,209204,2,0,B|320:176|320:176|280:144,1,75
120,96,212204,5,0,0:0:0:0:
120,176,212381,1,0,0:0:0:0:
216,176,212557,1,0,0:0:0:0:
216,264,212734,1,0,0:0:0:0:
312,248,212910,1,0,0:0:0:0:
312,336,213087,1,0,0:0:0:0:
456,192,213263,1,0,0:0:0:0:
432,112,213440,1,0,0:0:0:0:
248,56,213616,5,0,0:0:0:0:
88,144,213793,1,0,0:0:0:0:
272,312,213969,1,0,0:0:0:0:
432,160,214146,1,0,0:0:0:0:
352,96,214322,5,0,0:0:0:0:
315,86,214410,1,0,0:0:0:0:
278,82,214498,1,0,0:0:0:0:
241,83,214586,1,0,0:0:0:0:
204,91,214674,1,0,0:0:0:0:
169,104,214763,1,0,0:0:0:0:
136,122,214851,1,0,0:0:0:0:
104,142,214939,1,0,0:0:0:0:
72,168,215028,2,0,P|48:232|48:272,1,75
296,296,215381,5,0,0:0:0:0:
440,144,215557,2,0,P|376:96|360:88,1,75
80,120,215910,1,0,0:0:0:0:
304,208,216087,1,0,0:0:0:0:
104,264,216263,2,0,P|144:304|160:312,1,75
160,144,216616,1,0,0:0:0:0:
272,80,216793,1,0,0:0:0:0:
272,80,216881,1,0,0:0:0:0:
272,80,216969,1,0,0:0:0:0:
416,120,217146,6,0,P|368:88|328:88,2,75
432,248,217675,1,0,0:0:0:0:
328,320,217851,1,0,0:0:0:0:
72,224,218028,2,0,P|64:176|88:136,2,75
224,128,218557,1,0,0:0:0:0:
224,128,218734,1,0,0:0:0:0:
400,248,218910,2,0,B|440:280|440:280|448:336,2,75
280,264,219440,2,0,B|232:280|224:280|224:280|176:272,2,75
88,136,219969,5,0,0:0:0:0:
88,136,220057,1,0,0:0:0:0:
88,136,220146,2,0,P|96:192|120:224,2,75
80,56,220675,1,0,0:0:0:0:
224,96,220851,1,0,0:0:0:0:
320,176,221028,1,0,0:0:0:0:
408,280,221204,2,0,P|352:320|320:320,1,75
96,120,221557,5,0,0:0:0:0:
256,160,221734,1,0,0:0:0:0:
144,216,221910,1,0,0:0:0:0:
208,72,222087,1,0,0:0:0:0:
320,56,222263,1,0,0:0:0:0:
440,96,222440,1,0,0:0:0:0:
368,168,222616,1,0,0:0:0:0:
448,208,222793,2,0,P|456:264|440:304,1,75
288,288,223146,6,0,P|224:256|208:256,1,75
80,112,223499,2,0,P|136:64|152:64,2,75
96,216,224028,1,0,0:0:0:0:
216,176,224204,1,0,0:0:0:0:
352,128,224381,1,0,0:0:0:0:
448,136,224557,2,0,B|432:216|432:216|376:264,1,150
240,112,225087,6,0,P|176:80|144:80,1,75
176,160,225440,1,0,0:0:0:0:
264,216,225616,1,0,0:0:0:0:
168,248,225793,2,0,P|120:224|96:184,1,75
88,96,226146,1,0,0:0:0:0:
232,64,226322,2,0,P|312:72|376:120,1,150
384,224,226851,1,0,0:0:0:0:
112,216,227028,2,0,B|168:272|168:272|256:280,2,150
400,192,227910,5,0,0:0:0:0:
344,96,228087,1,0,0:0:0:0:
208,64,228263,1,0,0:0:0:0:
104,144,228440,2,0,P|88:192|96:240,1,75
224,296,228793,1,0,0:0:0:0:
344,240,228969,1,0,0:0:0:0:
440,128,229146,2,0,P|416:88|384:64,1,75
104,104,229499,5,0,0:0:0:0:
408,104,229851,1,0,0:0:0:0:
104,104,230204,1,0,0:0:0:0:
408,104,230557,2,0,P|392:152|368:176,1,75
240,136,230910,6,0,P|200:192|200:224,1,75
344,296,231263,2,0,P|392:272|408:224,1,75
400,128,231616,1,0,0:0:0:0:
374,100,231704,1,0,0:0:0:0:
341,83,231792,1,0,0:0:0:0:
304,78,231880,1,0,0:0:0:0:
267,86,231968,1,0,0:0:0:0:
120,160,232146,5,0,0:0:0:0:
224,296,232322,2,0,P|280:312|320:304,2,75
400,216,232851,1,0,0:0:0:0:
200,80,233028,2,0,P|144:120|128:152,2,75
96,224,233557,1,0,0:0:0:0:
352,288,233734,2,0,P|400:248|408:208,1,75
136,80,234087,6,0,P|104:128|112:152,1,75
424,240,234440,1,0,0:0:0:0:
400,128,234616,1,0,0:0:0:0:
80,144,234793,2,0,P|80:208|96:232,1,75
432,136,235146,1,0,0:0:0:0:
336,64,235322,1,0,0:0:0:0:
232,128,235499,1,0,0:0:0:0:
232,128,235587,1,0,0:0:0:0:
232,128,235675,2,0,P|200:152|184:200,2,75
408,152,236204,6,0,B|432:272|432:272|336:336,1,225.000008583069
144,232,236734,2,0,P|120:168|136:120,1,112.500004291535
248,64,237087,1,0,0:0:0:0:
392,88,237263,1,0,0:0:0:0:
392,224,237440,2,0,P|336:288|296:296,2,112.500004291535
336,88,237969,1,0,0:0:0:0:
192,88,238146,1,0,0:0:0:0:
88,176,238322,6,0,B|112:232|112:232|160:272,1,112.500004291535
344,224,238675,2,0,B|392:160|392:160|392:96,1,112.500004291535
216,80,239028,2,0,P|136:80|80:104,1,112.500004291535
184,240,239381,2,0,B|232:288|232:288|304:288,1,112.500004291535
408,192,239734,1,0,0:0:0:0:
336,80,239910,1,0,0:0:0:0:
304,176,240087,1,0,0:0:0:0:
440,104,240263,1,0,0:0:0:0:
416,296,240440,6,0,P|344:328|200:248,2,225.000008583069
416,296,241322,1,0,0:0:0:0:
384,184,241499,1,0,0:0:0:0:
248,104,241675,1,0,0:0:0:0:
112,224,241851,2,0,P|144:272|200:296,2,112.500004291535
120,112,242381,1,0,0:0:0:0:
272,64,242557,1,0,0:0:0:0:
440,128,242734,1,0,0:0:0:0:
256,320,242910,5,0,0:0:0:0:
256,192,243087,1,0,0:0:0:0:
256,56,243263,1,0,0:0:0:0:
368,72,243440,2,0,P|424:112|432:152,1,112.500004291535
360,160,243793,2,0,P|384:224|448:232,1,112.500004291535
488,240,244146,2,0,P|472:296|400:304,1,112.500004291535
296,304,244499,1,0,0:0:0:0:
176,216,244675,1,0,0:0:0:0:
144,80,244851,1,0,0:0:0:0:
392,80,245028,5,0,0:0:0:0:
352,216,245204,1,0,0:0:0:0:
176,304,245381,1,0,0:0:0:0:
80,144,245557,2,0,B|120:80|120:80|168:72,1,112.500004291535
328,72,245910,2,0,B|384:80|384:80|432:144,1,112.500004291535
424,168,246175,1,0,0:0:0:0:
424,216,246263,1,0,0:0:0:0:
424,264,246351,1,0,0:0:0:0:
80,80,246793,5,0,0:0:0:0:
432,304,247146,1,0,0:0:0:0:
352,128,247499,2,0,L|160:256,1,225
256,192,248910,12,0,254734,0:0:0:0:
