osu file format v9

[General]
AudioFilename: EXIT TRANCE - Track 18 - .mp3
AudioLeadIn: 0
PreviewTime: 36197
Countdown: 0
SampleSet: Soft
StackLeniency: 0.7
Mode: 0
LetterboxInBreaks: 0

[Editor]
DistanceSpacing: 1
BeatDivisor: 4
GridSize: 4

[Metadata]
Title:Chousai Kenbo Sengen
Artist:Hommarju feat. R.Cena
Creator:galvenize
Version:Normal
Source:Kyouran Kazoku Nikki
Tags:EXIT TRANCE

[Difficulty]
HPDrainRate:2
CircleSize:3
OverallDifficulty:2
ApproachRate:5
SliderMultiplier:0.999999999999999
SliderTickRate:0.5

[Events]
//Background and Video events
0,0,"kyou.jpg"
//Break Periods
2,19677,25477
2,91677,97477
//Storyboard Layer 0 (Background)
//Storyboard Layer 1 (Fail)
//Storyboard Layer 2 (Pass)
//Storyboard Layer 3 (Foreground)
//Storyboard Sound Samples
//Background Colour Transformations
3,100,163,162,255

[TimingPoints]
277,300,4,1,0,80,1,0
12202,-200,4,1,0,80,0,0
15839,-100,4,1,0,80,0,0
26639,-100,4,2,0,100,0,0
36239,-100,4,1,0,80,0,0
91402,-100,4,1,0,5,0,0
98639,-100,4,2,0,100,0,0
108239,-100,4,1,0,80,0,0
137077,-100,4,1,0,80,0,1
161077,-100,4,1,0,80,0,0

[Colours]
Combo1 : 227,62,66
Combo2 : 57,140,172
Combo3 : 74,55,166

[HitObjects]
144,88,12277,2,0,B|144:176,1,74.9999999999999,2|2
240,88,13477,2,0,B|336:88,1,74.9999999999999,2|2
240,192,14677,2,0,B|240:272,1,74.9999999999999,2|2
448,120,15877,5,2
256,64,16477,1,2
64,120,17077,1,0
256,192,17152,12,0,19477
112,72,26677,5,0
64,160,26977,1,0
160,152,27277,2,0,B|240:144|272:72,1,99.9999999999999,8|0
320,40,27877,1,0
368,128,28177,2,0,B|448:128,2,50,0|0|8
288,192,28777,1,0
328,280,29077,6,0,B|232:328|112:264,1,200,0|8
72,200,29977,1,0
96,104,30277,5,0
184,64,30577,1,0
272,104,30877,1,8
256,304,31477,5,0
208,216,31777,2,0,B|256:184|344:232,1,99.9999999999999,0|8
104,240,32677,5,0
56,328,32977,2,0,B|104:360|192:312,1,99.9999999999999,0|8
96,136,33877,5,0
256,16,34477,1,8
416,136,35077,5,8
384,232,35377,1,8
312,160,35677,1,8
240,232,35977,1,8
240,232,36127,1,8
240,232,36277,6,0,B|192:200|200:136,1,99.9999999999999,0|8
120,80,36877,2,0,B|104:136|32:144,1,99.9999999999999,0|8
40,240,37477,1,0
120,296,37777,1,8
216,320,38077,1,0
312,312,38377,1,8
368,232,38677,6,0,B|368:120,1,99.9999999999999,0|8
304,56,39277,2,0,B|272:112|192:96,1,99.9999999999999,0|8
136,48,39877,1,0
136,48,40027,1,0
64,112,40327,2,0,B|48:192|128:248,1,150,0|8
216,232,41077,5,0
248,328,41377,2,0,B|200:368|144:352,2,99.9999999999999,8|0|8
320,256,42277,1,0
376,176,42577,2,0,B|424:136|480:152,2,99.9999999999999,8|0|8
280,176,43477,6,0,B|264:112|312:72,1,99.9999999999999,0|8
216,32,44077,2,0,B|200:96|144:104,1,99.9999999999999,0|8
56,132,44677,1,0
136,196,44977,1,8
116,292,45277,2,0,B|76:336,2,50,0|0|8
216,300,45877,6,0,B|312:228|424:240,1,200
348,152,46777,1,8
392,64,47077,2,0,B|336:48|280:72,2,99.9999999999999,0|8|0
348,152,47977,1,8
248,168,48277,1,0
172,104,48577,1,8
172,104,48727,2,0,B|136:184|168:264,1,150,0|8
260,268,49477,6,0,B|372:268,2,99.9999999999999,0|8|0
160,280,50377,1,0
109,366,50677,2,0,B|50:322|60:228,1,150
59,231,51277,1,0
64,131,51577,1,8
64,131,51877,2,0,B|151:191|258:168,1,200,0|0
315,89,52777,1,8
406,128,53077,6,0,B|413:191|463:233,1,99.9999999999999,0|8
482,252,53527,2,0,B|428:273|391:323,1,99.9999999999999
310,350,54127,1,0
339,254,54427,2,0,B|281:249|239:281,1,99.9999999999999
202,305,54877,1,0
152,218,55177,1,8
52,224,55477,6,0,B|38:177|68:120,1,99.9999999999999,0|8
124,47,56077,1,0
192,120,56377,1,8
192,120,56677,2,0,B|320:120,2,99.9999999999999,0|8|0
192,224,57577,1,8
288,224,57877,6,0,B|392:224,1,99.9999999999999,0|8
388,224,58327,1,0
300,344,58777,1,8
200,352,59077,2,0,B|144:336|136:272,1,99.9999999999999,0|8
137,280,59527,2,0,B|137:196|45:152,1,150,0|8
136,104,60277,6,0,B|168:64|224:40|280:64|320:136,1,200
216,160,61177,1,8
136,216,61477,2,0,B|168:256|224:280|280:256|320:184,1,200
368,128,62377,1,8
424,208,62677,6,0,B|440:264|488:288,2,99.9999999999999,0|8|0
368,128,63577,1,8
368,128,63727,2,0,B|328:96|264:96,1,99.9999999999999
224,96,64177,1,8
128,96,64477,1,0
88,256,65077,6,0,B|152:272|192:240,1,99.9999999999999,0|8
144,152,65677,2,0,B|96:152,2,50,0|0|8
240,152,66277,2,0,B|320:160|352:224,1,99.9999999999999,0|8
416,240,66877,2,0,B|392:288,2,50,0|0|8
464,152,67477,6,0,B|464:88|408:64,1,99.9999999999999,0|8
320,56,68077,2,0,B|272:48|216:56,1,99.9999999999999,0|8
120,64,68677,5,0
48,136,68977,1,8
48,136,69127,2,0,B|56:200|120:216,1,99.9999999999999
152,216,69577,2,0,B|288:216,2,99.9999999999999,8|0|8
136,312,70477,6,0,B|72:312,2,50,0|0|8
232,312,71077,2,0,B|360:312,1,99.9999999999999,0|8
416,264,71677,1,0
480,192,71977,1,8
384,160,72277,6,0,B|328:136|320:64,1,99.9999999999999,0|8
304,40,72727,2,0,B|208:24|136:64,1,150,0|8
112,72,73327,1,0
72,160,73627,2,0,B|48:208,1,50,0|8
112,288,74077,1,0
208,256,74377,1,8
288,192,74677,5,0
296,96,74977,2,0,B|328:64|400:64|432:120|400:184,1,200,8|8
352,272,75877,1,0
256,304,76177,2,0,B|224:336|152:336|120:280|152:216,1,200,8|8
200,128,77077,6,0,B|240:32,1,99.9999999999999,0|8
312,104,77677,2,0,B|400:40,1,99.9999999999999,0|8
424,144,78277,2,0,B|536:144,2,99.9999999999999,0|8|0
336,192,79177,1,8
256,256,79477,5,0
256,160,79777,2,0,B|256:48,1,99.9999999999999,8|0
160,96,80377,1,8
64,56,80677,5,0
56,152,80977,2,0,B|80:208|160:216,1,99.9999999999999,8|0
232,208,81577,1,8
328,240,81877,6,0,B|392:224|400:152,1,99.9999999999999,0|8
408,128,82327,2,0,B|368:56|248:48,1,150,0|8
232,48,82927,1,0
136,64,83227,1,0
136,64,83377,1,8
152,160,83677,1,0
56,192,83977,1,8
256,192,84277,12,4,86677
112,192,87277,5,0
192,128,87577,1,8
224,224,87877,1,4
320,104,88327,1,0
408,224,88777,1,8
408,224,89077,1,4
256,192,89152,12,0,91477
144,80,98677,5,0
104,176,98977,1,0
104,176,99277,2,0,B|144:216|208:192,1,99.9999999999999,8|0
256,112,99877,2,0,B|256:32,2,50
296,208,100477,2,0,B|360:256|432:248,2,99.9999999999999,8|0|0
328,112,101377,5,0
416,168,101677,1,8
424,72,101977,1,0
336,24,102277,1,0
336,24,102427,2,0,B|280:8|224:32,1,99.9999999999999
104,96,103177,5,0
64,192,103477,1,0
160,192,103777,2,0,B|160:304,2,99.9999999999999,0|8|0
224,112,104677,1,0
320,104,104977,2,0,B|368:88|384:16,2,99.9999999999999,0|8|0
280,192,105877,5,0
352,264,106177,1,0
448,264,106477,1,8
512,192,106777,1,0
444,116,107077,5,8
444,116,107227,1,8
356,68,107527,2,0,B|284:44|188:84,1,150
136,144,108277,6,0,B|80:176|96:248,1,99.9999999999999,0|8
192,224,108877,2,0,B|248:200|232:128,1,99.9999999999999,0|8
232,40,109477,5,0
332,48,109777,1,8
392,128,110077,1,0
352,220,110377,1,8
256,248,110677,6,0,B|128:248,1,99.9999999999999,0|8
72,192,111277,1,0
40,96,111577,1,8
80,72,111727,1,0
128,48,111877,2,0,B|240:48,2,99.9999999999999,0|8|0
152,144,112777,1,8
248,176,113077,5,0
344,168,113377,2,0,B|344:224|296:264,2,99.9999999999999,8|0|8
296,80,114277,1,0
392,80,114577,2,0,B|456:80|496:16,2,99.9999999999999,8|0|8
296,80,115477,5,0
200,64,115777,2,0,B|208:16,2,50,8|0|0
104,104,116377,2,0,B|56:48,2,50,8|0|0
176,176,116977,1,8
248,240,117277,1,0
336,192,117577,5,8
336,192,117727,1,0
336,192,117877,2,0,B|328:128|376:64,1,99.9999999999999,0|8
448,128,118477,2,0,B|448:240,1,99.9999999999999,0|8
448,280,118927,1,0
408,312,119077,6,0,B|352:344|296:320,2,99.9999999999999,0|8|0
344,232,119977,1,8
248,248,120277,2,0,B|208:296|120:312,1,99.9999999999999,0|8
160,200,120877,2,0,B|96:112,1,99.9999999999999,0|8
144,24,121477,5,0
216,96,121777,1,8
216,96,121927,2,0,B|288:128|352:104,1,99.9999999999999
360,104,122377,1,8
408,192,122677,6,0,B|392:240|320:248,1,99.9999999999999,0|8
232,248,123277,1,0
136,248,123577,1,8
56,184,123877,2,0,B|32:128|48:64,2,99.9999999999999,0|8|0
144,144,124777,1,8
200,64,125077,6,0,B|272:144|376:128,1,150
416,72,125827,1,0
464,160,126127,1,0
464,160,126277,2,0,B|448:224|400:240,1,99.9999999999999,0|8
304,248,126877,2,0,B|192:248,2,99.9999999999999,0|8|0
256,160,127777,5,8
256,64,128077,1,0
168,112,128377,2,0,B|104:112|80:160,1,99.9999999999999,8|0
48,248,128977,1,8
48,248,129277,1,0
128,304,129577,1,8
176,216,129877,5,0
264,168,130177,1,8
264,168,130327,2,0,B|312:208|304:264,1,99.9999999999999
392,208,130927,1,0
392,208,131077,2,0,B|360:168|376:96,2,99.9999999999999,0|8|0
376,304,131977,1,8
280,320,132277,6,0,B|176:296|152:176,1,200,0|0
232,120,133177,1,0
312,64,133477,2,0,B|288:16|232:-8|176:16|144:64,1,200,0|0
88,136,134377,1,8
56,232,134677,5,0
144,272,134977,1,8
144,272,135127,1,0
232,232,135427,1,0
328,232,135727,1,0
400,160,136027,5,8
400,160,136177,1,8
328,88,136477,1,0
232,88,136777,2,0,B|152:88|112:136,1,99.9999999999999,8|4
64,184,137377,5,8
160,216,137677,2,0,B|200:176,2,50,0|0|8
80,280,138277,2,0,B|160:336|296:296,1,200
336,224,139177,1,8
432,184,139477,5,0
352,120,139777,1,8
256,88,140077,1,0
160,120,140377,1,8
80,184,140677,1,0
128,272,140977,5,8
128,272,141127,2,0,B|184:232|240:248,1,99.9999999999999
272,264,141577,2,0,B|352:280|400:232,1,99.9999999999999,8|0
448,184,142177,5,8
392,104,142477,1,0
360,64,142627,1,0
328,24,142777,1,8
240,72,143077,5,0
144,48,143377,2,0,B|96:80|88:144,1,99.9999999999999,8|0
80,176,143827,1,0
96,224,143977,2,0,B|120:280|192:304,1,99.9999999999999,8|0
248,232,144577,1,8
248,232,144727,1,0
448,192,145327,6,0,B|424:136|344:96,1,99.9999999999999
336,96,145777,1,8
240,96,146077,1,0
144,96,146377,1,8
240,96,146677,6,0,B|240:216,1,99.9999999999999,0|8
144,216,147277,2,0,B|128:192|96:184,2,50,0|0|8
216,288,147877,6,0,B|264:328|336:312,1,99.9999999999999,0|8
400,264,148477,2,0,B|408:288|440:312,2,50,0|0|8
320,200,149077,6,0,B|304:136|328:80,1,99.9999999999999,0|8
232,48,149677,2,0,B|240:104|216:152,1,99.9999999999999,0|8
144,80,150277,1,0
64,136,150577,5,8
64,136,150727,2,0,B|64:192|96:232,1,99.9999999999999
136,264,151177,2,0,B|192:288|264:280,1,99.9999999999999,8|0
256,184,151777,5,8
352,184,152077,2,0,B|352:240,2,50,0|0|8
304,96,152677,1,0
392,48,152977,2,0,B|448:72|480:144,1,99.9999999999999,8|0
472,216,153577,1,8
440,312,153877,6,0,B|384:344|312:336,1,99.9999999999999,0|8
248,312,154477,2,0,B|192:288|168:224,1,99.9999999999999,0|8
144,152,155077,2,0,B|128:88|152:48,2,99.9999999999999,0|8|0
192,152,155827,1,0
240,152,155977,1,8
256,192,156277,12,4,161077
