osu file format v9

[General]
AudioFilename: EXIT TRANCE - Track 18 - .mp3
AudioLeadIn: 0
PreviewTime: 36197
Countdown: 0
SampleSet: Soft
StackLeniency: 0.7
Mode: 0
LetterboxInBreaks: 0

[Editor]
DistanceSpacing: 1
BeatDivisor: 1
GridSize: 8

[Metadata]
Title:Chousai Kenbo Sengen
Artist:Hommarju feat. R.Cena
Creator:galvenize
Version:Easy
Source:Kyouran Kazoku Nikki
Tags:EXIT TRANCE

[Difficulty]
HPDrainRate:1
CircleSize:3
OverallDifficulty:1
ApproachRate:3
SliderMultiplier:0.599999999999999
SliderTickRate:0.5

[Events]
//Background and Video events
0,0,"kyou.jpg"
//Break Periods
2,19677,25237
2,91677,97237
//Storyboard Layer 0 (Background)
//Storyboard Layer 1 (Fail)
//Storyboard Layer 2 (Pass)
//Storyboard Layer 3 (Foreground)
//Storyboard Sound Samples
//Background Colour Transformations
3,100,163,162,255

[TimingPoints]
277,300,4,1,0,80,1,0
12202,-200,4,1,0,80,0,0
16514,-100,4,1,0,80,0,0
26639,-100,4,2,0,100,0,0
36239,-100,4,1,0,80,0,0
98639,-100,4,2,0,100,0,0
108239,-100,4,1,0,80,0,0
137077,-100,4,1,0,80,0,1
161077,-100,4,1,0,80,0,0

[Colours]
Combo1 : 227,62,66
Combo2 : 57,140,172
Combo3 : 74,55,166

[HitObjects]
172,80,12277,1,2
256,168,13477,1,2
340,80,14677,1,2
256,168,15877,2,0,B|256:232,1,59.9999999999999,0|0
256,192,17077,12,0,19477
104,72,26677,6,0,B|128:136|192:176,1,120,0|8
208,280,27877,2,0,B|256:200|312:192,1,120,0|8
408,232,29077,5,0
300,284,29677,1,8
180,276,30277,2,0,B|128:232|152:152,1,120,0|8
228,80,31477,5,0
440,192,32677,1,0
256,348,33877,5,0
164,268,34477,1,8
116,160,35077,2,0,B|88:192|32:180,2,59.9999999999999,0|0|8
200,72,36277,5,0
256,176,36877,1,8
312,72,37477,2,0,B|456:72,2,120,0|8|0
192,72,39277,1,8
72,72,39877,6,0,B|72:136,2,59.9999999999999,0|0|8
152,160,41077,6,0,B|320:160,1,120,0|8
360,240,42277,2,0,B|232:240,1,120,0|8
120,240,43477,5,0
232,192,44077,1,8
336,248,44677,2,0,B|424:248,2,59.9999999999999,0|0|8
200,56,45877,6,0,B|264:56|320:144|264:224|184:224,1,240
96,264,47677,1,8
192,336,48277,6,0,B|320:336,1,120,0|8
424,296,49477,2,0,B|360:272|360:192,1,120,0|8
440,112,50677,6,0,B|440:48|352:0|272:48|272:128,1,240
256,224,52477,1,8
256,344,53077,5,0
168,256,53677,1,8
168,136,54277,2,0,B|296:136,1,120,0|8
368,48,55477,6,0,B|432:48|480:136|432:216|352:216,1,240,4|0
248,216,57277,1,8
240,96,57877,2,0,B|160:112|128:184,1,120,0|8
144,280,59077,2,0,B|170:334|242:342,1,120,0|8
352,296,60277,6,4,B|395:337|496:320|507:212|460:169,1,240,4|0
384,96,62077,1,8
256,192,62677,12,0,65077
96,88,66277,5,0
216,304,67477,5,0
256,192,68077,1,8
320,88,68677,1,0
200,88,69277,1,8
104,160,69877,6,0,B|136:232|200:240,1,120,0|8
288,176,71077,2,0,B|360:168|416:232,1,120,0|8
368,328,72277,5,0
256,288,72877,1,8
144,328,73477,1,0
112,216,74077,6,0,B|24:216,2,59.9999999999999,8|0|2
184,120,75277,2,0,B|184:40,2,59.9999999999999,8|0|2
296,168,76477,2,8,B|376:168,2,59.9999999999999,8|0|2
200,240,77677,5,8
256,344,78277,1,0
312,240,78877,1,8
424,208,79477,6,0,B|432:136|352:72,1,120,0|8
264,80,80677,2,0,B|240:144|152:144,1,120,0|8
48,192,81877,1,0
128,280,82477,1,8
248,280,83077,6,0,B|256:168|344:144,1,180
256,192,84277,12,4,86677
256,112,87877,6,0,B|256:208,2,89.9999999999999,2|2|2
256,192,89077,12,4,91477
152,120,98677,5,0
256,184,99277,1,8
360,120,99877,1,0
256,64,100477,6,0,B|256:184,1,120,8|0
256,304,101677,1,8
192,200,102277,2,0,B|256:176|320:200,1,120,0|8
432,192,103477,6,0,B|424:120|360:80,1,120,0|8
256,56,104677,2,0,B|176:56|136:120,1,120,0|8
128,224,105877,5,0
208,312,106477,1,8
248,200,107077,2,0,B|280:168|280:120,2,59.9999999999999,0|0|8
336,280,108277,5,0
416,192,108877,1,8
336,104,109477,1,0
256,192,110077,1,8
176,104,110677,5,0
88,192,111277,1,8
120,304,111877,2,0,B|184:336|256:304,1,120,0|8
336,248,113077,5,0
256,24,114277,1,0
64,168,115477,5,0
176,200,116077,1,8
296,168,116677,2,0,B|408:168,2,59.9999999999999,0|0|8
352,272,117877,6,0,B|288:320|200:280,1,120,0|8
120,280,119077,2,0,B|64:224|136:136,1,120,0|8
184,72,120277,5,0
288,136,120877,1,8
392,72,121477,1,0
416,192,122077,1,8
312,256,122677,6,0,B|256:296|168:272|152:176|232:128,2,240
336,136,125677,1,8
256,48,126277,1,0
136,48,126877,1,8
72,152,127477,6,0,B|144:272,1,120,0|8
256,240,128677,2,0,B|192:128,1,120,0|8
256,32,129877,5,0
344,112,130477,1,8
464,112,131077,1,0
408,216,131677,1,8
296,264,132277,6,0,B|200:288|144:248,1,120
168,144,133477,2,0,B|176:112|232:88|272:112|288:160,1,120,0|8
368,192,134677,5,0
432,88,135277,1,8
320,128,135877,1,0
256,232,136477,1,8
192,128,137077,6,0,B|64:128,1,120,0|8
80,248,138277,2,0,B|208:248,1,120,0|8
256,144,139477,5,0
368,192,140077,1,8
256,232,140677,1,0
144,192,141277,1,8
48,264,141877,6,0,B|80:312|160:304,1,120,0|8
256,232,143077,2,0,B|392:232,1,120,0|8
488,192,144277,5,0
432,88,144877,1,8
376,192,145477,1,0
312,88,146077,1,8
256,192,146677,6,0,B|136:192,1,120,0|8
56,104,147877,2,0,B|184:104,1,120,0|8
288,64,149077,5,0
400,96,149677,1,8
288,136,150277,1,0
400,168,150877,1,8
288,208,151477,6,0,B|216:224|208:296,1,120,0|8
328,312,152677,2,0,B|448:312,1,120,0|8
440,192,153877,5,0
320,192,154477,1,8
200,192,155077,1,0
80,192,155677,1,8
256,192,156277,12,4,161077
