osu file format v7

[General]
AudioFilename: 13 Honjitsu, Mankai Watashi iro!.mp3
AudioLeadIn: 0
PreviewTime: 47973
Countdown: 0
SampleSet: Soft
StackLeniency: 0.4
Mode: 0
LetterboxInBreaks: 1

[Editor]
DistanceSpacing: 1.29999995231628
BeatDivisor: 4
GridSize: 8

[Metadata]
Title:Honjitsu, Mankai Watashi iro!
Artist:Hommarju feat. MAKI
Creator:simplistiC
Version:Insane2
Source:Hayate no Gotoku!!
Tags:MarioBros777 DJPop ignorethis taka1235 exit trance

[Difficulty]
HPDrainRate:7
CircleSize:4
OverallDifficulty:8
SliderMultiplier:1.6
SliderTickRate:1

[Events]
//Background and Video events
0,0,"wall737.jpg"
//Break Periods
2,72323,82040
//Storyboard Layer 0 (Background)
//Storyboard Layer 1 (Fail)
//Storyboard Layer 2 (Pass)
//Storyboard Layer 3 (Foreground)
//Storyboard Sound Samples
//Background Colour Transformations
3,100,255,128,192

[TimingPoints]
124,333.333333333333,4,2,0,100,1,0
47790,-100,4,1,0,100,0,0
48123,-100,4,1,0,100,0,1
72123,-100,4,1,0,100,0,0
93373,-100,4,2,0,100,0,0
127123,-100,4,1,0,100,0,1
150973,-100,4,2,0,100,0,0

[Colours]
Combo1 : 148,79,144
Combo2 : 231,150,157
Combo3 : 213,38,35

[HitObjects]
256,192,9457,12,0,10790
256,56,11123,5,0
256,56,11457,2,0,L|256:176,2,120
168,120,12123,1,0
256,176,12290,1,0
344,120,12457,1,0
432,176,12623,2,0,B|432:352,1,160
344,272,13123,1,0
256,336,13290,1,0
168,272,13457,6,0,B|168:176,1,80,0|0
344,112,13790,6,0,B|344:208,1,80,0|0
256,248,14123,1,0
256,136,14290,1,0
256,136,14623,2,0,B|184:71|112:136,1,160
152,232,15123,1,0
256,248,15290,1,0
160,345,15457,2,0,B|232:409|303:346,1,160
256,248,15957,1,0
256,136,16123,6,0,B|344:136,1,80
112,136,16457,5,0
112,136,16790,1,0
184,56,16957,2,0,B|272:56,1,80
256,136,17290,2,0,B|336:136,1,80
184,216,17623,2,0,B|104:216,1,80
112,136,17957,2,0,B|16:136,1,80
184,56,18290,2,0,B|296:56|296:144|408:144,3,240
400,240,19957,5,0
328,320,20123,1,0
256,240,20290,2,0,B|312:168,1,80
184,160,20623,2,0,B|184:64,1,80
112,240,20957,2,0,B|56:168,2,80
184,160,21457,1,0
184,160,21790,6,0,B|216:64|320:88,1,160
400,144,22290,1,0
312,208,22457,1,0
219,266,22624,2,0,B|127:287|95:191,1,160
96,88,23123,1,0
184,160,23290,1,0
216,160,23373,1,0
248,160,23457,2,0,B|424:160,1,160
408,160,23957,1,0
328,232,24123,6,0,B|328:280,2,40
256,312,24457,2,0,B|184:312|184:256|104:256,1,160
0,256,24957,1,0
56,168,25123,1,0
168,168,25290,1,0
200,168,25373,1,0
232,168,25457,1,0
264,168,25540,1,0
296,168,25623,1,0
376,96,25790,2,0,B|440:168|377:239,1,160
296,168,26290,2,0,B|384:168,2,80
264,168,26707,1,0
232,168,26790,1,0
200,168,26873,1,0
168,168,26957,1,0
256,264,27123,6,0,B|432:264,1,160
400,160,27623,1,0
496,208,27790,1,0
496,320,27957,1,0
400,368,28123,1,0
288,368,28290,2,0,B|200:368,1,80
256,264,28623,2,0,B|192:208,1,80
120,136,28957,2,0,B|176:72,2,80
304,192,29457,5,0
392,136,29623,1,0
480,192,29790,2,0,B|480:288|392:336,1,160
320,272,30290,1,0
160,352,30457,2,0,B|160:256|248:208,2,160
352,32,31457,5,0
160,32,31790,1,0
256,272,32123,2,0,B|256:112,1,160
256,272,32623,5,0
320,192,32790,1,0
192,192,32957,2,0,B|152:208|112:192,1,80
152,96,33290,2,0,B|232:96|232:128|312:128,1,160
381,54,33790,1,0
456,128,33957,2,0,B|456:216,1,80
352,328,34290,2,0,B|414:265,1,80
376,200,34623,1,0
128,192,34790,5,0
192,192,35457,1,0
256,192,36123,6,0,B|432:192,1,160
336,120,36623,2,0,B|232:120,1,80
336,264,36957,2,0,B|440:264,1,80
256,192,37290,1,0
256,120,37457,6,0,B|184:176,1,80
16,216,37790,2,0,B|96:160,1,80
136,320,38123,2,0,B|136:232,1,80
136,16,38457,2,0,B|136:104,1,80
256,120,38790,6,0,B|328:176,1,80
496,216,39123,2,0,B|416:160,1,80
376,320,39456,2,0,B|376:232,1,80
376,16,39790,2,0,B|376:104,1,80
376,128,40040,1,0
376,160,40123,5,0
280,112,40290,1,0
184,160,40457,1,0
280,208,40623,1,0
280,160,40790,5,0
184,112,40957,1,0
88,160,41124,1,0
184,208,41290,1,0
184,208,41373,1,0
184,208,41457,5,0
192,312,41623,1,0
200,344,41707,1,0
224,368,41790,1,0
320,328,41957,1,0
312,296,42041,1,0
288,272,42124,1,0
256,192,42290,1,0
200,104,42457,1,0
200,104,42540,1,0
312,104,42707,1,0
312,104,42790,5,0
256,192,42957,1,0
344,248,43123,1,0
400,160,43290,1,0
256,192,43457,5,0
200,104,43624,1,0
112,160,43790,1,0
168,248,43957,1,0
168,248,44040,1,0
168,248,44123,5,0
256,312,44290,1,0
288,328,44373,1,0
320,336,44457,1,0
408,272,44624,1,0
376,256,44707,1,0
344,248,44791,1,0
256,192,44957,1,0
208,104,45123,2,0,B|176:136,1,40
304,104,45373,1,0
336,104,45457,5,0
368,112,45540,1,0
392,128,45623,1,0
416,144,45707,1,0
432,168,45790,1,0
440,200,45873,1,0
440,232,45957,1,0
432,264,46040,1,0
416,288,46123,1,0
392,304,46207,1,0
360,312,46290,1,0
328,320,46373,1,0
296,320,46457,1,0
264,312,46540,1,0
232,304,46623,1,0
208,288,46707,1,0
256,192,46790,12,0,47790
184,64,47957,6,0,B|128:128,2,80
328,64,48457,2,0,B|384:0,1,80
256,136,48790,2,0,B|256:240,1,80
352,160,49123,2,0,B|416:216,1,80
344,296,49457,1,0
344,296,49540,1,0
344,296,49623,2,0,B|248:296,2,80
128,192,50123,5,0
256,136,50290,1,0
384,192,50457,1,0
256,248,50623,6,0,B|176:248|176:320|96:320,1,160
40,248,51123,1,0
40,136,51290,1,0
128,192,51457,1,0
160,192,51540,1,0
192,192,51623,2,0,B|280:192,1,80
352,264,51957,2,0,B|417:192|352:120,1,160
272,192,52457,2,0,B|192:192,1,80
416,192,52790,5,0
96,192,52957,1,0
256,32,53123,1,0
256,352,53290,6,0,B|256:184,1,160
144,56,53790,2,0,B|208:120,1,80
312,112,54123,1,0
312,112,54290,5,0
200,272,54457,1,0
256,192,54623,6,0,B|432:192,1,160
488,120,55123,1,0
416,192,55290,1,0
488,264,55457,1,0
336,192,55623,5,0
176,192,55790,1,0
256,192,55957,5,0
256,104,56123,2,0,B|184:48,1,80
32,104,56457,2,0,B|104:48,1,80
144,208,56790,2,0,B|144:104,2,80
72,288,57290,2,0,B|144:353|216:288,1,160
256,192,57790,1,0
336,128,57957,1,0
336,256,58123,1,0
416,192,58290,1,0
416,192,58457,1,0
96,192,58623,5,0
136,96,58790,2,0,B|208:144,1,80
136,288,59123,2,0,B|208:240,1,80
296,192,59457,1,0
328,192,59540,1,0
360,192,59623,2,0,B|448:192,1,80
392,96,59957,2,0,B|224:96,1,160
144,40,60457,1,0
56,96,60623,1,0
56,288,60790,5,0
256,192,60957,1,0
456,288,61123,1,0
256,192,61290,5,0
336,256,61457,1,0
400,176,61623,1,0
320,112,61790,1,0
256,192,61957,1,0
256,192,62123,2,0,B|344:216,1,80
176,256,62456,2,0,B|152:344,1,80
112,176,62789,2,0,B|24:152,1,80
192,112,63123,2,0,B|216:24,1,80
298,34,63457,2,0,B|320:112,1,80
256,192,63790,1,0
256,296,63957,2,0,B|256:384,2,80
168,152,64457,6,0,B|176:208|256:264|336:208|344:152,1,240
256,104,65123,5,0
343,155,65290,2,0,B|336:208|256:264|176:208|168:152,1,240
256,104,65957,1,0
256,104,66123,2,0,B|256:272,1,160
256,264,66623,1,0
72,192,66790,6,0,B|152:256,1,80
240,152,67123,2,0,B|144:152,1,80
72,112,67457,2,0,B|152:48,1,80
160,152,67790,2,0,B|344:152,1,160
424,152,68290,1,0
352,232,68457,6,0,B|232:232,1,80
160,152,68790,2,0,B|280:152,1,80
128,72,69123,2,0,B|48:72,1,80
208,72,69457,6,0,B|384:72,1,160
440,152,69957,2,0,B|264:152,1,160
208,312,70457,1,0
208,200,70623,1,0
120,256,70790,6,0,B|120:184|192:184|192:112,1,160
320,120,71290,2,0,B|319:185|391:185|391:257,1,160
312,328,71790,1,0
200,328,71957,1,0
256,240,72123,1,0
256,40,82790,5,0
168,104,82957,1,0
80,168,83123,1,0
80,168,83457,2,0,B|80:264,1,80
168,104,83790,2,0,B|168:200,1,80
256,40,84123,2,0,B|256:208,2,160
344,104,84957,5,0
344,280,85123,1,0
40,192,85457,5,0
256,40,85790,1,0
472,192,86123,1,0
256,344,86456,1,0
328,192,86790,6,0,B|328:288,1,80
256,120,87123,2,0,B|256:32,1,80
256,120,87457,2,0,B|352:120,1,80
184,192,87790,2,0,B|96:192,1,80
256,344,88123,5,0
344,280,88290,1,0
432,216,88456,1,0
432,216,88623,1,0
432,216,88790,2,0,B|432:120,1,80
344,280,89123,2,0,B|344:184,1,80
256,344,89456,2,0,B|256:176,2,160
168,280,90290,5,0
168,104,90456,1,0
472,192,90790,5,0
256,344,91123,1,0
40,192,91456,1,0
256,40,91789,1,0
184,192,92123,6,0,B|184:96,1,80
256,264,92456,2,0,B|256:352,1,80
256,264,92790,2,0,B|160:264,1,80
328,192,93123,2,0,B|416:192,1,80
256,192,93457,5,0
