osu file format v7

[General]
AudioFilename: 14 masterpiece.mp3
AudioLeadIn: 0
PreviewTime: 179619
Countdown: 0
SampleSet: Normal
StackLeniency: 0.4
Mode: 0
LetterboxInBreaks: 1

[Editor]
DistanceSpacing: 1.39999997615814
BeatDivisor: 4
GridSize: 8

[Metadata]
Title:masterpiece
Artist:Hommarju feat. Latte
Creator:simplistiC
Version:Normal
Source:To Aru Majutsu no Index
Tags:ignorethis exit trance presents speed anime best 7

[Difficulty]
HPDrainRate:3
CircleSize:3
OverallDifficulty:5
SliderMultiplier:1.2
SliderTickRate:0.5

[Events]
//Background and Video events
0,0,"untitled3.jpg"
//Break Periods
2,22645,32245
2,58979,68746
2,99979,110912
//Storyboard Layer 0 (Background)
//Storyboard Layer 1 (Fail)
//Storyboard Layer 2 (Pass)
//Storyboard Layer 3 (Foreground)
//Storyboard Sound Samples
//Background Colour Transformations
3,100,255,255,255

[TimingPoints]
1446,333.333333333333,4,1,1,100,1,0
22445,-100,4,2,1,100,0,0
58789,-100,4,2,1,100,0,0
111945,-100,4,2,1,100,0,0
113445,-100,4,2,1,100,0,1
137445,-100,4,2,1,100,0,0

[Colours]
Combo1 : 87,147,81
Combo2 : 42,48,80
Combo3 : 255,77,5
Combo4 : 113,205,255
Combo5 : 242,178,212

[HitObjects]
80,272,11612,1,8
80,112,11946,1,0
112,192,12112,2,0,B|264:192,1,120,2|2
480,192,12946,6,0,B|480:120|408:104,1,120
400,184,13446,2,0,B|336:168|328:96,1,120,8|0
312,16,13946,2,0,B|248:40|248:112,1,120
168,128,14446,2,0,B|200:200|296:192,2,120,8|0|8
248,104,15279,1,0
360,216,15612,1,0
432,272,15779,1,8
432,272,16112,2,0,B|432:144,2,120,2|8|2
432,272,16946,5,0
432,112,17279,1,0
400,192,17446,2,0,B|248:192,1,120,2|2
32,192,18279,6,0,B|32:120|104:104,1,120
112,184,18779,2,0,B|176:168|184:96,1,120,8|0
200,16,19279,2,0,B|264:40|264:112,1,120
344,128,19779,2,0,B|312:200|216:192,2,120,8|0|8
264,104,20612,1,0
152,216,20945,1,0
80,272,21112,1,8
256,192,21445,12,0,22445
256,192,33445,12,0,34779
168,232,35612,5,0
104,288,35779,2,0,B|64:240|96:176,1,90
256,152,36445,1,0
344,232,36779,1,8
344,232,36945,2,0,B|392:168|352:72,2,150,0|0|8
256,88,38112,1,0
256,88,38279,2,0,B|256:248,2,150,0|0|8
256,296,39446,1,0
320,296,39612,2,0,B|456:296,4,120,0|0|0|0|0
256,296,41112,1,8
192,296,41279,2,0,B|64:296,1,120
64,232,41779,5,0
64,232,42112,2,0,B|40:176|80:120,2,90,8|0|0
304,144,43112,1,8
304,144,43446,2,0,B|336:192|296:232,2,90
256,40,45279,5,2
256,192,45612,1,0
256,344,45946,1,2
256,192,46279,2,0,B|344:192,2,60,0|2|0
8,192,47112,5,0
176,192,47446,1,8
256,192,47612,2,0,B|304:128|264:32,2,150,0|0|8
424,192,48779,1,0
424,192,48946,2,0,B|424:352,2,150,0|0|8
256,296,50112,1,0
192,296,50279,2,0,B|56:296,4,120,0|0|0|0|0
256,296,51779,1,8
320,296,51946,2,0,B|448:296,1,120
456,240,52446,5,0
456,240,52779,2,0,B|480:184|440:128,2,90,8|0|0
208,240,53779,1,8
208,240,54112,2,0,B|176:192|216:152,2,90
256,40,55946,5,2
256,192,56279,1,0
256,344,56612,1,2
256,192,56946,2,0,B|344:192,1,60,0|2
256,192,57446,12,0,58779
120,240,69946,5,4
48,288,70112,1,0
120,336,70279,1,0
192,288,70446,1,0
120,240,70612,2,0,B|120:96|280:96,2,240,2|2|2
120,240,72112,5,0
256,144,72446,1,0
392,240,72779,1,0
256,336,73112,1,0
120,240,73446,1,0
256,144,73779,1,0
392,240,74112,1,0
256,336,74446,1,0
120,240,74779,1,0
392,240,75279,5,0
464,288,75446,1,0
392,336,75612,1,0
320,288,75779,1,0
392,240,75946,2,0,B|392:96|232:96,2,240
296,192,77446,6,2,B|296:336|136:336,1,240
88,272,78279,5,0
88,192,78446,2,0,B|88:120|168:120,1,120
344,120,79112,1,0
344,288,79445,2,0,B|200:288,1,120
56,288,80112,1,8
56,120,80445,1,8
224,120,80779,2,0,B|384:120,2,120
56,120,81779,2,0,B|152:120,1,60
216,256,82279,2,0,B|256:288|296:240,1,60
256,96,82779,2,2,B|528:96,1,240
496,184,83612,5,0
496,272,83779,1,8
328,272,84112,2,0,B|280:224,2,60,8|0|0
256,32,84945,2,0,B|168:152,1,120
104,112,85445,2,0,B|96:192|184:216,2,120
184,128,86279,2,0,B|256:128,2,60
104,112,86779,1,0
104,272,87112,2,0,B|184:272,1,60
352,272,87612,2,0,B|440:272,1,60
256,368,88112,2,0,B|256:112,1,240
232,48,88945,6,0,B|168:80|176:152,2,120
256,128,89779,1,4
256,256,90112,1,0
280,336,90279,2,0,B|344:304|336:232,2,120
256,128,91445,2,0,B|120:128,2,120
424,128,92445,2,0,B|368:80|400:8,2,120
424,296,93445,2,0,B|136:296,1,240,0|0
256,144,94445,5,4
224,64,94612,2,0,B|160:88|168:184,2,120
400,64,95612,2,0,B|464:64,2,60
312,64,96112,2,0,B|312:200,1,120
200,320,96779,2,0,B|200:184,1,120
256,192,97445,12,0,99779
176,128,112112,6,0,B|128:56,2,60,2|0|2
336,128,112779,2,0,B|384:56,2,60,2|0|2
336,256,113445,6,0,B|384:328,2,60
176,256,114112,2,0,B|128:328,2,60
256,192,114612,2,0,B|256:8,1,180
344,192,115445,2,0,B|344:256,2,60
432,192,115945,2,0,B|432:0,1,180
344,192,116779,2,0,B|344:120,1,60,4|0
168,192,117279,2,0,B|168:280|272:280,4,120
256,48,119112,5,0
256,216,119445,2,0,B|328:80,1,120,8|0
352,32,119945,2,0,B|408:72|392:144,1,120,8|0
472,176,120445,2,0,B|432:232|360:216,1,120,8|0
280,208,120945,2,0,B|280:288|360:304,1,120,8|0
368,216,121445,2,0,B|368:64,3,120,8|0|0|0
320,24,122612,2,0,B|272:72|296:136,3,120
368,96,123779,1,8
432,40,123945,1,8
464,120,124112,1,4
464,120,124445,5,0
456,296,124779,2,0,B|384:312|384:312,1,60
232,320,125279,2,0,B|144:128,1,180
240,184,125945,2,0,B|272:248,2,60,0|0|0
336,40,126612,2,0,B|384:96|336:152,1,120
272,96,127112,2,0,B|208:96,3,60
272,288,127945,2,0,B|224:232|272:176,3,120
336,232,129112,1,8
360,312,129279,1,8
272,288,129445,1,4
112,240,129779,5,0
232,120,130112,1,0
352,240,130445,1,0
232,360,130779,1,0
112,240,131112,1,0
232,120,131445,2,0,B|312:120,2,60,0|0|4
256,192,131945,12,0,133112
336,208,133445,6,0,B|344:280|448:280,1,120
424,192,133945,2,0,B|336:56,2,120
256,192,134779,12,0,137445
176,112,137779,6,0,B|104:112,2,60,2|0|2
336,112,138445,2,0,B|336:40,2,60,2|0|2
336,272,139112,2,0,B|408:272,2,60,2|0|2
176,272,139779,2,0,B|176:344,2,60,2|0|2
256,78,140445,6,0,B|256:168,2,60,2|0|2
369,192,141112,2,0,B|288:192,2,60,2|0|2
256,305,141779,2,0,B|256:200,2,60,2|0|2
142,192,142445,2,0,B|240:192,2,60,2|0|2
256,192,143112,6,0,B|256:336,1,120,8|0
376,312,143779,2,0,B|232:312,1,120,0|0
256,192,144445,2,0,B|104:192,1,120,8|0
136,72,145112,2,0,B|136:208,1,120,0|0
16,192,145779,2,0,B|16:336,1,120,8|0
136,312,146445,2,8,B|-8:312,1,120,0|0
256,280,147112,5,8
344,280,147279,1,0
432,280,147445,1,0
256,104,147779,5,0
168,104,147945,1,0
80,104,148112,1,0
344,280,148445,6,0,B|344:192,2,60,8|0|0
168,104,149112,2,0,B|168:192,2,60
256,192,149612,12,0,150779
256,72,151112,6,0,B|256:216,1,120,8|0
376,192,151779,2,8,B|232:192,1,120,0|0
256,312,152445,2,0,B|256:168,1,120,8|0
136,192,153112,1,0
256,312,153445,6,0,B|192:352|112:296,1,120,0|0
200,248,153945,2,0,B|272:208|328:256,1,120
336,328,154445,1,0
256,192,154779,12,0,156112
