osu file format v7

[General]
AudioFilename: 14 masterpiece.mp3
AudioLeadIn: 0
PreviewTime: 179619
Countdown: 0
SampleSet: Normal
StackLeniency: 0.4
Mode: 0
LetterboxInBreaks: 1

[Editor]
DistanceSpacing: 1.60000002384186
BeatDivisor: 4
GridSize: 8

[Metadata]
Title:masterpiece
Artist:Hommarju feat. Latte
Creator:simplistiC
Version:Insane
Source:To Aru Majutsu no Index
Tags:ignorethis exit trance presents speed anime best 7

[Difficulty]
HPDrainRate:6
CircleSize:4
OverallDifficulty:8
SliderMultiplier:1.8
SliderTickRate:0.5

[Events]
//Background and Video events
0,0,"untitled3.jpg"
//Break Periods
2,58979,77529
2,169646,178029
//Storyboard Layer 0 (Background)
//Storyboard Layer 1 (Fail)
//Storyboard Layer 2 (Pass)
//Storyboard Layer 3 (Foreground)
//Storyboard Sound Samples
//Background Colour Transformations
3,100,255,255,255

[TimingPoints]
1446,333.333333333333,4,1,1,100,1,0
22945,-100,4,2,1,100,0,0
78372,-100,4,1,1,100,0,0
100279,-100,4,2,1,100,0,0
111945,-100,4,2,1,70,0,0
113445,-100,4,2,1,70,0,1
134779,-100,4,2,1,60,0,0
155945,-200,4,2,1,0,0,0
158195,-100,4,1,1,51,0,0
178705,-100,4,1,1,100,0,0
180112,-100,4,1,1,100,0,1
202779,-100,4,1,1,100,0,0

[Colours]
Combo1 : 87,147,81
Combo2 : 42,48,80
Combo3 : 255,77,5
Combo4 : 113,205,255
Combo5 : 242,178,212

[HitObjects]
256,336,11612,1,0
112,192,11779,1,8
256,48,11946,1,0
400,192,12112,1,0
400,192,12196,1,0
400,192,12279,1,0
256,192,12446,2,0,B|256:312,2,90,8|0|0
256,192,12946,5,0
112,304,13112,1,0
112,80,13279,1,8
256,192,13446,2,0,B|256:96,2,90,0|0|8
400,304,13946,1,0
400,80,14112,2,0,B|439:112|399:160,1,90
112,80,14446,2,0,B|72:120|111:159,1,90,0|0
336,200,14779,2,0,B|256:280|176:200,2,180,0|8|0
96,272,15612,5,0
96,192,15779,2,0,B|0:192,1,90
8,112,16112,1,0
40,112,16196,1,0
72,112,16279,1,0
104,112,16362,1,0
136,112,16446,1,0
256,112,16612,5,0
256,272,16779,1,8
120,264,16946,5,0
328,328,17112,1,8
392,120,17279,1,0
184,56,17446,2,0,B|376:56,2,180,0|8|0
392,88,18279,1,0
360,328,18446,1,0
120,296,18612,1,0
152,56,18779,2,0,B|56:56,2,90,8|0|8
112,200,19279,1,0
256,200,19445,2,0,B|216:152|264:112,1,90,0|0
400,200,19779,2,0,B|448:240|488:192,1,90,0|8
400,120,20112,6,0,B|480:200|403:278,2,180
256,200,20945,1,0
112,200,21112,2,4,B|16:200,1,90
256,192,21445,12,2,22779
256,56,23112,5,2
144,192,23279,2,0,B|128:144|152:96,1,90
256,328,23612,1,0
368,192,23779,2,0,B|384:240|360:288,1,90,2|0
256,192,24112,1,0
176,104,24279,1,0
336,104,24445,5,0
256,192,24612,1,0
168,264,24779,2,0,B|128:312|168:376,1,90,0|0
336,104,25112,2,0,B|376:56|336:-8,1,90,0|0
256,264,25445,2,0,B|224:160|288:192|256:80,3,180
256,264,26779,5,0
360,320,26945,1,0
464,264,27112,2,0,B|488:208|448:144,1,90,2|0
360,232,27445,2,0,B|336:288|376:352,1,90
464,176,27779,2,0,B|464:88|384:80|384:16,2,180,2|0|2
256,56,28612,5,2
368,192,28779,2,0,B|384:144|360:96,1,90
256,328,29112,1,0
144,192,29279,2,0,B|128:240|152:288,1,90,2|0
256,192,29612,1,0
336,104,29779,5,0
176,104,29945,1,0
256,192,30112,1,0
344,264,30279,2,0,B|384:312|344:376,1,90,0|0
176,104,30612,2,0,B|136:56|176:-8,1,90,0|0
256,264,30945,2,0,B|288:160|224:192|256:80,3,180
256,264,32112,5,0
152,320,32279,1,0
48,264,32445,2,0,B|24:208|64:144,1,90,2|0
152,232,32779,2,0,B|176:288|136:352,1,90
256,192,33112,12,0,34445
104,192,34779,5,0
192,264,34945,1,0
192,264,35029,1,0
192,264,35112,1,0
192,120,35279,1,0
224,120,35362,1,0
256,120,35445,1,0
288,120,35529,1,0
320,120,35612,5,0
392,32,35779,1,0
464,128,35945,2,2,B|544:208|464:288,1,180
360,368,36445,2,2,B|280:288|360:208,1,180
432,208,36945,1,0
280,208,37112,1,0
168,104,37279,2,2,B|248:184|168:264,1,180,2|2
64,344,37779,2,2,B|-16:264|64:184,1,180,2|2
136,184,38279,1,0
288,184,38445,1,0
136,184,38612,6,2,B|56:104|136:24,1,180
256,112,39112,1,0
256,272,39279,1,0
376,200,39445,2,2,B|456:280|376:360,1,180
256,272,39946,2,0,B|320:208|184:176|256:112,3,180
336,192,41112,1,2
176,192,41279,1,4
256,272,41446,5,0
256,112,41612,1,0
136,112,41779,2,2,B|56:192|136:272,1,180
376,272,42279,2,2,B|456:192|376:112,1,180
336,192,42779,1,0
176,192,42946,1,0
176,312,43112,2,2,B|256:392|336:312,1,180
336,72,43612,2,2,B|256:-8|176:72,1,180
256,192,44112,12,0,45112
184,192,45279,6,0,B|96:192|96:280|0:280,2,180
328,192,46112,1,0
472,192,46279,1,0
328,192,46446,1,0
184,192,46612,2,0,B|96:192|96:104|0:104,1,180
328,192,47112,6,2,B|408:272|328:352,1,180
216,272,47612,1,0
216,112,47779,1,0
104,192,47946,2,2,B|24:112|104:32,1,180,2|2
216,112,48446,2,2,B|416:112,1,180
400,256,48946,1,0
296,360,49112,1,0
152,272,49279,6,2,B|232:192|152:112,1,180,2|2
32,192,49779,1,0
192,192,49946,1,0
360,272,50112,2,2,B|280:192|360:112,1,180,2|2
256,272,50612,2,0,B|256:80,3,180
256,92,51779,1,2
256,272,51946,1,4
176,184,52112,5,0
336,184,52279,1,0
416,80,52446,2,2,B|496:160|416:240,1,180,2|2
338,340,52946,2,2,B|258:261|336:184,1,180,2|2
256,80,53446,1,0
176,184,53612,1,0
96,80,53779,2,2,B|16:160|96:240,1,180,2|2
173,340,54279,2,2,B|253:261|176:184,1,180,2|2
256,192,54779,12,0,55779
256,192,55946,5,0
136,192,56112,2,0,B|96:232|136:272,1,90,0|0
376,192,56446,2,0,B|416:152|376:112,1,90,0|0
208,312,56779,2,0,B|248:272|208:232,1,90,0|0
304,72,57112,2,0,B|264:112|304:152,1,90,0|0
256,192,57446,12,0,58779
256,192,78279,5,0
152,296,78446,1,8
48,192,78612,1,0
152,88,78779,1,0
184,88,78862,1,0
216,88,78945,1,0
320,192,79112,2,0,B|320:288,2,90
176,192,79612,5,0
176,48,79779,1,8
320,48,79945,1,0
320,192,80112,2,0,B|320:96,2,90,0|0|8
320,336,80612,1,0
176,336,80779,2,0,L|56:336,1,90
88,192,81112,2,0,L|88:96,1,90,0|0
232,104,81445,2,0,L|440:104,2,180,8|0|8
232,248,82279,1,0
344,144,82445,2,0,B|440:144,1,90
328,248,82779,1,2
360,248,82862,1,0
392,248,82945,1,0
424,248,83029,1,0
456,248,83112,1,0
326,153,83279,5,0
186,153,83445,1,0
256,272,83612,5,0
186,232,83779,1,8
186,152,83945,1,0
256,112,84112,1,0
256,112,84195,1,0
256,112,84279,1,0
325,152,84445,2,0,B|408:104,2,90
328,232,84945,5,0
216,264,85112,1,8
184,152,85279,1,0
296,120,85445,2,0,B|392:120,2,90,0|0|8
336,40,85945,1,0
336,40,86112,2,0,L|288:24|224:56,1,90
168,40,86445,2,0,L|152:80|184:136,1,90
168,200,86779,2,0,L|80:240|-16:184,2,180
256,200,87612,1,8
256,112,87779,2,0,B|352:112,1,90
344,200,88112,1,2
376,200,88195,1,0
408,200,88279,1,0
440,200,88362,1,0
472,200,88445,1,0
392,280,88612,5,0
120,280,88779,1,8
256,372,88945,6,2,B|256:192,1,180
176,104,89445,1,8
280,56,89612,1,0
352,152,89779,1,0
296,248,89945,1,0
184,216,90112,1,8
264,152,90279,5,0
296,248,90445,1,8
184,216,90612,2,0,B|0:216,2,180,8|8|0
184,216,91445,1,0
296,248,91612,1,0
328,136,91779,1,0
216,96,91945,1,0
128,16,92112,1,8
48,96,92279,2,0,B|48:200,2,90,0|0|0
128,176,92779,2,0,B|128:72,1,90
128,176,93112,1,8
208,256,93279,1,8
288,336,93445,2,2,B|321:242|294:160,1,180,2|2
168,56,93945,5,0
344,56,94112,1,8
464,200,94279,6,2,B|344:216|288:152,1,180
256,48,94779,1,8
222,167,94945,2,0,B|190:215|230:271,1,90
128,328,95279,1,0
48,248,95445,1,0
130,165,95612,2,0,B|234:165,2,90,8|0|8
128,328,96112,2,2,B|72:264|96:208|136:152,1,180
216,80,96612,1,0
256,192,96779,5,0
256,192,96945,1,0
256,192,97112,1,0
256,192,97279,1,0
216,80,97445,1,0
336,80,97612,1,0
368,80,97695,1,0
400,80,97779,1,0
432,80,97862,1,0
464,80,97945,1,0
464,200,98112,2,2,B|464:312,2,90
464,200,98612,1,0
464,200,98779,2,0,B|352:200,1,90
256,192,99112,12,2,100112
256,328,100445,5,2
368,192,100612,2,0,B|384:240|360:288,1,90
256,56,100945,1,0
144,192,101112,2,0,B|128:144|152:96,1,90,2|0
256,192,101445,1,0
336,280,101612,1,0
176,280,101779,5,0
256,192,101945,1,0
344,120,102112,2,0,B|384:72|344:8,1,90,0|0
176,280,102445,2,0,B|136:328|176:392,1,90,0|0
256,120,102779,2,0,B|288:224|224:192|256:304,3,180
256,120,104112,5,0
152,64,104279,1,0
48,120,104445,2,0,B|24:176|64:240,1,90,2|0
152,152,104779,2,0,B|176:96|136:32,1,90
48,208,105112,2,0,B|48:296|128:304|128:368,2,180,2|0|2
256,328,105945,5,2
144,192,106112,2,0,B|128:240|152:288,1,90
256,56,106445,1,0
368,192,106612,2,0,B|384:144|360:96,1,90,2|0
256,192,106945,1,0
176,280,107112,5,0
336,280,107279,1,0
256,192,107445,1,0
168,120,107612,2,0,B|128:72|168:8,1,90,0|0
336,280,107945,2,0,B|376:328|336:392,1,90,0|0
256,120,108279,2,0,B|224:224|288:192|256:304,3,180
256,120,109445,5,0
360,64,109612,1,0
464,120,109779,2,0,B|488:176|448:240,1,90,2|0
360,152,110112,2,0,B|336:96|376:32,1,90
256,192,110445,12,0,111779
168,240,112112,5,12
208,104,112279,1,0
344,144,112445,1,2
304,280,112612,1,0
168,192,112779,5,8
256,104,112945,1,0
344,192,113112,1,2
256,280,113279,1,0
168,144,113445,5,8
304,104,113612,1,0
344,240,113779,1,2
208,280,113945,1,0
256,192,114112,5,8
256,192,114279,1,0
256,192,114445,1,2
256,192,114612,1,0
168,192,114779,6,0,B|72:192,1,90,8|0
212,115,115112,2,0,B|160:25,1,90,2|0
300,115,115445,2,0,B|352:25,1,90,8|0
344,192,115779,2,0,B|448:192,1,90,2|0
300,268,116112,2,0,B|352:358,1,90,8|0
212,268,116445,2,0,B|160:358,1,90,2|0
78,192,116779,6,0,B|168:192,1,90,8|0
209,19,117112,2,0,B|233:106,1,90,2|0
409,102,117445,2,0,B|332:148,1,90,8|0
381,317,117779,2,0,B|318:254,1,90,2|0
166,345,118112,2,0,B|212:268,1,90,8|0
332,148,118445,6,0,B|280:57,1,90,2|0
179,236,118779,2,0,B|231:326,1,90,8|0
212,115,119112,2,0,B|121:167,1,90,2|0
300,268,119445,2,0,B|390:216,1,90,8|0
78,192,119779,6,0,B|168:192,1,90,2|0
345,37,120112,2,0,B|300:115,1,90,8|0
345,345,120445,2,0,B|300:268,1,90,2|0
168,192,120779,6,0,B|64:192,1,90,8|0
344,192,121112,2,0,B|440:192,1,90,2|0
432,64,121445,5,8
344,152,121612,1,0
256,64,121779,1,2
168,152,121945,1,0
80,64,122112,1,8
168,152,122279,5,0
80,240,122445,1,2
168,328,122612,1,0
256,240,122779,1,8
344,328,122945,1,0
432,240,123112,1,2
344,152,123279,1,0
432,64,123445,1,8
256,64,123612,5,0
256,64,123779,2,0,B|215:26|176:64,1,90,2|0
136,184,124112,2,0,B|177:222|216:184,1,90,8|0
336,224,124445,2,0,B|374:183|336:144,1,90,2|0
216,104,124779,2,0,B|178:145|216:184,1,90,8|0
176,304,125112,2,0,B|217:342|256:304,1,90,2|0
296,184,125445,2,0,B|255:146|216:184,1,90,8|0
96,144,125779,2,0,B|58:185|96:224,1,90,2|0
216,264,126112,2,0,B|254:223|216:184,1,90,8|0
376,184,126445,6,0,B|376:88,1,90,2|0
376,184,126779,2,0,B|459:136,1,90,8|0
376,184,127112,2,0,B|459:232,1,90,2|0
376,184,127445,2,0,B|376:280,1,90,8|0
376,184,127779,2,0,B|292:232,1,90,2|0
376,184,128112,2,0,B|292:136,1,90,8|0
213,139,128445,6,0,B|136:184,1,90,2|0
213,229,128779,2,0,B|136:184,1,90,8|0
136,274,129112,2,0,B|136:184,1,90,2|0
58,229,129445,2,0,B|136:184,1,90,8|0
58,139,129779,2,0,B|136:184,1,90,2|0
136,94,130112,2,0,B|136:184,1,90,8|0
256,192,130445,5,2
184,248,130612,1,0
208,336,130779,1,8
304,336,130945,1,0
328,248,131112,1,2
256,192,131279,5,0
328,247,131445,1,8
407,201,131612,1,0
382,108,131779,1,2
291,107,131945,1,0
256,192,132112,5,8
165,177,132279,1,0
144,89,132445,1,2
228,42,132612,1,0
291,108,132779,1,8
256,192,132945,5,0
165,177,133112,1,2
117,255,133279,1,0
183,325,133445,1,8
264,282,133612,1,0
392,280,133779,6,0,B|482:228,1,90,2|0
392,176,134112,2,0,B|302:228,1,90,8|0
392,88,134445,2,0,B|482:36,1,90,2|0
314,116,134779,6,0,B|223:168,1,90,12|0
314,220,135112,2,0,B|405:168,1,90,2|0
314,308,135445,2,0,B|223:360,1,90,8|0
130,356,135779,1,2
34,300,135945,1,0
136,216,136112,5,8
296,216,136279,1,0
384,144,136445,1,2
224,144,136612,1,0
320,240,136779,6,0,B|352:184|320:128,1,90,8|0
256,192,137112,1,4
192,144,137279,2,0,B|160:200|192:256,1,90,0|8
256,192,137612,1,0
392,248,137779,6,0,B|416:200|392:104,1,90,2|0
256,192,138112,1,8
120,136,138279,2,0,B|96:184|120:280,1,90,0|2
256,192,138612,1,4
456,256,138779,2,0,B|472:208|464:136,1,90,8|0
256,192,139112,1,2
56,128,139279,2,0,B|40:176|48:248,1,90,0|8
256,192,139612,1,0
184,88,139779,6,0,L|160:0,1,90,2|0
328,88,140112,2,0,L|352:0,1,90,8|0
144,168,140445,2,0,L|96:64,1,90,2|0
368,168,140779,2,0,L|416:64,1,90,8|0
184,296,141112,6,0,L|160:384,1,90,2|0
328,296,141445,2,0,L|352:384,1,90,8|0
144,216,141779,2,0,L|96:320,1,90,2|0
368,216,142112,2,0,L|416:320,1,90,8|0
256,192,142445,5,2
256,192,142612,1,0
144,192,142779,5,8
24,192,142945,1,0
24,312,143112,1,2
144,312,143279,1,0
144,192,143445,1,8
24,192,143612,1,0
24,312,143779,1,2
144,312,143945,1,0
144,192,144112,5,8
256,80,144279,1,2
368,192,144445,1,0
256,304,144612,1,8
144,192,144779,1,0
256,80,144945,1,2
368,192,145112,1,0
256,304,145279,1,8
144,192,145445,5,0
24,192,145612,1,2
24,72,145779,1,0
144,72,145945,1,8
144,192,146112,1,0
24,192,146279,1,2
24,72,146445,1,0
144,72,146612,1,0
144,192,146779,5,0
256,304,146945,1,2
368,192,147112,1,0
256,80,147279,1,8
144,192,147445,1,0
256,304,147612,1,2
368,192,147779,1,0
256,80,147945,1,8
368,192,148112,5,0
488,192,148279,1,8
488,72,148445,1,0
368,72,148612,1,2
368,192,148779,1,0
488,192,148945,1,8
488,72,149112,1,0
368,72,149279,1,2
368,192,149445,5,0
256,304,149612,1,2
144,192,149779,1,0
256,80,149945,1,8
368,192,150112,1,0
256,304,150279,1,2
144,192,150445,1,0
256,80,150612,1,8
368,192,150779,5,0
368,192,150945,1,0
368,112,151112,1,10
440,168,151279,1,0
416,256,151445,1,8
320,256,151612,1,0
296,168,151779,1,10
296,168,151945,1,0
258,102,152112,5,8
348,107,152279,1,0
366,196,152445,1,10
290,247,152612,1,0
217,184,152779,1,8
256,72,152945,1,0
256,184,153112,1,10
256,296,153279,1,0
256,296,153445,6,2,B|272:312|328:264|320:240|328:216|272:168|256:184,1,180,2|2
256,184,153945,2,2,B|241:199|185:151|193:127|185:103|241:55|257:71,1,180
257,70,154445,1,4
256,192,154779,12,0,155779
0,192,156112,6,0,B|256:48|256:336|512:192,1,540,0|4
424,112,158279,5,0
256,112,158446,1,0
136,192,158612,2,2,B|56:271|133:348,1,180,2|2
256,272,159112,1,0
256,272,159279,1,0
400,272,159446,2,0,B|440:232|400:192,1,90,0|0
256,112,159779,1,0
256,112,159946,2,0,B|256:296,1,180
136,192,160446,1,0
136,32,160612,1,0
256,112,160779,1,0
256,112,160946,2,0,B|440:112,1,180
316,192,161446,2,0,B|136:192,1,180,2|0
256,272,161946,1,0
136,192,162112,6,0,B|96:152|136:112,1,90,0|0
256,72,162446,1,0
376,192,162612,1,0
256,312,162779,1,0
136,312,162946,1,0
376,312,163112,1,0
376,72,163279,1,0
136,72,163446,1,0
136,72,163529,1,0
136,72,163612,2,0,B|96:112|136:152,2,90
256,192,164112,1,0
256,192,164279,5,0
304,320,164446,6,2,B|416:320|416:208,1,180
208,64,164946,2,2,B|97:64|97:176,1,180,0|0
256,192,165446,1,8
304,64,165612,1,8
208,320,165779,2,2,B|97:320|97:208,1,180,0|0
256,192,166279,1,4
256,192,166612,12,0,167779
256,192,167946,6,0,B|256:8,2,180
256,192,168779,1,8
256,272,168946,1,8
256,272,169112,2,2,B|256:368,1,90
256,362,169446,1,4
408,192,178779,5,0
320,120,178946,1,0
320,120,179029,1,0
320,120,179112,1,0
320,264,179279,1,0
288,264,179362,1,0
256,264,179446,1,0
224,264,179529,1,0
192,264,179612,5,0
120,352,179779,1,0
48,256,179946,2,2,B|-32:176|48:96,1,180
152,16,180446,2,2,B|232:96|152:176,1,180
80,176,180946,1,0
232,176,181112,1,0
344,280,181279,2,2,B|264:200|344:120,1,180,2|2
448,40,181779,2,2,B|528:120|448:200,1,180,2|2
376,200,182279,1,0
224,200,182446,1,0
376,200,182612,6,2,B|456:280|376:360,1,180
256,272,183112,1,0
256,112,183279,1,0
136,184,183446,2,2,B|56:104|136:24,1,180
256,112,183946,2,4,B|192:176|328:208|256:272,3,180
176,192,185112,1,2
336,192,185279,1,4
256,112,185446,5,0
256,272,185612,1,0
376,272,185779,2,2,B|456:192|376:112,1,180
136,112,186279,2,2,B|56:192|136:272,1,180
176,192,186779,1,0
336,192,186946,1,0
336,72,187112,2,2,B|256:-8|176:72,1,180
176,312,187612,2,2,B|256:392|336:312,1,180
256,192,188112,12,0,189112
328,192,189279,6,0,B|416:192|416:104|512:104,2,180
184,192,190112,1,0
40,192,190279,1,0
184,192,190446,1,0
328,192,190612,2,0,B|416:192|416:280|512:280,1,180
184,192,191112,6,2,B|104:112|184:32,1,180
296,112,191612,1,0
296,272,191779,1,0
408,192,191946,2,2,B|488:272|408:352,1,180,2|2
296,272,192446,2,2,B|96:272,1,180
112,128,192946,1,0
216,24,193112,1,0
360,112,193279,6,2,B|280:192|360:272,1,180,2|2
480,192,193779,1,0
320,192,193946,1,0
152,112,194112,2,2,B|232:192|152:272,1,180,2|2
256,112,194612,2,4,B|256:304,3,180
256,292,195779,1,2
256,112,195946,1,4
336,200,196112,5,0
176,200,196279,1,0
96,304,196446,2,2,B|16:224|96:144,1,180,2|2
174,44,196946,2,2,B|254:123|176:200,1,180,2|2
256,304,197446,1,0
336,200,197612,1,0
416,304,197779,2,2,B|496:224|416:144,1,180,2|2
339,44,198279,2,2,B|259:123|336:200,1,180,2|2
256,192,198779,12,0,199779
256,192,199946,5,0
376,192,200112,2,0,B|416:152|376:112,1,90,0|0
136,192,200446,2,0,B|96:232|136:272,1,90,0|0
304,72,200779,2,0,B|264:112|304:152,1,90,0|0
208,312,201112,2,0,B|248:272|208:232,1,90,0|0
256,192,201446,12,0,202779
200,80,203112,5,0
368,136,203279,1,0
312,304,203446,1,0
144,248,203612,1,0
256,192,203779,1,0
256,192,203946,12,0,205446
64,192,205779,6,0,B|64:256|136:256,1,90
160,168,206112,1,0
256,144,206279,2,0,B|256:80|184:80,1,90,0|0
160,168,206612,2,0,B|160:232|232:232,1,90,0|0
296,280,206946,1,0
384,224,207112,2,0,B|384:160|312:160,1,90,0|0
232,160,207446,1,0
328,136,207612,2,0,B|328:72|256:72,1,90,0|0
232,160,207946,1,0
232,160,208112,2,0,B|232:272|400:272,1,180
408,192,208612,5,0
302,336,208779,1,0
133,281,208946,1,0
133,102,209112,1,0
302,47,209279,1,0
256,192,209446,12,0,210446
168,240,210779,6,0,B|168:304|96:304,1,90
208,104,211112,1,0
208,104,211279,2,0,B|144:104|144:32,1,90,0|0
344,144,211612,2,0,B|344:80|416:80,1,90,0|0
304,280,211946,1,0
304,280,212112,2,0,B|368:280|368:352,1,90,0|0
256,192,212446,1,0
208,104,212612,2,0,B|208:40|280:40,1,90,0|0
168,240,212946,1,0
304,280,213112,1,0
344,144,213279,1,0
256,192,213446,2,0,B|256:320|104:320,1,180
96,163,213946,5,0
201,39,214112,1,0
361,68,214279,1,0
415,220,214446,1,0
310,344,214612,1,0
256,192,214779,12,0,216112
256,192,216279,5,0
104,264,216446,2,0,B|184:312,1,90
408,264,216779,2,0,B|328:312,1,90
256,72,217112,1,0
256,192,217279,1,0
336,224,217446,2,0,B|413:177,1,90
176,224,217779,2,0,B|98:177,1,90
176,48,218112,2,0,B|176:144,1,90
336,48,218446,2,0,B|336:144,1,90
256,320,218779,2,0,B|256:128,1,180
256,64,219279,5,0
384,192,219446,1,0
256,320,219612,1,0
128,192,219779,1,0
256,192,219946,1,0
256,192,220112,12,0,221112
256,192,221279,5,4
256,192,221446,12,0,222779
