osu file format v14

[General]
AudioFilename: summer.mp3
AudioLeadIn: 0
PreviewTime: 78746
Countdown: 0
SampleSet: Soft
StackLeniency: 0.7
Mode: 3
LetterboxInBreaks: 0
SpecialStyle: 0
WidescreenStoryboard: 0

[Editor]
DistanceSpacing: 1.6
BeatDivisor: 4
GridSize: 8
TimelineZoom: 1.800001

[Metadata]
Title:Sounds of Summer
TitleUnicode:Sounds of Summer
Artist:Hommarju
ArtistUnicode:Hommarju
Creator:[Shana Lesus]
Version:Beginner
Source:SOUND VOLTEX III GRAVITY WARS
Tags:kuo_kyoka _fresh_chicken_ konami uk hardcore bemani beatmania iidx 22th pendual bemani summer diary 2015 rasis ooinu galactica gentleman vega
BeatmapID:771861
BeatmapSetID:349345

[Difficulty]
HPDrainRate:6
CircleSize:4
OverallDifficulty:7
ApproachRate:5
SliderMultiplier:1.4
SliderTickRate:1

[Events]
//Background and Video events
0,0,"summer.jpg",0,0
Video,-920,"summer.avi"
//Break Periods
//Storyboard Layer 0 (Background)
//Storyboard Layer 1 (Fail)
//Storyboard Layer 2 (Pass)
//Storyboard Layer 3 (Foreground)
//Storyboard Sound Samples

[TimingPoints]
1946,342.857142857143,4,2,1,60,1,0
78746,-100,4,2,1,60,0,1
108917,-100,4,2,1,60,0,0

[HitObjects]
64,192,574,128,0,1603:0:0:0:0:
320,192,1603,1,8,0:0:0:0:
192,192,1603,1,0,0:0:0:0:
448,192,1945,1,2,0:0:0:0:
64,192,1945,1,0,0:0:0:0:
320,192,2460,1,2,0:0:0:0:
192,192,2803,1,2,0:0:0:0:
448,192,3146,1,2,0:0:0:0:
64,192,3488,1,2,0:0:0:0:
320,192,3660,1,2,0:0:0:0:
192,192,4003,1,2,0:0:0:0:
448,192,4688,1,2,0:0:0:0:
64,192,4688,1,0,0:0:0:0:
320,192,5203,1,2,0:0:0:0:
64,192,5546,1,2,0:0:0:0:
192,192,5888,1,2,0:0:0:0:
64,192,6231,1,2,0:0:0:0:
448,192,6403,1,2,0:0:0:0:
320,192,6746,1,2,0:0:0:0:
64,192,7431,1,2,0:0:0:0:
192,192,7431,1,0,0:0:0:0:
448,192,7946,1,2,0:0:0:0:
192,192,8288,1,2,0:0:0:0:
320,192,8631,1,2,0:0:0:0:
448,192,8974,1,2,0:0:0:0:
64,192,9146,1,2,0:0:0:0:
192,192,9488,1,2,0:0:0:0:
320,192,10174,1,2,0:0:0:0:
448,192,10174,1,0,0:0:0:0:
192,192,10688,1,2,0:0:0:0:
448,192,11031,1,2,0:0:0:0:
64,192,11374,1,2,0:0:0:0:
320,192,11717,1,2,0:0:0:0:
192,192,11888,1,2,0:0:0:0:
448,192,12060,1,0,0:0:0:0:
64,192,12231,1,2,0:0:0:0:
320,192,12574,1,8,0:0:0:0:
192,192,12574,1,0,0:0:0:0:
64,192,12917,1,2,0:0:0:0:
448,192,12917,1,0,0:0:0:0:
64,192,13260,1,0,0:0:0:0:
192,192,13603,1,0,0:0:0:0:
192,192,13946,1,0,0:0:0:0:
448,192,14288,1,0,0:0:0:0:
448,192,14631,1,0,0:0:0:0:
320,192,14974,1,0,0:0:0:0:
320,192,15317,1,0,0:0:0:0:
64,192,15660,1,0,0:0:0:0:
448,192,16003,1,0,0:0:0:0:
192,192,16346,1,0,0:0:0:0:
320,192,16688,1,0,0:0:0:0:
448,192,17031,1,0,0:0:0:0:
64,192,17374,1,0,0:0:0:0:
320,192,17717,1,0,0:0:0:0:
192,192,18060,1,0,0:0:0:0:
448,192,18403,1,2,0:0:0:0:
64,192,18403,1,0,0:0:0:0:
320,192,18746,1,2,0:0:0:0:
64,192,19088,1,2,0:0:0:0:
448,192,19431,1,2,0:0:0:0:
192,192,19774,1,2,0:0:0:0:
320,192,19774,1,0,0:0:0:0:
64,192,20117,1,2,0:0:0:0:
448,192,20460,1,2,0:0:0:0:
192,192,20803,1,2,0:0:0:0:
320,192,21146,1,2,0:0:0:0:
64,192,21146,1,0,0:0:0:0:
64,192,21660,1,0,0:0:0:0:
448,192,22003,1,0,0:0:0:0:
192,192,22346,1,0,0:0:0:0:
320,192,22517,128,0,23546:0:0:0:0:
64,192,23546,1,8,0:0:0:0:
448,192,23546,1,0,0:0:0:0:
192,192,23888,1,2,0:0:0:0:
320,192,23888,1,0,0:0:0:0:
448,192,24231,1,2,0:0:0:0:
64,192,24574,1,2,0:0:0:0:
320,192,24917,1,2,0:0:0:0:
64,192,25260,1,2,0:0:0:0:
192,192,25260,1,0,0:0:0:0:
448,192,25603,1,2,0:0:0:0:
192,192,25946,1,2,0:0:0:0:
320,192,26288,1,2,0:0:0:0:
64,192,26631,1,2,0:0:0:0:
448,192,26631,1,0,0:0:0:0:
192,192,26974,1,2,0:0:0:0:
448,192,27317,1,2,0:0:0:0:
192,192,27660,1,2,0:0:0:0:
64,192,28003,1,2,0:0:0:0:
320,192,28003,1,0,0:0:0:0:
448,192,28346,1,2,0:0:0:0:
64,192,28688,1,2,0:0:0:0:
448,192,29031,1,2,0:0:0:0:
192,192,29374,1,2,0:0:0:0:
320,192,29374,1,0,0:0:0:0:
64,192,29717,1,2,0:0:0:0:
448,192,30060,1,2,0:0:0:0:
64,192,30403,1,2,0:0:0:0:
192,192,30746,1,2,0:0:0:0:
320,192,30746,1,0,0:0:0:0:
448,192,31088,1,2,0:0:0:0:
64,192,31431,1,2,0:0:0:0:
320,192,31774,1,2,0:0:0:0:
448,192,32117,1,2,0:0:0:0:
64,192,32117,1,0,0:0:0:0:
320,192,32460,1,2,0:0:0:0:
192,192,32803,1,2,0:0:0:0:
448,192,33146,1,2,0:0:0:0:
320,192,33488,1,2,0:0:0:0:
192,192,33488,1,0,0:0:0:0:
64,192,33831,1,2,0:0:0:0:
320,192,34174,5,2,0:0:0:0:
192,192,34517,1,2,0:0:0:0:
448,192,34688,1,2,0:0:0:0:
64,192,35031,1,0,0:0:0:0:
192,192,35203,5,2,0:0:0:0:
448,192,35374,1,0,0:0:0:0:
320,192,35546,1,2,0:0:0:0:
64,192,35717,1,0,0:0:0:0:
448,192,35888,1,2,0:0:0:0:
192,192,36060,1,0,0:0:0:0:
320,192,36231,1,2,0:0:0:0:
448,192,36231,1,0,0:0:0:0:
64,192,36574,1,2,0:0:0:0:
448,192,36917,1,2,0:0:0:0:
192,192,37260,1,2,0:0:0:0:
320,192,37603,1,2,0:0:0:0:
448,192,37603,1,0,0:0:0:0:
64,192,37774,1,0,0:0:0:0:
448,192,37946,1,2,0:0:0:0:
192,192,38117,1,0,0:0:0:0:
64,192,38288,1,2,0:0:0:0:
320,192,38460,1,0,0:0:0:0:
448,192,38631,1,2,0:0:0:0:
192,192,38803,1,0,0:0:0:0:
64,192,38974,1,2,0:0:0:0:
320,192,38974,1,0,0:0:0:0:
448,192,39317,1,2,0:0:0:0:
192,192,39660,1,2,0:0:0:0:
64,192,40003,1,2,0:0:0:0:
192,192,40346,1,2,0:0:0:0:
320,192,40346,1,0,0:0:0:0:
448,192,40517,1,0,0:0:0:0:
320,192,40688,1,2,0:0:0:0:
64,192,40860,1,0,0:0:0:0:
448,192,41031,1,2,0:0:0:0:
192,192,41203,1,0,0:0:0:0:
64,192,41374,1,2,0:0:0:0:
320,192,41546,1,0,0:0:0:0:
448,192,41717,1,2,0:0:0:0:
192,192,41717,1,0,0:0:0:0:
64,192,42060,1,2,0:0:0:0:
320,192,42403,1,2,0:0:0:0:
64,192,42746,1,2,0:0:0:0:
448,192,43088,1,2,0:0:0:0:
320,192,43088,1,0,0:0:0:0:
192,192,43260,1,0,0:0:0:0:
320,192,43431,1,0,0:0:0:0:
64,192,43603,1,0,0:0:0:0:
448,192,43774,1,0,0:0:0:0:
192,192,43946,1,0,0:0:0:0:
320,192,44117,128,0,44460:0:0:0:0:
64,192,44460,128,0,45831:0:0:0:0:
448,192,45831,1,2,0:0:0:0:
192,192,45831,1,0,0:0:0:0:
320,192,46174,1,0,0:0:0:0:
320,192,46517,1,0,0:0:0:0:
64,192,46860,1,0,0:0:0:0:
64,192,47203,1,0,0:0:0:0:
448,192,47546,1,0,0:0:0:0:
448,192,47888,1,0,0:0:0:0:
192,192,48231,1,0,0:0:0:0:
192,192,48574,1,0,0:0:0:0:
320,192,48917,1,0,0:0:0:0:
64,192,49260,1,0,0:0:0:0:
448,192,49603,1,0,0:0:0:0:
192,192,49946,1,0,0:0:0:0:
320,192,50288,1,0,0:0:0:0:
64,192,50631,1,0,0:0:0:0:
448,192,50974,1,0,0:0:0:0:
192,192,51317,1,0,0:0:0:0:
64,192,51660,1,0,0:0:0:0:
64,192,52003,1,0,0:0:0:0:
448,192,52346,1,0,0:0:0:0:
192,192,52688,1,0,0:0:0:0:
320,192,53031,1,0,0:0:0:0:
320,192,53374,1,0,0:0:0:0:
64,192,53717,1,0,0:0:0:0:
448,192,54060,1,0,0:0:0:0:
192,192,54403,1,0,0:0:0:0:
192,192,54746,1,0,0:0:0:0:
448,192,55088,1,0,0:0:0:0:
64,192,55431,128,0,56460:0:0:0:0:
320,192,56460,1,8,0:0:0:0:
448,192,56460,1,0,0:0:0:0:
448,192,56803,1,2,0:0:0:0:
192,192,56803,1,0,0:0:0:0:
64,192,57317,1,2,0:0:0:0:
320,192,57660,1,2,0:0:0:0:
192,192,58003,1,2,0:0:0:0:
448,192,58346,1,2,0:0:0:0:
64,192,58517,1,2,0:0:0:0:
320,192,58860,1,2,0:0:0:0:
64,192,59546,1,2,0:0:0:0:
192,192,59546,1,0,0:0:0:0:
448,192,60060,1,2,0:0:0:0:
192,192,60403,1,2,0:0:0:0:
320,192,60746,1,2,0:0:0:0:
64,192,61088,1,2,0:0:0:0:
448,192,61260,1,2,0:0:0:0:
192,192,61603,1,2,0:0:0:0:
64,192,62288,1,2,0:0:0:0:
448,192,62288,1,0,0:0:0:0:
320,192,62803,1,2,0:0:0:0:
192,192,63146,1,2,0:0:0:0:
448,192,63488,1,2,0:0:0:0:
64,192,63831,1,2,0:0:0:0:
320,192,64003,1,2,0:0:0:0:
192,192,64346,1,2,0:0:0:0:
448,192,65031,1,2,0:0:0:0:
320,192,65031,1,0,0:0:0:0:
64,192,65546,1,2,0:0:0:0:
192,192,65888,1,2,0:0:0:0:
320,192,66231,1,2,0:0:0:0:
64,192,66574,1,2,0:0:0:0:
448,192,66746,1,2,0:0:0:0:
192,192,67088,1,2,0:0:0:0:
320,192,67088,1,0,0:0:0:0:
448,192,67431,1,8,0:0:0:0:
64,192,67431,1,0,0:0:0:0:
192,192,67774,1,2,0:0:0:0:
320,192,68117,1,2,0:0:0:0:
448,192,68460,1,2,0:0:0:0:
320,192,68803,1,2,0:0:0:0:
192,192,69146,1,2,0:0:0:0:
448,192,69146,1,0,0:0:0:0:
64,192,69488,1,2,0:0:0:0:
192,192,69831,1,2,0:0:0:0:
448,192,70174,1,2,0:0:0:0:
320,192,70517,1,2,0:0:0:0:
64,192,70517,1,0,0:0:0:0:
192,192,70860,1,2,0:0:0:0:
448,192,71203,1,2,0:0:0:0:
64,192,71546,1,2,0:0:0:0:
448,192,71888,1,2,0:0:0:0:
320,192,71888,1,0,0:0:0:0:
192,192,72231,1,2,0:0:0:0:
64,192,72574,1,2,0:0:0:0:
448,192,72917,1,2,0:0:0:0:
320,192,73260,1,2,0:0:0:0:
64,192,73260,128,0,77374:0:0:0:0:
448,192,77374,1,0,0:0:0:0:
192,192,77717,1,0,0:0:0:0:
320,192,78060,1,0,0:0:0:0:
64,192,78403,1,8,0:0:0:0:
448,192,78403,1,0,0:0:0:0:
192,192,78746,1,2,0:0:0:0:
320,192,78746,1,0,0:0:0:0:
448,192,79088,1,2,0:0:0:0:
64,192,79431,1,2,0:0:0:0:
320,192,79774,1,2,0:0:0:0:
192,192,80117,1,2,0:0:0:0:
448,192,80117,1,0,0:0:0:0:
64,192,80460,1,2,0:0:0:0:
448,192,80803,1,2,0:0:0:0:
320,192,81146,1,2,0:0:0:0:
192,192,81488,1,2,0:0:0:0:
448,192,81488,1,0,0:0:0:0:
64,192,81831,1,2,0:0:0:0:
448,192,82174,1,2,0:0:0:0:
64,192,82517,1,2,0:0:0:0:
320,192,82860,1,2,0:0:0:0:
192,192,82860,1,0,0:0:0:0:
448,192,83203,1,2,0:0:0:0:
64,192,83546,1,2,0:0:0:0:
320,192,83888,1,2,0:0:0:0:
448,192,84231,1,2,0:0:0:0:
64,192,84231,1,0,0:0:0:0:
192,192,84574,1,2,0:0:0:0:
64,192,84917,1,2,0:0:0:0:
320,192,85260,1,2,0:0:0:0:
192,192,85603,1,2,0:0:0:0:
448,192,85603,1,0,0:0:0:0:
320,192,85946,1,2,0:0:0:0:
64,192,86288,1,2,0:0:0:0:
320,192,86631,1,2,0:0:0:0:
192,192,86974,1,2,0:0:0:0:
64,192,86974,1,0,0:0:0:0:
448,192,87317,1,2,0:0:0:0:
64,192,87660,1,2,0:0:0:0:
320,192,88003,1,2,0:0:0:0:
192,192,88346,1,2,0:0:0:0:
448,192,88346,1,0,0:0:0:0:
320,192,88688,1,2,0:0:0:0:
64,192,89031,1,2,0:0:0:0:
192,192,89374,1,2,0:0:0:0:
448,192,89546,1,2,0:0:0:0:
320,192,90060,1,2,0:0:0:0:
64,192,90403,1,2,0:0:0:0:
448,192,90746,1,2,0:0:0:0:
192,192,91088,1,2,0:0:0:0:
64,192,91088,1,0,0:0:0:0:
320,192,91431,1,2,0:0:0:0:
64,192,91774,1,2,0:0:0:0:
320,192,92117,1,2,0:0:0:0:
448,192,92460,1,2,0:0:0:0:
64,192,92460,1,0,0:0:0:0:
192,192,92803,1,2,0:0:0:0:
64,192,93146,1,2,0:0:0:0:
320,192,93488,1,2,0:0:0:0:
192,192,93831,1,2,0:0:0:0:
448,192,93831,1,0,0:0:0:0:
320,192,94174,1,2,0:0:0:0:
64,192,94517,1,2,0:0:0:0:
448,192,94860,1,2,0:0:0:0:
192,192,95203,1,2,0:0:0:0:
320,192,95203,1,0,0:0:0:0:
64,192,95546,1,2,0:0:0:0:
448,192,95888,1,2,0:0:0:0:
192,192,96231,1,2,0:0:0:0:
64,192,96574,1,2,0:0:0:0:
320,192,96574,1,0,0:0:0:0:
448,192,96917,1,2,0:0:0:0:
64,192,97260,1,2,0:0:0:0:
320,192,97603,1,2,0:0:0:0:
192,192,97946,1,2,0:0:0:0:
64,192,97946,1,0,0:0:0:0:
448,192,98288,1,2,0:0:0:0:
64,192,98631,1,2,0:0:0:0:
320,192,98974,1,2,0:0:0:0:
448,192,99317,1,2,0:0:0:0:
64,192,99317,1,0,0:0:0:0:
192,192,99660,128,0,100346:0:0:0:0:
448,192,100346,1,8,0:0:0:0:
64,192,100346,1,0,0:0:0:0:
320,192,100688,1,2,0:0:0:0:
64,192,100688,1,0,0:0:0:0:
320,192,101031,1,2,0:0:0:0:
64,192,101374,1,2,0:0:0:0:
64,192,101717,1,2,0:0:0:0:
448,192,102060,1,2,0:0:0:0:
192,192,102060,1,0,0:0:0:0:
448,192,102403,1,2,0:0:0:0:
192,192,102746,1,2,0:0:0:0:
192,192,103088,1,2,0:0:0:0:
448,192,103431,1,2,0:0:0:0:
320,192,103431,1,0,0:0:0:0:
64,192,103774,1,2,0:0:0:0:
320,192,104117,1,2,0:0:0:0:
448,192,104460,1,2,0:0:0:0:
64,192,104803,1,2,0:0:0:0:
192,192,104803,1,0,0:0:0:0:
448,192,105146,1,2,0:0:0:0:
320,192,105488,1,2,0:0:0:0:
64,192,105831,1,2,0:0:0:0:
448,192,106174,1,2,0:0:0:0:
192,192,106174,1,0,0:0:0:0:
448,192,106517,1,2,0:0:0:0:
64,192,106860,1,2,0:0:0:0:
64,192,107203,1,2,0:0:0:0:
320,192,107546,1,2,0:0:0:0:
192,192,107546,1,0,0:0:0:0:
448,192,107888,1,2,0:0:0:0:
192,192,108231,1,2,0:0:0:0:
192,192,108574,1,2,0:0:0:0:
448,192,108917,128,2,111317:0:0:0:0:
64,192,108917,1,0,0:0:0:0:
192,192,111317,1,8,0:0:0:0:
320,192,111317,1,0,0:0:0:0:
448,192,111660,1,2,0:0:0:0:
64,192,111660,1,0,0:0:0:0:
