osu file format v14

[General]
AudioFilename: summer.mp3
AudioLeadIn: 0
PreviewTime: 78746
Countdown: 0
SampleSet: Soft
StackLeniency: 0.7
Mode: 3
LetterboxInBreaks: 0
SpecialStyle: 0
WidescreenStoryboard: 0

[Editor]
DistanceSpacing: 1.6
BeatDivisor: 4
GridSize: 8
TimelineZoom: 1.800001

[Metadata]
Title:Sounds of Summer
TitleUnicode:Sounds of Summer
Artist:Hommarju
ArtistUnicode:Hommarju
Creator:[Shana Lesus]
Version:Another
Source:SOUND VOLTEX III GRAVITY WARS
Tags:kuo_kyoka _fresh_chicken_ konami uk hardcore bemani beatmania iidx 22th pendual bemani summer diary 2015 rasis ooinu galactica gentleman vega
BeatmapID:770372
BeatmapSetID:349345

[Difficulty]
HPDrainRate:8
CircleSize:4
OverallDifficulty:8
ApproachRate:5
SliderMultiplier:1.4
SliderTickRate:1

[Events]
//Background and Video events
0,0,"summer.jpg",0,0
Video,-920,"summer.avi"
//Break Periods
//Storyboard Layer 0 (Background)
//Storyboard Layer 1 (Fail)
//Storyboard Layer 2 (Pass)
//Storyboard Layer 3 (Foreground)
//Storyboard Sound Samples

[TimingPoints]
1946,342.857142857143,4,2,1,60,1,0
78746,-100,4,2,1,60,0,1
108917,-100,4,2,1,60,0,0

[HitObjects]
192,192,574,128,0,1603:0:0:0:0:
64,192,1603,1,0,0:0:0:0:
320,192,1603,1,8,0:0:0:0:
192,192,1945,1,2,0:0:0:0:
448,192,1945,1,0,0:0:0:0:
64,192,1945,1,0,0:0:0:0:
448,192,2460,1,0,0:0:0:0:
192,192,2460,1,2,0:0:0:0:
64,192,2460,1,0,0:0:0:0:
448,192,2803,1,0,0:0:0:0:
64,192,2803,1,0,0:0:0:0:
320,192,2803,1,2,0:0:0:0:
192,192,3146,1,2,0:0:0:0:
448,192,3146,1,0,0:0:0:0:
64,192,3146,1,0,0:0:0:0:
192,192,3488,1,0,0:0:0:0:
448,192,3488,1,0,0:0:0:0:
320,192,3488,1,2,0:0:0:0:
320,192,3660,1,2,0:0:0:0:
64,192,3660,1,0,0:0:0:0:
192,192,3660,1,0,0:0:0:0:
448,192,4003,1,2,0:0:0:0:
64,192,4003,1,0,0:0:0:0:
192,192,4003,1,0,0:0:0:0:
448,192,4688,1,2,0:0:0:0:
64,192,4688,1,0,0:0:0:0:
192,192,4688,1,0,0:0:0:0:
64,192,5203,1,0,0:0:0:0:
320,192,5203,1,2,0:0:0:0:
448,192,5203,1,0,0:0:0:0:
448,192,5546,1,0,0:0:0:0:
64,192,5546,1,0,0:0:0:0:
192,192,5546,1,2,0:0:0:0:
320,192,5888,1,2,0:0:0:0:
64,192,5888,1,0,0:0:0:0:
448,192,5888,1,0,0:0:0:0:
64,192,6231,1,0,0:0:0:0:
320,192,6231,1,0,0:0:0:0:
192,192,6231,1,2,0:0:0:0:
192,192,6403,1,2,0:0:0:0:
448,192,6403,1,0,0:0:0:0:
320,192,6403,1,0,0:0:0:0:
448,192,6746,1,0,0:0:0:0:
64,192,6746,1,0,0:0:0:0:
320,192,6746,1,2,0:0:0:0:
192,192,7431,1,0,0:0:0:0:
320,192,7431,1,2,0:0:0:0:
448,192,7431,1,0,0:0:0:0:
320,192,7946,1,2,0:0:0:0:
192,192,7946,1,0,0:0:0:0:
64,192,7946,1,0,0:0:0:0:
192,192,8288,1,0,0:0:0:0:
64,192,8288,1,0,0:0:0:0:
448,192,8288,1,2,0:0:0:0:
192,192,8631,1,0,0:0:0:0:
320,192,8631,1,2,0:0:0:0:
64,192,8631,1,0,0:0:0:0:
192,192,8974,1,0,0:0:0:0:
64,192,8974,1,0,0:0:0:0:
448,192,8974,1,2,0:0:0:0:
320,192,9146,1,0,0:0:0:0:
448,192,9146,1,2,0:0:0:0:
64,192,9146,1,0,0:0:0:0:
192,192,9488,1,0,0:0:0:0:
448,192,9488,1,2,0:0:0:0:
320,192,9488,1,0,0:0:0:0:
320,192,10174,1,0,0:0:0:0:
192,192,10174,1,2,0:0:0:0:
64,192,10174,1,0,0:0:0:0:
192,192,10688,1,2,0:0:0:0:
320,192,10688,1,0,0:0:0:0:
448,192,10688,1,0,0:0:0:0:
448,192,11031,1,0,0:0:0:0:
320,192,11031,1,0,0:0:0:0:
64,192,11031,1,2,0:0:0:0:
192,192,11374,1,2,0:0:0:0:
320,192,11374,1,0,0:0:0:0:
448,192,11374,1,0,0:0:0:0:
448,192,11717,1,0,0:0:0:0:
320,192,11717,1,0,0:0:0:0:
64,192,11717,1,2,0:0:0:0:
64,192,11888,1,2,0:0:0:0:
192,192,11888,1,0,0:0:0:0:
448,192,11888,1,0,0:0:0:0:
320,192,12060,1,0,0:0:0:0:
192,192,12060,1,0,0:0:0:0:
448,192,12231,1,0,0:0:0:0:
64,192,12231,1,2,0:0:0:0:
320,192,12231,1,0,0:0:0:0:
64,192,12574,1,0,0:0:0:0:
320,192,12574,1,8,0:0:0:0:
448,192,12917,1,0,0:0:0:0:
192,192,12917,1,0,0:0:0:0:
64,192,12917,1,2,0:0:0:0:
320,192,13088,1,0,0:0:0:0:
192,192,13260,1,0,0:0:0:0:
64,192,13431,1,0,0:0:0:0:
320,192,13431,1,0,0:0:0:0:
448,192,13431,1,0,0:0:0:0:
448,192,13603,1,0,0:0:0:0:
64,192,13774,1,0,0:0:0:0:
320,192,13774,1,0,0:0:0:0:
192,192,13774,1,0,0:0:0:0:
448,192,13946,1,0,0:0:0:0:
192,192,14117,1,0,0:0:0:0:
448,192,14288,1,0,0:0:0:0:
320,192,14288,1,0,0:0:0:0:
64,192,14288,1,0,0:0:0:0:
64,192,14460,1,0,0:0:0:0:
320,192,14631,1,0,0:0:0:0:
448,192,14803,1,0,0:0:0:0:
64,192,14803,1,0,0:0:0:0:
192,192,14803,1,0,0:0:0:0:
448,192,14974,1,0,0:0:0:0:
320,192,15146,1,0,0:0:0:0:
448,192,15146,1,0,0:0:0:0:
192,192,15146,1,0,0:0:0:0:
64,192,15317,1,0,0:0:0:0:
320,192,15488,1,0,0:0:0:0:
192,192,15660,1,0,0:0:0:0:
64,192,15660,1,0,0:0:0:0:
320,192,15660,1,0,0:0:0:0:
448,192,15831,1,0,0:0:0:0:
64,192,16003,1,0,0:0:0:0:
320,192,16174,1,0,0:0:0:0:
192,192,16174,1,0,0:0:0:0:
448,192,16174,1,0,0:0:0:0:
192,192,16346,1,0,0:0:0:0:
64,192,16517,1,0,0:0:0:0:
320,192,16517,1,0,0:0:0:0:
448,192,16517,1,0,0:0:0:0:
448,192,16688,1,0,0:0:0:0:
64,192,16860,1,0,0:0:0:0:
64,192,17031,1,0,0:0:0:0:
448,192,17031,1,0,0:0:0:0:
192,192,17031,1,0,0:0:0:0:
320,192,17203,1,0,0:0:0:0:
64,192,17374,1,0,0:0:0:0:
320,192,17546,1,0,0:0:0:0:
448,192,17546,1,0,0:0:0:0:
192,192,17546,1,0,0:0:0:0:
448,192,17717,1,0,0:0:0:0:
192,192,17888,1,0,0:0:0:0:
320,192,17888,1,0,0:0:0:0:
64,192,17888,1,0,0:0:0:0:
448,192,18060,1,0,0:0:0:0:
64,192,18231,1,0,0:0:0:0:
448,192,18403,1,0,0:0:0:0:
192,192,18403,1,0,0:0:0:0:
320,192,18403,1,2,0:0:0:0:
64,192,18574,1,0,0:0:0:0:
448,192,18746,1,2,0:0:0:0:
448,192,18917,1,0,0:0:0:0:
320,192,18917,1,0,0:0:0:0:
192,192,18917,1,0,0:0:0:0:
64,192,19088,1,2,0:0:0:0:
320,192,19260,1,0,0:0:0:0:
192,192,19260,1,0,0:0:0:0:
64,192,19260,1,0,0:0:0:0:
448,192,19431,1,2,0:0:0:0:
192,192,19603,1,0,0:0:0:0:
448,192,19603,1,0,0:0:0:0:
64,192,19603,1,0,0:0:0:0:
320,192,19774,1,2,0:0:0:0:
64,192,19946,1,0,0:0:0:0:
320,192,19946,1,0,0:0:0:0:
448,192,19946,1,0,0:0:0:0:
192,192,20117,1,0,0:0:0:0:
64,192,20117,1,2,0:0:0:0:
448,192,20117,1,0,0:0:0:0:
320,192,20288,1,0,0:0:0:0:
192,192,20460,1,0,0:0:0:0:
320,192,20460,1,0,0:0:0:0:
448,192,20460,1,2,0:0:0:0:
64,192,20631,1,0,0:0:0:0:
448,192,20631,1,0,0:0:0:0:
192,192,20803,1,2,0:0:0:0:
320,192,20974,1,0,0:0:0:0:
64,192,20974,1,0,0:0:0:0:
448,192,21146,1,0,0:0:0:0:
64,192,21146,1,0,0:0:0:0:
192,192,21146,1,2,0:0:0:0:
320,192,21231,1,0,0:0:0:0:
64,192,21317,1,0,0:0:0:0:
448,192,21317,1,0,0:0:0:0:
192,192,21403,1,0,0:0:0:0:
448,192,21488,1,0,0:0:0:0:
320,192,21574,1,0,0:0:0:0:
64,192,21660,1,0,0:0:0:0:
192,192,21660,1,0,0:0:0:0:
448,192,21660,1,0,0:0:0:0:
320,192,21746,1,0,0:0:0:0:
192,192,21831,1,0,0:0:0:0:
64,192,21917,1,0,0:0:0:0:
192,192,22003,1,0,0:0:0:0:
448,192,22003,1,0,0:0:0:0:
320,192,22003,1,0,0:0:0:0:
64,192,22088,1,0,0:0:0:0:
192,192,22174,1,0,0:0:0:0:
320,192,22260,1,0,0:0:0:0:
192,192,22346,1,0,0:0:0:0:
64,192,22346,1,0,0:0:0:0:
448,192,22346,1,0,0:0:0:0:
320,192,22431,1,0,0:0:0:0:
64,192,22517,1,0,0:0:0:0:
448,192,22603,1,0,0:0:0:0:
192,192,22688,1,0,0:0:0:0:
320,192,22774,1,0,0:0:0:0:
64,192,22860,1,0,0:0:0:0:
448,192,22946,1,0,0:0:0:0:
192,192,23031,1,0,0:0:0:0:
320,192,23117,1,0,0:0:0:0:
64,192,23203,1,0,0:0:0:0:
448,192,23288,1,0,0:0:0:0:
192,192,23374,1,0,0:0:0:0:
320,192,23460,1,0,0:0:0:0:
64,192,23546,1,0,0:0:0:0:
448,192,23546,1,8,0:0:0:0:
64,192,23888,1,0,0:0:0:0:
320,192,23888,1,2,0:0:0:0:
448,192,23888,1,0,0:0:0:0:
192,192,24231,1,2,0:0:0:0:
448,192,24403,1,0,0:0:0:0:
64,192,24403,1,0,0:0:0:0:
320,192,24574,1,2,0:0:0:0:
192,192,24746,1,0,0:0:0:0:
64,192,24746,1,0,0:0:0:0:
320,192,24917,1,2,0:0:0:0:
448,192,25088,1,0,0:0:0:0:
192,192,25088,1,0,0:0:0:0:
64,192,25260,1,2,0:0:0:0:
192,192,25431,1,0,0:0:0:0:
320,192,25431,1,0,0:0:0:0:
448,192,25603,1,2,0:0:0:0:
320,192,25603,1,0,0:0:0:0:
64,192,25603,1,0,0:0:0:0:
64,192,25946,1,0,0:0:0:0:
448,192,25946,1,0,0:0:0:0:
192,192,25946,1,2,0:0:0:0:
320,192,26288,1,2,0:0:0:0:
64,192,26631,1,0,0:0:0:0:
320,192,26631,1,0,0:0:0:0:
448,192,26631,1,2,0:0:0:0:
192,192,26974,1,2,0:0:0:0:
448,192,27146,1,0,0:0:0:0:
64,192,27146,1,0,0:0:0:0:
320,192,27317,1,2,0:0:0:0:
192,192,27488,1,0,0:0:0:0:
448,192,27488,1,0,0:0:0:0:
64,192,27660,1,2,0:0:0:0:
192,192,27831,1,0,0:0:0:0:
320,192,27831,1,0,0:0:0:0:
448,192,28003,1,2,0:0:0:0:
320,192,28174,1,0,0:0:0:0:
64,192,28174,1,0,0:0:0:0:
64,192,28346,1,0,0:0:0:0:
448,192,28346,1,0,0:0:0:0:
192,192,28346,1,2,0:0:0:0:
64,192,28688,1,0,0:0:0:0:
448,192,28688,1,0,0:0:0:0:
320,192,28688,1,2,0:0:0:0:
192,192,29031,1,2,0:0:0:0:
64,192,29374,1,0,0:0:0:0:
192,192,29374,1,2,0:0:0:0:
320,192,29374,1,0,0:0:0:0:
448,192,29717,1,2,0:0:0:0:
64,192,29888,1,0,0:0:0:0:
192,192,29888,1,0,0:0:0:0:
320,192,30060,1,2,0:0:0:0:
448,192,30231,1,0,0:0:0:0:
64,192,30231,1,0,0:0:0:0:
192,192,30403,1,2,0:0:0:0:
64,192,30574,1,0,0:0:0:0:
320,192,30574,1,0,0:0:0:0:
448,192,30746,1,2,0:0:0:0:
192,192,30917,1,0,0:0:0:0:
320,192,30917,1,0,0:0:0:0:
64,192,31088,1,0,0:0:0:0:
448,192,31088,1,2,0:0:0:0:
192,192,31088,1,0,0:0:0:0:
448,192,31431,1,0,0:0:0:0:
320,192,31431,1,0,0:0:0:0:
64,192,31431,1,2,0:0:0:0:
192,192,31774,1,2,0:0:0:0:
448,192,32117,1,2,0:0:0:0:
64,192,32117,1,0,0:0:0:0:
192,192,32117,1,0,0:0:0:0:
320,192,32460,1,2,0:0:0:0:
64,192,32631,1,0,0:0:0:0:
448,192,32631,1,0,0:0:0:0:
192,192,32803,1,2,0:0:0:0:
320,192,32974,1,0,0:0:0:0:
448,192,32974,1,0,0:0:0:0:
192,192,33146,1,2,0:0:0:0:
448,192,33317,1,0,0:0:0:0:
64,192,33317,1,0,0:0:0:0:
320,192,33488,1,2,0:0:0:0:
192,192,33660,1,0,0:0:0:0:
64,192,33660,1,0,0:0:0:0:
320,192,33831,1,2,0:0:0:0:
448,192,33831,1,0,0:0:0:0:
64,192,33831,1,0,0:0:0:0:
192,192,34003,1,0,0:0:0:0:
320,192,34003,1,0,0:0:0:0:
448,192,34174,1,0,0:0:0:0:
192,192,34174,1,2,0:0:0:0:
64,192,34174,1,0,0:0:0:0:
320,192,34517,1,2,0:0:0:0:
448,192,34517,1,0,0:0:0:0:
320,192,34688,1,2,0:0:0:0:
448,192,34688,1,0,0:0:0:0:
192,192,34860,1,0,0:0:0:0:
448,192,35031,1,0,0:0:0:0:
64,192,35031,1,0,0:0:0:0:
192,192,35203,1,0,0:0:0:0:
64,192,35203,1,0,0:0:0:0:
320,192,35203,1,2,0:0:0:0:
448,192,35374,1,0,0:0:0:0:
192,192,35374,1,0,0:0:0:0:
64,192,35546,1,0,0:0:0:0:
320,192,35546,1,2,0:0:0:0:
448,192,35546,1,0,0:0:0:0:
192,192,35717,1,0,0:0:0:0:
320,192,35717,1,0,0:0:0:0:
64,192,35888,1,0,0:0:0:0:
192,192,35888,1,2,0:0:0:0:
448,192,35888,1,0,0:0:0:0:
320,192,36060,1,0,0:0:0:0:
448,192,36060,1,0,0:0:0:0:
64,192,36231,1,0,0:0:0:0:
192,192,36231,1,2,0:0:0:0:
448,192,36231,1,0,0:0:0:0:
192,192,36574,1,2,0:0:0:0:
320,192,36574,1,0,0:0:0:0:
448,192,36574,1,0,0:0:0:0:
448,192,36831,1,0,0:0:0:0:
64,192,36831,1,0,0:0:0:0:
64,192,36917,1,0,0:0:0:0:
320,192,36917,1,2,0:0:0:0:
448,192,36917,1,0,0:0:0:0:
320,192,37088,1,0,0:0:0:0:
192,192,37088,1,0,0:0:0:0:
64,192,37260,1,2,0:0:0:0:
320,192,37431,1,0,0:0:0:0:
192,192,37431,1,0,0:0:0:0:
448,192,37603,1,2,0:0:0:0:
192,192,37774,1,0,0:0:0:0:
320,192,37774,1,0,0:0:0:0:
448,192,37946,1,2,0:0:0:0:
64,192,37946,1,0,0:0:0:0:
320,192,37946,1,0,0:0:0:0:
64,192,38117,1,0,0:0:0:0:
192,192,38117,1,0,0:0:0:0:
64,192,38288,1,0,0:0:0:0:
320,192,38288,1,2,0:0:0:0:
448,192,38288,1,0,0:0:0:0:
320,192,38460,1,0,0:0:0:0:
192,192,38460,1,0,0:0:0:0:
192,192,38631,1,0,0:0:0:0:
64,192,38631,1,0,0:0:0:0:
448,192,38631,1,2,0:0:0:0:
320,192,38803,1,0,0:0:0:0:
64,192,38803,1,0,0:0:0:0:
192,192,38974,1,0,0:0:0:0:
448,192,38974,1,2,0:0:0:0:
64,192,39317,1,0,0:0:0:0:
192,192,39317,1,0,0:0:0:0:
320,192,39317,1,2,0:0:0:0:
64,192,39574,1,0,0:0:0:0:
320,192,39574,1,0,0:0:0:0:
64,192,39660,1,0,0:0:0:0:
320,192,39660,1,2,0:0:0:0:
448,192,39660,1,0,0:0:0:0:
192,192,39831,1,0,0:0:0:0:
448,192,39831,1,0,0:0:0:0:
320,192,40003,1,2,0:0:0:0:
64,192,40174,1,0,0:0:0:0:
192,192,40174,1,0,0:0:0:0:
448,192,40346,1,2,0:0:0:0:
64,192,40517,1,0,0:0:0:0:
320,192,40517,1,0,0:0:0:0:
320,192,40688,1,0,0:0:0:0:
192,192,40688,1,2,0:0:0:0:
320,192,40860,1,0,0:0:0:0:
64,192,40860,1,0,0:0:0:0:
448,192,40860,1,0,0:0:0:0:
192,192,41031,1,0,0:0:0:0:
448,192,41031,1,2,0:0:0:0:
320,192,41203,1,0,0:0:0:0:
192,192,41203,1,0,0:0:0:0:
64,192,41203,1,0,0:0:0:0:
448,192,41374,1,2,0:0:0:0:
320,192,41374,1,0,0:0:0:0:
320,192,41546,1,0,0:0:0:0:
192,192,41546,1,0,0:0:0:0:
64,192,41717,1,0,0:0:0:0:
448,192,41717,1,2,0:0:0:0:
192,192,41717,1,0,0:0:0:0:
64,192,42060,1,2,0:0:0:0:
192,192,42060,1,0,0:0:0:0:
448,192,42060,1,0,0:0:0:0:
320,192,42317,1,0,0:0:0:0:
448,192,42317,1,0,0:0:0:0:
448,192,42403,1,0,0:0:0:0:
320,192,42403,1,0,0:0:0:0:
64,192,42403,1,2,0:0:0:0:
192,192,42574,1,0,0:0:0:0:
448,192,42574,1,0,0:0:0:0:
320,192,42746,1,2,0:0:0:0:
448,192,42917,1,0,0:0:0:0:
64,192,42917,1,0,0:0:0:0:
64,192,43088,1,0,0:0:0:0:
320,192,43088,1,2,0:0:0:0:
448,192,43088,1,0,0:0:0:0:
192,192,43174,1,0,0:0:0:0:
64,192,43260,1,0,0:0:0:0:
448,192,43260,1,0,0:0:0:0:
320,192,43346,1,0,0:0:0:0:
192,192,43431,1,0,0:0:0:0:
64,192,43431,1,0,0:0:0:0:
320,192,43517,1,0,0:0:0:0:
192,192,43603,1,0,0:0:0:0:
448,192,43603,1,0,0:0:0:0:
64,192,43688,1,0,0:0:0:0:
192,192,43774,1,0,0:0:0:0:
320,192,43774,1,0,0:0:0:0:
448,192,43860,1,0,0:0:0:0:
64,192,43946,1,0,0:0:0:0:
320,192,43946,1,0,0:0:0:0:
192,192,44031,1,0,0:0:0:0:
448,192,44117,1,0,0:0:0:0:
320,192,44117,1,0,0:0:0:0:
64,192,44203,1,0,0:0:0:0:
192,192,44288,1,0,0:0:0:0:
320,192,44288,1,0,0:0:0:0:
448,192,44374,1,0,0:0:0:0:
64,192,44460,1,0,0:0:0:0:
320,192,44460,1,0,0:0:0:0:
192,192,44460,1,0,0:0:0:0:
448,192,44546,1,0,0:0:0:0:
64,192,44631,1,0,0:0:0:0:
320,192,44631,1,0,0:0:0:0:
192,192,44717,1,0,0:0:0:0:
320,192,44803,1,0,0:0:0:0:
448,192,44888,1,0,0:0:0:0:
192,192,44974,1,0,0:0:0:0:
320,192,44974,1,0,0:0:0:0:
64,192,45060,1,0,0:0:0:0:
320,192,45146,1,0,0:0:0:0:
448,192,45231,1,0,0:0:0:0:
64,192,45317,1,0,0:0:0:0:
192,192,45317,1,0,0:0:0:0:
320,192,45403,1,0,0:0:0:0:
192,192,45488,1,0,0:0:0:0:
448,192,45574,1,0,0:0:0:0:
64,192,45660,1,0,0:0:0:0:
320,192,45660,1,0,0:0:0:0:
192,192,45746,1,0,0:0:0:0:
320,192,45831,1,2,0:0:0:0:
64,192,45831,1,0,0:0:0:0:
448,192,45831,1,0,0:0:0:0:
192,192,45917,1,0,0:0:0:0:
320,192,46003,1,0,0:0:0:0:
448,192,46003,1,0,0:0:0:0:
64,192,46088,1,0,0:0:0:0:
192,192,46088,1,0,0:0:0:0:
448,192,46174,1,0,0:0:0:0:
320,192,46174,1,0,0:0:0:0:
192,192,46260,1,0,0:0:0:0:
64,192,46346,1,0,0:0:0:0:
320,192,46346,1,0,0:0:0:0:
192,192,46431,1,0,0:0:0:0:
64,192,46517,1,0,0:0:0:0:
448,192,46517,1,0,0:0:0:0:
320,192,46603,1,0,0:0:0:0:
192,192,46688,1,0,0:0:0:0:
64,192,46688,1,0,0:0:0:0:
448,192,46774,1,0,0:0:0:0:
320,192,46774,1,0,0:0:0:0:
192,192,46860,1,0,0:0:0:0:
64,192,46946,1,0,0:0:0:0:
448,192,46946,1,0,0:0:0:0:
320,192,47031,1,0,0:0:0:0:
192,192,47031,1,0,0:0:0:0:
448,192,47117,1,0,0:0:0:0:
64,192,47203,1,0,0:0:0:0:
320,192,47203,1,0,0:0:0:0:
192,192,47288,1,0,0:0:0:0:
320,192,47374,1,0,0:0:0:0:
448,192,47374,1,0,0:0:0:0:
64,192,47460,1,0,0:0:0:0:
192,192,47460,1,0,0:0:0:0:
320,192,47546,1,0,0:0:0:0:
448,192,47546,1,0,0:0:0:0:
192,192,47631,1,0,0:0:0:0:
320,192,47717,1,0,0:0:0:0:
64,192,47717,1,0,0:0:0:0:
448,192,47803,1,0,0:0:0:0:
320,192,47888,1,0,0:0:0:0:
192,192,47888,1,0,0:0:0:0:
448,192,47974,1,0,0:0:0:0:
64,192,47974,1,0,0:0:0:0:
320,192,48060,1,0,0:0:0:0:
192,192,48060,1,0,0:0:0:0:
448,192,48146,1,0,0:0:0:0:
64,192,48146,1,0,0:0:0:0:
192,192,48231,1,0,0:0:0:0:
320,192,48317,1,0,0:0:0:0:
448,192,48317,1,0,0:0:0:0:
192,192,48403,1,0,0:0:0:0:
64,192,48403,1,0,0:0:0:0:
320,192,48488,1,0,0:0:0:0:
448,192,48574,1,0,0:0:0:0:
64,192,48574,1,0,0:0:0:0:
192,192,48660,1,0,0:0:0:0:
448,192,48746,1,0,0:0:0:0:
320,192,48746,1,0,0:0:0:0:
192,192,48831,1,0,0:0:0:0:
64,192,48831,1,0,0:0:0:0:
448,192,48917,1,0,0:0:0:0:
320,192,48917,1,0,0:0:0:0:
192,192,49003,1,0,0:0:0:0:
320,192,49088,1,0,0:0:0:0:
64,192,49088,1,0,0:0:0:0:
192,192,49174,1,0,0:0:0:0:
448,192,49260,1,0,0:0:0:0:
64,192,49260,1,0,0:0:0:0:
320,192,49346,1,0,0:0:0:0:
192,192,49431,1,0,0:0:0:0:
64,192,49431,1,0,0:0:0:0:
448,192,49517,1,0,0:0:0:0:
320,192,49517,1,0,0:0:0:0:
192,192,49603,1,0,0:0:0:0:
64,192,49688,1,0,0:0:0:0:
448,192,49688,1,0,0:0:0:0:
192,192,49774,1,0,0:0:0:0:
320,192,49774,1,0,0:0:0:0:
448,192,49860,1,0,0:0:0:0:
320,192,49946,1,0,0:0:0:0:
64,192,49946,1,0,0:0:0:0:
192,192,50031,1,0,0:0:0:0:
320,192,50117,1,0,0:0:0:0:
448,192,50117,1,0,0:0:0:0:
192,192,50203,1,0,0:0:0:0:
64,192,50203,1,0,0:0:0:0:
448,192,50288,1,0,0:0:0:0:
320,192,50288,1,0,0:0:0:0:
192,192,50374,1,0,0:0:0:0:
320,192,50460,1,0,0:0:0:0:
64,192,50460,1,0,0:0:0:0:
192,192,50546,1,0,0:0:0:0:
448,192,50631,1,0,0:0:0:0:
64,192,50631,1,0,0:0:0:0:
192,192,50717,1,0,0:0:0:0:
320,192,50717,1,0,0:0:0:0:
448,192,50803,1,0,0:0:0:0:
64,192,50803,1,0,0:0:0:0:
320,192,50888,1,0,0:0:0:0:
192,192,50888,1,0,0:0:0:0:
64,192,50974,1,0,0:0:0:0:
448,192,51060,1,0,0:0:0:0:
192,192,51060,1,0,0:0:0:0:
320,192,51146,1,0,0:0:0:0:
64,192,51146,1,0,0:0:0:0:
448,192,51231,1,0,0:0:0:0:
320,192,51317,1,0,0:0:0:0:
192,192,51317,1,0,0:0:0:0:
64,192,51403,1,0,0:0:0:0:
320,192,51488,1,0,0:0:0:0:
448,192,51488,1,0,0:0:0:0:
192,192,51574,1,0,0:0:0:0:
64,192,51574,1,0,0:0:0:0:
448,192,51660,1,0,0:0:0:0:
320,192,51660,1,0,0:0:0:0:
64,192,51746,1,0,0:0:0:0:
192,192,51831,1,0,0:0:0:0:
448,192,51831,1,0,0:0:0:0:
320,192,51917,1,0,0:0:0:0:
192,192,52003,1,0,0:0:0:0:
64,192,52003,1,0,0:0:0:0:
320,192,52088,1,0,0:0:0:0:
448,192,52174,1,0,0:0:0:0:
64,192,52174,1,0,0:0:0:0:
192,192,52260,1,0,0:0:0:0:
320,192,52260,1,0,0:0:0:0:
64,192,52346,1,0,0:0:0:0:
320,192,52431,1,0,0:0:0:0:
448,192,52431,1,0,0:0:0:0:
192,192,52517,1,0,0:0:0:0:
64,192,52517,1,0,0:0:0:0:
320,192,52603,1,0,0:0:0:0:
448,192,52688,1,0,0:0:0:0:
64,192,52688,1,0,0:0:0:0:
192,192,52774,1,0,0:0:0:0:
448,192,52860,1,0,0:0:0:0:
64,192,52860,1,0,0:0:0:0:
192,192,52946,1,0,0:0:0:0:
320,192,52946,1,0,0:0:0:0:
448,192,53031,1,0,0:0:0:0:
64,192,53031,1,0,0:0:0:0:
320,192,53117,1,0,0:0:0:0:
192,192,53203,1,0,0:0:0:0:
448,192,53203,1,0,0:0:0:0:
64,192,53288,1,0,0:0:0:0:
448,192,53374,1,0,0:0:0:0:
320,192,53374,1,0,0:0:0:0:
192,192,53460,1,0,0:0:0:0:
64,192,53460,1,0,0:0:0:0:
448,192,53546,1,0,0:0:0:0:
320,192,53546,1,0,0:0:0:0:
192,192,53631,1,0,0:0:0:0:
64,192,53631,1,0,0:0:0:0:
320,192,53717,1,0,0:0:0:0:
448,192,53803,1,0,0:0:0:0:
64,192,53803,1,0,0:0:0:0:
320,192,53888,1,0,0:0:0:0:
192,192,53888,1,0,0:0:0:0:
64,192,53974,1,0,0:0:0:0:
448,192,54060,1,0,0:0:0:0:
192,192,54060,1,0,0:0:0:0:
64,192,54146,1,0,0:0:0:0:
320,192,54146,1,0,0:0:0:0:
448,192,54231,1,0,0:0:0:0:
192,192,54231,1,0,0:0:0:0:
320,192,54317,1,0,0:0:0:0:
64,192,54317,1,0,0:0:0:0:
448,192,54403,1,0,0:0:0:0:
192,192,54403,1,0,0:0:0:0:
64,192,54488,1,0,0:0:0:0:
320,192,54488,1,0,0:0:0:0:
192,192,54574,1,0,0:0:0:0:
448,192,54574,1,0,0:0:0:0:
320,192,54660,1,0,0:0:0:0:
64,192,54746,1,0,0:0:0:0:
192,192,54746,1,0,0:0:0:0:
448,192,54831,1,0,0:0:0:0:
320,192,54831,1,0,0:0:0:0:
192,192,54917,1,0,0:0:0:0:
64,192,54917,1,0,0:0:0:0:
448,192,55003,1,0,0:0:0:0:
320,192,55003,1,0,0:0:0:0:
64,192,55088,1,0,0:0:0:0:
192,192,55088,1,0,0:0:0:0:
320,192,55174,1,0,0:0:0:0:
448,192,55174,1,0,0:0:0:0:
192,192,55260,1,0,0:0:0:0:
64,192,55260,1,0,0:0:0:0:
320,192,55346,1,0,0:0:0:0:
448,192,55431,1,0,0:0:0:0:
64,192,55431,1,0,0:0:0:0:
192,192,55517,1,0,0:0:0:0:
320,192,55517,1,0,0:0:0:0:
64,192,55603,1,0,0:0:0:0:
448,192,55603,1,0,0:0:0:0:
320,192,55688,1,0,0:0:0:0:
192,192,55688,1,0,0:0:0:0:
64,192,55774,1,0,0:0:0:0:
448,192,55774,1,0,0:0:0:0:
192,192,55860,1,0,0:0:0:0:
320,192,55860,1,0,0:0:0:0:
448,192,55946,1,0,0:0:0:0:
64,192,56031,1,0,0:0:0:0:
192,192,56031,1,0,0:0:0:0:
448,192,56117,1,0,0:0:0:0:
320,192,56117,1,0,0:0:0:0:
192,192,56203,1,0,0:0:0:0:
64,192,56203,1,0,0:0:0:0:
448,192,56288,1,0,0:0:0:0:
320,192,56288,1,0,0:0:0:0:
192,192,56374,1,0,0:0:0:0:
320,192,56460,1,8,0:0:0:0:
64,192,56460,1,0,0:0:0:0:
192,192,56546,1,0,0:0:0:0:
448,192,56546,1,0,0:0:0:0:
320,192,56631,1,0,0:0:0:0:
64,192,56631,1,0,0:0:0:0:
192,192,56717,1,0,0:0:0:0:
64,192,56803,5,0,0:0:0:0:
320,192,56803,1,0,0:0:0:0:
448,192,56803,1,2,0:0:0:0:
448,192,57317,1,2,0:0:0:0:
192,192,57317,1,0,0:0:0:0:
64,192,57317,1,0,0:0:0:0:
64,192,57660,1,0,0:0:0:0:
320,192,57660,1,0,0:0:0:0:
448,192,57660,1,2,0:0:0:0:
192,192,58003,1,0,0:0:0:0:
320,192,58003,1,2,0:0:0:0:
64,192,58003,1,0,0:0:0:0:
64,192,58346,1,0,0:0:0:0:
320,192,58346,1,2,0:0:0:0:
448,192,58346,1,0,0:0:0:0:
448,192,58517,1,2,0:0:0:0:
192,192,58517,1,0,0:0:0:0:
64,192,58517,1,0,0:0:0:0:
192,192,58860,1,0,0:0:0:0:
320,192,58860,1,0,0:0:0:0:
448,192,58860,1,2,0:0:0:0:
192,192,59546,1,2,0:0:0:0:
320,192,59546,1,0,0:0:0:0:
448,192,59546,1,0,0:0:0:0:
64,192,60060,1,0,0:0:0:0:
192,192,60060,1,2,0:0:0:0:
320,192,60060,1,0,0:0:0:0:
192,192,60403,1,2,0:0:0:0:
320,192,60403,1,0,0:0:0:0:
448,192,60403,1,0,0:0:0:0:
64,192,60746,1,0,0:0:0:0:
192,192,60746,1,2,0:0:0:0:
320,192,60746,1,0,0:0:0:0:
192,192,61088,1,2,0:0:0:0:
320,192,61088,1,0,0:0:0:0:
448,192,61088,1,0,0:0:0:0:
64,192,61260,1,2,0:0:0:0:
320,192,61260,1,0,0:0:0:0:
448,192,61260,1,0,0:0:0:0:
192,192,61603,1,2,0:0:0:0:
64,192,61603,1,0,0:0:0:0:
448,192,61603,1,0,0:0:0:0:
448,192,62288,1,2,0:0:0:0:
320,192,62288,1,0,0:0:0:0:
64,192,62288,1,0,0:0:0:0:
64,192,62803,1,0,0:0:0:0:
192,192,62803,1,0,0:0:0:0:
448,192,62803,1,2,0:0:0:0:
448,192,63146,1,2,0:0:0:0:
64,192,63146,1,0,0:0:0:0:
320,192,63146,1,0,0:0:0:0:
320,192,63488,1,0,0:0:0:0:
192,192,63488,1,0,0:0:0:0:
64,192,63488,1,2,0:0:0:0:
192,192,63831,1,0,0:0:0:0:
448,192,63831,1,0,0:0:0:0:
64,192,63831,1,2,0:0:0:0:
64,192,64003,1,2,0:0:0:0:
320,192,64003,1,0,0:0:0:0:
448,192,64003,1,0,0:0:0:0:
64,192,64346,1,0,0:0:0:0:
192,192,64346,1,0,0:0:0:0:
320,192,64346,1,2,0:0:0:0:
64,192,65031,1,0,0:0:0:0:
320,192,65031,1,0,0:0:0:0:
448,192,65031,1,2,0:0:0:0:
192,192,65546,1,0,0:0:0:0:
448,192,65546,1,2,0:0:0:0:
64,192,65546,1,0,0:0:0:0:
192,192,65888,1,0,0:0:0:0:
320,192,65888,1,0,0:0:0:0:
448,192,65888,1,2,0:0:0:0:
64,192,66231,1,0,0:0:0:0:
320,192,66231,1,2,0:0:0:0:
448,192,66231,1,0,0:0:0:0:
320,192,66574,1,0,0:0:0:0:
192,192,66574,1,2,0:0:0:0:
64,192,66574,1,0,0:0:0:0:
192,192,66746,1,2,0:0:0:0:
320,192,66746,1,0,0:0:0:0:
448,192,66746,1,0,0:0:0:0:
320,192,66917,1,0,0:0:0:0:
64,192,66917,1,0,0:0:0:0:
192,192,67088,1,2,0:0:0:0:
448,192,67088,1,0,0:0:0:0:
64,192,67088,1,0,0:0:0:0:
320,192,67431,1,8,0:0:0:0:
192,192,67431,1,0,0:0:0:0:
64,192,67774,1,0,0:0:0:0:
192,192,67774,1,2,0:0:0:0:
448,192,67774,128,0,68460:0:0:0:0:
320,192,67946,1,0,0:0:0:0:
192,192,68117,1,2,0:0:0:0:
64,192,68117,1,0,0:0:0:0:
192,192,68288,1,0,0:0:0:0:
320,192,68460,128,0,69146:0:0:0:0:
64,192,68460,1,2,0:0:0:0:
192,192,68631,1,0,0:0:0:0:
448,192,68803,1,0,0:0:0:0:
64,192,68803,1,2,0:0:0:0:
64,192,68974,1,0,0:0:0:0:
192,192,69146,128,0,69831:0:0:0:0:
448,192,69146,1,2,0:0:0:0:
320,192,69317,1,0,0:0:0:0:
64,192,69488,1,0,0:0:0:0:
448,192,69488,1,2,0:0:0:0:
448,192,69660,1,0,0:0:0:0:
64,192,69831,128,0,70517:0:0:0:0:
320,192,69831,1,2,0:0:0:0:
448,192,70003,1,0,0:0:0:0:
192,192,70174,1,2,0:0:0:0:
320,192,70174,1,0,0:0:0:0:
320,192,70346,1,0,0:0:0:0:
448,192,70517,128,0,71203:0:0:0:0:
192,192,70517,1,2,0:0:0:0:
64,192,70688,1,0,0:0:0:0:
320,192,70860,1,2,0:0:0:0:
192,192,70860,1,0,0:0:0:0:
64,192,71031,1,0,0:0:0:0:
320,192,71203,128,0,71888:0:0:0:0:
192,192,71203,1,2,0:0:0:0:
448,192,71374,1,0,0:0:0:0:
64,192,71546,1,2,0:0:0:0:
192,192,71546,1,0,0:0:0:0:
448,192,71717,1,0,0:0:0:0:
192,192,71888,128,2,72574:0:0:0:0:
64,192,71888,1,0,0:0:0:0:
448,192,72060,1,0,0:0:0:0:
64,192,72231,1,0,0:0:0:0:
320,192,72231,1,2,0:0:0:0:
320,192,72403,1,0,0:0:0:0:
448,192,72574,1,2,0:0:0:0:
64,192,72574,128,0,73260:0:0:0:0:
320,192,72746,1,0,0:0:0:0:
192,192,72917,1,2,0:0:0:0:
448,192,72917,1,0,0:0:0:0:
448,192,73088,1,0,0:0:0:0:
192,192,73260,1,2,0:0:0:0:
320,192,73260,1,0,0:0:0:0:
448,192,73346,1,2,0:0:0:0:
64,192,73431,1,2,0:0:0:0:
320,192,73431,1,0,0:0:0:0:
192,192,73517,1,2,0:0:0:0:
448,192,73603,1,0,0:0:0:0:
64,192,73603,1,2,0:0:0:0:
192,192,73688,1,2,0:0:0:0:
448,192,73774,1,2,0:0:0:0:
320,192,73774,1,0,0:0:0:0:
192,192,73860,1,2,0:0:0:0:
448,192,73946,1,0,0:0:0:0:
64,192,73946,1,2,0:0:0:0:
320,192,74031,1,2,0:0:0:0:
448,192,74117,1,2,0:0:0:0:
192,192,74117,1,0,0:0:0:0:
64,192,74203,1,2,0:0:0:0:
192,192,74288,1,2,0:0:0:0:
320,192,74288,1,0,0:0:0:0:
64,192,74374,1,2,0:0:0:0:
448,192,74460,1,2,0:0:0:0:
192,192,74460,1,0,0:0:0:0:
320,192,74546,1,2,0:0:0:0:
192,192,74631,1,0,0:0:0:0:
64,192,74631,1,2,0:0:0:0:
320,192,74717,1,2,0:0:0:0:
448,192,74803,1,0,0:0:0:0:
64,192,74803,1,2,0:0:0:0:
192,192,74888,1,2,0:0:0:0:
320,192,74974,1,0,0:0:0:0:
448,192,74974,1,2,0:0:0:0:
192,192,75060,1,2,0:0:0:0:
448,192,75146,1,0,0:0:0:0:
64,192,75146,1,2,0:0:0:0:
320,192,75231,1,2,0:0:0:0:
448,192,75317,1,2,0:0:0:0:
192,192,75317,1,0,0:0:0:0:
64,192,75403,1,2,0:0:0:0:
320,192,75488,1,0,0:0:0:0:
192,192,75488,1,2,0:0:0:0:
448,192,75574,1,2,0:0:0:0:
320,192,75660,1,0,0:0:0:0:
64,192,75660,1,2,0:0:0:0:
192,192,75746,1,2,0:0:0:0:
448,192,75831,1,2,0:0:0:0:
320,192,75831,1,0,0:0:0:0:
192,192,75917,1,2,0:0:0:0:
64,192,76003,1,2,0:0:0:0:
448,192,76003,1,0,0:0:0:0:
192,192,76088,1,2,0:0:0:0:
320,192,76174,1,0,0:0:0:0:
448,192,76174,1,2,0:0:0:0:
64,192,76260,1,2,0:0:0:0:
320,192,76346,1,2,0:0:0:0:
192,192,76346,1,0,0:0:0:0:
448,192,76431,1,2,0:0:0:0:
64,192,76517,1,2,0:0:0:0:
320,192,76517,1,0,0:0:0:0:
448,192,76603,1,2,0:0:0:0:
64,192,76688,1,2,0:0:0:0:
192,192,76688,1,0,0:0:0:0:
448,192,76774,1,2,0:0:0:0:
64,192,76860,1,2,0:0:0:0:
320,192,76860,1,0,0:0:0:0:
192,192,76946,1,2,0:0:0:0:
448,192,77031,1,0,0:0:0:0:
64,192,77031,1,2,0:0:0:0:
192,192,77117,1,2,0:0:0:0:
448,192,77203,1,2,0:0:0:0:
320,192,77203,1,0,0:0:0:0:
192,192,77288,1,0,0:0:0:0:
64,192,77374,1,0,0:0:0:0:
448,192,77374,1,0,0:0:0:0:
320,192,77460,1,0,0:0:0:0:
64,192,77546,1,0,0:0:0:0:
448,192,77631,1,0,0:0:0:0:
192,192,77717,1,0,0:0:0:0:
64,192,77803,1,0,0:0:0:0:
448,192,77888,1,0,0:0:0:0:
192,192,77974,1,0,0:0:0:0:
448,192,78060,1,0,0:0:0:0:
320,192,78146,1,0,0:0:0:0:
64,192,78231,1,0,0:0:0:0:
448,192,78317,1,0,0:0:0:0:
320,192,78403,1,0,0:0:0:0:
64,192,78403,1,8,0:0:0:0:
64,192,78746,5,0,0:0:0:0:
448,192,78746,1,0,0:0:0:0:
320,192,78746,1,2,0:0:0:0:
192,192,78917,1,0,0:0:0:0:
64,192,79088,1,0,0:0:0:0:
448,192,79088,1,2,0:0:0:0:
192,192,79260,1,0,0:0:0:0:
320,192,79260,1,0,0:0:0:0:
448,192,79260,1,0,0:0:0:0:
64,192,79431,1,2,0:0:0:0:
448,192,79603,1,0,0:0:0:0:
192,192,79603,1,0,0:0:0:0:
64,192,79603,1,0,0:0:0:0:
320,192,79774,1,2,0:0:0:0:
64,192,79774,1,0,0:0:0:0:
192,192,79946,1,0,0:0:0:0:
320,192,79946,1,0,0:0:0:0:
448,192,79946,1,0,0:0:0:0:
192,192,80117,1,2,0:0:0:0:
64,192,80288,1,0,0:0:0:0:
448,192,80288,1,0,0:0:0:0:
320,192,80288,1,0,0:0:0:0:
448,192,80460,1,0,0:0:0:0:
192,192,80460,1,2,0:0:0:0:
64,192,80460,1,0,0:0:0:0:
320,192,80631,1,0,0:0:0:0:
192,192,80803,1,0,0:0:0:0:
448,192,80803,1,0,0:0:0:0:
320,192,80803,1,2,0:0:0:0:
64,192,80974,1,0,0:0:0:0:
192,192,81146,1,2,0:0:0:0:
448,192,81146,1,0,0:0:0:0:
320,192,81317,1,0,0:0:0:0:
64,192,81488,1,2,0:0:0:0:
320,192,81488,1,0,0:0:0:0:
448,192,81488,1,0,0:0:0:0:
192,192,81660,1,0,0:0:0:0:
320,192,81831,1,2,0:0:0:0:
448,192,81831,1,0,0:0:0:0:
192,192,82003,1,0,0:0:0:0:
64,192,82003,1,0,0:0:0:0:
448,192,82003,1,0,0:0:0:0:
320,192,82174,1,2,0:0:0:0:
192,192,82346,1,0,0:0:0:0:
320,192,82346,1,0,0:0:0:0:
448,192,82346,1,0,0:0:0:0:
320,192,82517,1,0,0:0:0:0:
64,192,82517,1,2,0:0:0:0:
192,192,82688,1,0,0:0:0:0:
448,192,82688,1,0,0:0:0:0:
64,192,82688,1,0,0:0:0:0:
320,192,82860,1,2,0:0:0:0:
192,192,83031,1,0,0:0:0:0:
320,192,83031,1,0,0:0:0:0:
448,192,83031,1,0,0:0:0:0:
64,192,83203,1,0,0:0:0:0:
320,192,83203,1,0,0:0:0:0:
448,192,83203,1,2,0:0:0:0:
192,192,83374,1,0,0:0:0:0:
64,192,83546,1,2,0:0:0:0:
192,192,83546,1,0,0:0:0:0:
448,192,83546,1,0,0:0:0:0:
320,192,83717,1,0,0:0:0:0:
64,192,83888,1,2,0:0:0:0:
448,192,84060,1,0,0:0:0:0:
320,192,84231,1,2,0:0:0:0:
192,192,84231,1,0,0:0:0:0:
64,192,84231,1,0,0:0:0:0:
192,192,84403,1,0,0:0:0:0:
448,192,84574,1,2,0:0:0:0:
64,192,84574,1,0,0:0:0:0:
192,192,84746,1,0,0:0:0:0:
320,192,84746,1,0,0:0:0:0:
448,192,84746,1,0,0:0:0:0:
64,192,84917,1,2,0:0:0:0:
320,192,85088,1,0,0:0:0:0:
64,192,85088,1,0,0:0:0:0:
448,192,85088,1,0,0:0:0:0:
192,192,85260,1,2,0:0:0:0:
320,192,85260,1,0,0:0:0:0:
64,192,85431,1,0,0:0:0:0:
192,192,85431,1,0,0:0:0:0:
448,192,85431,1,0,0:0:0:0:
320,192,85603,1,2,0:0:0:0:
192,192,85774,1,0,0:0:0:0:
320,192,85774,1,0,0:0:0:0:
448,192,85774,1,0,0:0:0:0:
64,192,85946,1,2,0:0:0:0:
192,192,85946,1,0,0:0:0:0:
448,192,85946,1,0,0:0:0:0:
320,192,86117,1,0,0:0:0:0:
320,192,86288,1,0,0:0:0:0:
192,192,86288,1,0,0:0:0:0:
64,192,86288,1,2,0:0:0:0:
448,192,86460,1,0,0:0:0:0:
320,192,86631,1,2,0:0:0:0:
64,192,86631,1,0,0:0:0:0:
192,192,86803,1,0,0:0:0:0:
64,192,86974,1,0,0:0:0:0:
192,192,86974,1,0,0:0:0:0:
448,192,86974,1,2,0:0:0:0:
64,192,87146,1,0,0:0:0:0:
448,192,87317,1,0,0:0:0:0:
192,192,87317,1,2,0:0:0:0:
320,192,87488,1,0,0:0:0:0:
64,192,87488,1,0,0:0:0:0:
448,192,87488,1,0,0:0:0:0:
192,192,87660,1,2,0:0:0:0:
64,192,87831,1,0,0:0:0:0:
448,192,87831,1,0,0:0:0:0:
320,192,87831,1,0,0:0:0:0:
320,192,88003,1,2,0:0:0:0:
192,192,88003,1,0,0:0:0:0:
320,192,88174,1,0,0:0:0:0:
64,192,88174,1,0,0:0:0:0:
448,192,88174,1,0,0:0:0:0:
192,192,88346,1,2,0:0:0:0:
64,192,88517,1,0,0:0:0:0:
320,192,88517,1,0,0:0:0:0:
448,192,88517,1,0,0:0:0:0:
192,192,88688,1,0,0:0:0:0:
64,192,88688,1,0,0:0:0:0:
448,192,88688,1,2,0:0:0:0:
320,192,88860,1,0,0:0:0:0:
192,192,88860,1,0,0:0:0:0:
64,192,88860,1,0,0:0:0:0:
448,192,89031,1,0,0:0:0:0:
320,192,89031,1,0,0:0:0:0:
192,192,89031,1,2,0:0:0:0:
64,192,89203,1,0,0:0:0:0:
192,192,89374,1,0,0:0:0:0:
320,192,89374,1,2,0:0:0:0:
448,192,89546,1,2,0:0:0:0:
192,192,89546,1,0,0:0:0:0:
448,192,89717,1,0,0:0:0:0:
64,192,89717,1,0,0:0:0:0:
320,192,89888,1,0,0:0:0:0:
192,192,90060,1,2,0:0:0:0:
64,192,90060,1,0,0:0:0:0:
448,192,90060,1,0,0:0:0:0:
320,192,90231,1,0,0:0:0:0:
448,192,90231,1,0,0:0:0:0:
64,192,90231,1,0,0:0:0:0:
64,192,90403,1,0,0:0:0:0:
448,192,90403,1,2,0:0:0:0:
192,192,90574,1,0,0:0:0:0:
320,192,90574,1,0,0:0:0:0:
448,192,90574,1,0,0:0:0:0:
64,192,90746,1,0,0:0:0:0:
192,192,90746,1,2,0:0:0:0:
320,192,90746,1,0,0:0:0:0:
192,192,90917,1,0,0:0:0:0:
448,192,90917,1,0,0:0:0:0:
64,192,90917,1,0,0:0:0:0:
64,192,91088,1,0,0:0:0:0:
448,192,91088,1,2,0:0:0:0:
64,192,91260,1,0,0:0:0:0:
320,192,91260,1,0,0:0:0:0:
448,192,91260,1,0,0:0:0:0:
64,192,91431,1,0,0:0:0:0:
192,192,91431,1,2,0:0:0:0:
320,192,91431,1,0,0:0:0:0:
448,192,91603,1,0,0:0:0:0:
448,192,91774,1,0,0:0:0:0:
64,192,91774,1,0,0:0:0:0:
192,192,91774,1,2,0:0:0:0:
320,192,91946,1,0,0:0:0:0:
64,192,92117,1,0,0:0:0:0:
320,192,92117,1,2,0:0:0:0:
448,192,92117,1,0,0:0:0:0:
192,192,92288,1,0,0:0:0:0:
64,192,92460,1,2,0:0:0:0:
192,192,92460,1,0,0:0:0:0:
320,192,92460,1,0,0:0:0:0:
64,192,92631,1,0,0:0:0:0:
192,192,92803,1,0,0:0:0:0:
320,192,92803,1,2,0:0:0:0:
448,192,92803,1,0,0:0:0:0:
64,192,92974,1,0,0:0:0:0:
192,192,92974,1,0,0:0:0:0:
448,192,92974,1,0,0:0:0:0:
448,192,93146,1,2,0:0:0:0:
64,192,93146,1,0,0:0:0:0:
320,192,93317,1,0,0:0:0:0:
448,192,93317,1,0,0:0:0:0:
64,192,93317,1,0,0:0:0:0:
64,192,93488,1,0,0:0:0:0:
192,192,93488,1,2,0:0:0:0:
320,192,93488,1,0,0:0:0:0:
448,192,93660,1,0,0:0:0:0:
320,192,93660,1,0,0:0:0:0:
192,192,93660,1,0,0:0:0:0:
64,192,93831,1,0,0:0:0:0:
448,192,93831,1,2,0:0:0:0:
448,192,94003,1,0,0:0:0:0:
320,192,94003,1,0,0:0:0:0:
64,192,94003,1,0,0:0:0:0:
192,192,94174,1,0,0:0:0:0:
64,192,94174,1,2,0:0:0:0:
448,192,94174,1,0,0:0:0:0:
320,192,94346,1,0,0:0:0:0:
448,192,94517,1,0,0:0:0:0:
320,192,94517,1,2,0:0:0:0:
192,192,94517,1,0,0:0:0:0:
192,192,94688,1,0,0:0:0:0:
64,192,94860,1,0,0:0:0:0:
320,192,94860,1,0,0:0:0:0:
448,192,94860,1,2,0:0:0:0:
64,192,95031,1,0,0:0:0:0:
192,192,95203,1,2,0:0:0:0:
320,192,95203,1,0,0:0:0:0:
448,192,95203,1,0,0:0:0:0:
320,192,95374,1,0,0:0:0:0:
192,192,95546,1,0,0:0:0:0:
64,192,95546,1,2,0:0:0:0:
448,192,95546,1,0,0:0:0:0:
448,192,95717,1,0,0:0:0:0:
320,192,95717,1,0,0:0:0:0:
192,192,95717,1,0,0:0:0:0:
64,192,95888,1,0,0:0:0:0:
448,192,95888,1,2,0:0:0:0:
192,192,96060,1,0,0:0:0:0:
64,192,96060,1,0,0:0:0:0:
448,192,96060,1,0,0:0:0:0:
192,192,96231,1,2,0:0:0:0:
320,192,96231,1,0,0:0:0:0:
64,192,96231,1,0,0:0:0:0:
448,192,96403,1,0,0:0:0:0:
320,192,96403,1,0,0:0:0:0:
64,192,96403,1,0,0:0:0:0:
64,192,96574,1,2,0:0:0:0:
448,192,96574,1,0,0:0:0:0:
192,192,96574,1,0,0:0:0:0:
320,192,96746,1,0,0:0:0:0:
192,192,96917,1,0,0:0:0:0:
320,192,96917,1,2,0:0:0:0:
448,192,96917,1,0,0:0:0:0:
64,192,97088,1,0,0:0:0:0:
320,192,97260,1,0,0:0:0:0:
192,192,97260,1,2,0:0:0:0:
64,192,97260,1,0,0:0:0:0:
448,192,97431,1,0,0:0:0:0:
320,192,97603,1,0,0:0:0:0:
448,192,97603,1,2,0:0:0:0:
64,192,97603,1,0,0:0:0:0:
192,192,97774,1,0,0:0:0:0:
64,192,97946,1,2,0:0:0:0:
192,192,97946,1,0,0:0:0:0:
448,192,97946,1,0,0:0:0:0:
320,192,98031,1,0,0:0:0:0:
64,192,98117,1,0,0:0:0:0:
448,192,98203,1,0,0:0:0:0:
320,192,98288,1,2,0:0:0:0:
192,192,98288,1,0,0:0:0:0:
64,192,98374,1,0,0:0:0:0:
192,192,98460,1,0,0:0:0:0:
320,192,98460,1,0,0:0:0:0:
448,192,98460,1,0,0:0:0:0:
64,192,98546,1,0,0:0:0:0:
448,192,98631,1,0,0:0:0:0:
320,192,98631,1,2,0:0:0:0:
192,192,98717,1,0,0:0:0:0:
320,192,98803,1,0,0:0:0:0:
448,192,98803,1,0,0:0:0:0:
64,192,98803,1,0,0:0:0:0:
192,192,98888,1,0,0:0:0:0:
64,192,98974,1,0,0:0:0:0:
448,192,98974,1,2,0:0:0:0:
320,192,99060,1,0,0:0:0:0:
192,192,99146,1,0,0:0:0:0:
448,192,99146,1,0,0:0:0:0:
64,192,99146,1,0,0:0:0:0:
320,192,99231,1,0,0:0:0:0:
448,192,99317,1,0,0:0:0:0:
64,192,99317,1,2,0:0:0:0:
192,192,99403,1,0,0:0:0:0:
64,192,99488,1,0,0:0:0:0:
320,192,99488,1,0,0:0:0:0:
448,192,99488,1,0,0:0:0:0:
192,192,99574,1,0,0:0:0:0:
448,192,99660,1,0,0:0:0:0:
320,192,99660,1,0,0:0:0:0:
64,192,99660,1,0,0:0:0:0:
192,192,99746,1,0,0:0:0:0:
64,192,99831,1,0,0:0:0:0:
448,192,99831,1,0,0:0:0:0:
320,192,99917,1,0,0:0:0:0:
192,192,100003,1,0,0:0:0:0:
64,192,100003,1,0,0:0:0:0:
448,192,100003,1,0,0:0:0:0:
320,192,100088,1,0,0:0:0:0:
64,192,100174,1,0,0:0:0:0:
448,192,100260,1,0,0:0:0:0:
192,192,100346,1,8,0:0:0:0:
320,192,100346,1,0,0:0:0:0:
64,192,100688,1,0,0:0:0:0:
192,192,100688,1,2,0:0:0:0:
448,192,100688,1,0,0:0:0:0:
320,192,100774,1,0,0:0:0:0:
64,192,100860,1,0,0:0:0:0:
192,192,100860,1,0,0:0:0:0:
448,192,100946,1,0,0:0:0:0:
320,192,100946,1,0,0:0:0:0:
64,192,101031,1,0,0:0:0:0:
192,192,101031,1,2,0:0:0:0:
320,192,101117,1,0,0:0:0:0:
448,192,101203,1,0,0:0:0:0:
64,192,101203,1,0,0:0:0:0:
192,192,101288,1,0,0:0:0:0:
320,192,101374,1,2,0:0:0:0:
64,192,101374,1,0,0:0:0:0:
448,192,101460,1,0,0:0:0:0:
320,192,101546,1,0,0:0:0:0:
192,192,101546,1,0,0:0:0:0:
64,192,101631,1,0,0:0:0:0:
192,192,101717,1,2,0:0:0:0:
448,192,101717,1,0,0:0:0:0:
320,192,101803,1,0,0:0:0:0:
64,192,101888,1,0,0:0:0:0:
448,192,101888,1,0,0:0:0:0:
192,192,101974,1,0,0:0:0:0:
320,192,101974,1,0,0:0:0:0:
64,192,102060,1,2,0:0:0:0:
448,192,102060,1,0,0:0:0:0:
320,192,102146,1,0,0:0:0:0:
448,192,102231,1,0,0:0:0:0:
192,192,102231,1,0,0:0:0:0:
64,192,102317,5,0,0:0:0:0:
320,192,102317,1,0,0:0:0:0:
192,192,102403,1,2,0:0:0:0:
448,192,102403,1,0,0:0:0:0:
320,192,102488,1,0,0:0:0:0:
64,192,102574,1,0,0:0:0:0:
448,192,102574,1,0,0:0:0:0:
192,192,102660,1,0,0:0:0:0:
320,192,102746,1,2,0:0:0:0:
64,192,102746,1,0,0:0:0:0:
448,192,102831,1,0,0:0:0:0:
192,192,102831,1,0,0:0:0:0:
320,192,102917,1,0,0:0:0:0:
64,192,102917,1,0,0:0:0:0:
448,192,103003,1,0,0:0:0:0:
192,192,103003,1,0,0:0:0:0:
64,192,103088,1,2,0:0:0:0:
320,192,103174,1,0,0:0:0:0:
448,192,103174,1,0,0:0:0:0:
192,192,103260,1,0,0:0:0:0:
64,192,103260,1,0,0:0:0:0:
320,192,103346,1,0,0:0:0:0:
448,192,103431,5,0,0:0:0:0:
64,192,103431,1,2,0:0:0:0:
192,192,103517,1,0,0:0:0:0:
320,192,103603,1,0,0:0:0:0:
448,192,103603,1,0,0:0:0:0:
192,192,103688,5,0,0:0:0:0:
64,192,103688,1,0,0:0:0:0:
448,192,103774,1,0,0:0:0:0:
320,192,103774,1,2,0:0:0:0:
192,192,103860,1,0,0:0:0:0:
320,192,103946,1,0,0:0:0:0:
64,192,103946,1,0,0:0:0:0:
192,192,104031,1,0,0:0:0:0:
320,192,104117,1,2,0:0:0:0:
448,192,104117,1,0,0:0:0:0:
192,192,104203,1,0,0:0:0:0:
64,192,104288,1,0,0:0:0:0:
448,192,104288,1,0,0:0:0:0:
192,192,104374,1,0,0:0:0:0:
320,192,104374,1,0,0:0:0:0:
64,192,104460,1,2,0:0:0:0:
192,192,104546,1,0,0:0:0:0:
448,192,104546,1,0,0:0:0:0:
320,192,104631,1,0,0:0:0:0:
64,192,104631,1,0,0:0:0:0:
448,192,104717,1,0,0:0:0:0:
192,192,104803,5,0,0:0:0:0:
320,192,104803,1,2,0:0:0:0:
64,192,104888,1,0,0:0:0:0:
192,192,104974,1,0,0:0:0:0:
448,192,104974,1,0,0:0:0:0:
320,192,105060,5,0,0:0:0:0:
64,192,105060,1,0,0:0:0:0:
448,192,105146,1,2,0:0:0:0:
192,192,105146,1,0,0:0:0:0:
64,192,105231,1,0,0:0:0:0:
320,192,105317,1,0,0:0:0:0:
448,192,105317,1,0,0:0:0:0:
192,192,105403,1,0,0:0:0:0:
320,192,105488,1,0,0:0:0:0:
64,192,105488,1,2,0:0:0:0:
448,192,105574,1,0,0:0:0:0:
192,192,105574,1,0,0:0:0:0:
64,192,105660,1,0,0:0:0:0:
320,192,105660,1,0,0:0:0:0:
448,192,105746,1,0,0:0:0:0:
192,192,105746,1,0,0:0:0:0:
320,192,105831,1,2,0:0:0:0:
192,192,105917,1,0,0:0:0:0:
64,192,105917,1,0,0:0:0:0:
320,192,106003,1,0,0:0:0:0:
448,192,106003,1,0,0:0:0:0:
192,192,106088,1,0,0:0:0:0:
64,192,106174,5,2,0:0:0:0:
320,192,106174,1,0,0:0:0:0:
448,192,106174,1,0,0:0:0:0:
192,192,106260,1,0,0:0:0:0:
64,192,106346,1,0,0:0:0:0:
448,192,106346,1,0,0:0:0:0:
192,192,106431,5,0,0:0:0:0:
320,192,106431,1,0,0:0:0:0:
64,192,106517,1,0,0:0:0:0:
448,192,106517,1,2,0:0:0:0:
320,192,106603,1,0,0:0:0:0:
448,192,106688,1,0,0:0:0:0:
64,192,106688,1,0,0:0:0:0:
320,192,106774,1,0,0:0:0:0:
64,192,106860,5,0,0:0:0:0:
192,192,106860,1,2,0:0:0:0:
320,192,106946,5,0,0:0:0:0:
448,192,106946,1,0,0:0:0:0:
192,192,107031,5,0,0:0:0:0:
320,192,107117,5,0,0:0:0:0:
64,192,107117,1,0,0:0:0:0:
448,192,107203,5,2,0:0:0:0:
192,192,107288,5,0,0:0:0:0:
320,192,107288,1,0,0:0:0:0:
448,192,107374,5,0,0:0:0:0:
64,192,107374,1,0,0:0:0:0:
192,192,107460,5,0,0:0:0:0:
448,192,107546,5,0,0:0:0:0:
64,192,107546,1,2,0:0:0:0:
320,192,107631,1,0,0:0:0:0:
192,192,107717,1,0,0:0:0:0:
64,192,107717,1,0,0:0:0:0:
448,192,107803,5,0,0:0:0:0:
320,192,107803,1,0,0:0:0:0:
64,192,107888,1,0,0:0:0:0:
192,192,107888,1,2,0:0:0:0:
320,192,107974,1,0,0:0:0:0:
448,192,108060,1,0,0:0:0:0:
64,192,108060,1,0,0:0:0:0:
192,192,108146,1,0,0:0:0:0:
448,192,108231,1,2,0:0:0:0:
320,192,108231,1,0,0:0:0:0:
64,192,108317,5,0,0:0:0:0:
192,192,108317,1,0,0:0:0:0:
448,192,108403,5,0,0:0:0:0:
320,192,108403,1,0,0:0:0:0:
192,192,108488,5,0,0:0:0:0:
64,192,108488,1,0,0:0:0:0:
320,192,108574,5,2,0:0:0:0:
192,192,108660,5,0,0:0:0:0:
448,192,108660,1,0,0:0:0:0:
320,192,108746,5,0,0:0:0:0:
64,192,108746,1,0,0:0:0:0:
192,192,108831,5,0,0:0:0:0:
448,192,108917,5,0,0:0:0:0:
320,192,108917,1,0,0:0:0:0:
64,192,108917,1,2,0:0:0:0:
192,192,109003,1,0,0:0:0:0:
448,192,109088,1,0,0:0:0:0:
64,192,109088,1,0,0:0:0:0:
320,192,109174,1,0,0:0:0:0:
192,192,109174,1,0,0:0:0:0:
64,192,109260,1,0,0:0:0:0:
448,192,109260,1,0,0:0:0:0:
320,192,109346,1,0,0:0:0:0:
192,192,109346,1,0,0:0:0:0:
448,192,109431,1,0,0:0:0:0:
64,192,109517,1,0,0:0:0:0:
320,192,109517,1,0,0:0:0:0:
448,192,109603,5,0,0:0:0:0:
192,192,109603,1,0,0:0:0:0:
64,192,109688,5,0,0:0:0:0:
320,192,109688,1,0,0:0:0:0:
192,192,109774,5,0,0:0:0:0:
448,192,109774,1,0,0:0:0:0:
320,192,109860,5,0,0:0:0:0:
192,192,109946,5,0,0:0:0:0:
64,192,109946,1,0,0:0:0:0:
320,192,110031,5,0,0:0:0:0:
448,192,110031,1,0,0:0:0:0:
64,192,110117,5,0,0:0:0:0:
192,192,110203,5,0,0:0:0:0:
320,192,110203,1,0,0:0:0:0:
448,192,110288,5,0,0:0:0:0:
64,192,110288,1,0,0:0:0:0:
320,192,110374,1,0,0:0:0:0:
64,192,110460,1,0,0:0:0:0:
448,192,110546,5,0,0:0:0:0:
192,192,110631,5,0,0:0:0:0:
64,192,110717,5,0,0:0:0:0:
448,192,110803,5,0,0:0:0:0:
320,192,110888,5,0,0:0:0:0:
192,192,110974,5,0,0:0:0:0:
64,192,111060,5,0,0:0:0:0:
448,192,111146,5,0,0:0:0:0:
64,192,111231,1,0,0:0:0:0:
320,192,111317,5,8,0:0:0:0:
192,192,111317,1,0,0:0:0:0:
448,192,111403,5,0,0:0:0:0:
64,192,111488,1,0,0:0:0:0:
320,192,111574,1,0,0:0:0:0:
64,192,111660,5,0,0:0:0:0:
192,192,111660,1,2,0:0:0:0:
448,192,111660,1,0,0:0:0:0:
