osu file format v14

[General]
AudioFilename: Homestuck - Cascade.mp3
AudioLeadIn: 3000
PreviewTime: 333400
Countdown: 0
SampleSet: Soft
StackLeniency: 0.7
Mode: 0
LetterboxInBreaks: 0
EpilepsyWarning: 1
WidescreenStoryboard: 0

[Editor]
Bookmarks: 19104,31104,45104,52604,65270,69104,85104,90770,93270,108597,113097,124597,159351,167185,175185,183685,207185,215685,223185,231185,239185,247185,268040,301373,321095,366896,368896,376896,407232,430272,450432,465792,481152,496512,511872,527232,542592,557952,573312,588672,604512,619872,627072,634752,671010,691903,696724,709581,722438,748153
DistanceSpacing: 2
BeatDivisor: 6
GridSize: 8
TimelineZoom: 1

[Metadata]
Title:Cascade
TitleUnicode:Cascade
Artist:Homestuck
ArtistUnicode:Homestuck
Creator:DrIce
Version:Marathon
Source:Homestuck
Tags:mspaintadventures
BeatmapID:126044
BeatmapSetID:39571

[Difficulty]
HPDrainRate:6
CircleSize:4
OverallDifficulty:7
ApproachRate:8
SliderMultiplier:1.60000000596047
SliderTickRate:1

[Events]
//Background and Video events
Video,699,"Cascade.flv"
0,0,"skaia1440x900.jpg",0,0
//Break Periods
2,35304,44354
2,93137,108181
2,159381,166435
2,247385,267290
2,377096,391122
2,430232,434322
2,634712,644546
2,743531,747403
//Storyboard Layer 0 (Background)
//Storyboard Layer 1 (Fail)
//Storyboard Layer 2 (Pass)
//Storyboard Layer 3 (Foreground)
//Storyboard Sound Samples

[TimingPoints]
1104,500,4,2,0,69,1,0
60979,-66.6666666666667,4,2,0,69,0,0
69104,-66.6666666666667,4,2,0,69,0,1
90937,-66.6666666666667,4,2,0,69,0,0
93479,500,4,2,0,69,1,0
94931,500,4,2,0,69,1,0
108806,-100,4,2,0,69,0,0
159185,500,4,2,0,69,1,0
268040,416.666666666667,4,2,0,69,1,0
321373,410.958904109589,4,2,0,69,1,0
322194,405.405405405405,4,2,0,69,1,0
323004,400,4,2,0,69,1,0
323804,394.736842105263,4,2,0,69,1,0
324593,389.61038961039,4,2,0,69,1,0
325372,384.615384615385,4,2,0,69,1,0
326141,379.746835443038,4,2,0,69,1,0
326900,375,4,2,0,69,1,0
327650,370.37037037037,4,2,0,69,1,0
328390,365.853658536585,4,2,0,69,1,0
329121,361.44578313253,4,2,0,69,1,0
332012,357.142857142857,4,2,0,69,1,0
333400,337.078651685393,4,2,0,69,1,0
334748,333.333333333333,4,2,0,69,1,0
336081,329.67032967033,4,2,0,69,1,0
337399,326.086956521739,4,2,0,69,1,0
338703,315.789473684211,4,2,0,69,1,0
339979,306.122448979592,4,2,0,69,1,0
341203,303.030303030303,4,2,0,69,1,0
343634,291.26213592233,4,2,0,69,1,0
344799,288.461538461538,4,2,0,69,1,0
345952,285.714285714286,4,2,0,69,1,0
347094,283.018867924528,4,2,0,69,1,0
348226,280.373831775701,4,2,0,69,1,0
349347,277.777777777778,4,2,0,69,1,0
350458,275.229357798165,4,2,0,69,1,0
351558,267.857142857143,4,2,0,69,1,0
352629,260.869565217391,4,2,0,69,1,1
357846,254.237288135593,4,2,0,69,1,1
360896,250,4,2,0,69,1,1
377896,-100,4,2,0,69,0,0
391872,480,4,2,0,69,1,0
435072,480,4,2,0,69,1,0
511872,-66.6666666666667,4,2,0,69,0,0
527232,-100,4,2,0,69,0,0
645296,535.714285714286,3,2,0,69,1,0
671010,-133.333333333333,3,2,0,69,0,0
696724,-100,3,2,0,69,0,0
722438,-66.6666666666667,3,2,0,69,0,0
727796,-100,3,2,0,69,0,0
770653,571.428571428571,3,2,0,69,1,0
771795,631.578947368421,3,2,0,69,1,0
772426,705.882352941176,3,2,0,69,1,0
773837,800,3,2,0,69,1,0
783905,428.571428571429,3,2,0,69,1,0

[Colours]
Combo1 : 185,0,255
Combo2 : 5,240,5
Combo3 : 5,5,240
Combo4 : 240,5,5

[HitObjects]
176,232,1104,37,0,0:0:0:0:
256,128,1604,1,0,0:0:0:0:
328,232,2104,1,0,0:0:0:0:
256,192,2354,5,0,0:0:0:0:
256,192,2520,1,0,0:0:0:0:
256,192,2687,1,0,0:0:0:0:
256,192,2854,1,8,0:0:0:0:
64,48,3104,5,0,0:0:0:0:
176,160,3354,1,0,0:0:0:0:
76,285,3604,1,8,0:0:0:0:
232,288,3854,1,0,0:0:0:0:
296,208,4020,2,0,L|376:104,1,106.666667064031
408,64,4604,1,2,0:0:0:0:
408,312,5104,5,0,0:0:0:0:
304,192,5354,1,0,0:0:0:0:
408,64,5604,1,0,0:0:0:0:
248,64,5854,2,4,L|88:272,1,240.00000089407
120,64,7104,5,0,0:0:0:0:
256,152,7354,1,0,0:0:0:0:
392,64,7604,1,0,0:0:0:0:
392,224,7854,1,0,0:0:0:0:
392,328,8020,2,0,L|264:304,1,106.666667064031
128,280,8604,1,8,0:0:0:0:
400,64,9104,5,0,0:0:0:0:
304,192,9354,1,0,0:0:0:0:
400,320,9604,1,0,0:0:0:0:
240,320,9854,2,4,L|72:128,1,240.00000089407
376,272,11104,5,0,0:0:0:0:
240,184,11354,1,0,0:0:0:0:
376,104,11604,1,8,0:0:0:0:
232,32,11854,1,0,0:0:0:0:
152,104,12020,2,0,L|72:208,1,106.666667064031
216,288,12604,1,0,0:0:0:0:
440,56,13104,5,0,0:0:0:0:
320,160,13354,1,0,0:0:0:0:
440,272,13604,1,0,0:0:0:0:
280,280,13854,2,4,L|104:104,1,240.00000089407
88,56,15104,5,0,0:0:0:0:
224,144,15354,1,0,0:0:0:0:
96,240,15604,1,0,0:0:0:0:
232,320,15853,1,4,0:0:0:0:
280,224,16020,2,0,L|360:104,1,133.333333830039
432,192,16604,1,2,0:0:0:0:
64,56,17020,6,0,L|200:192,1,186.666667362055
104,320,17854,2,4,L|352:264,1,240.00000089407
88,64,19104,5,0,0:0:0:0:
88,224,19354,2,0,L|312:88,1,240.00000089407
320,232,20354,1,0,0:0:0:0:
256,288,20437,1,0,0:0:0:0:
192,232,20520,2,0,L|192:184,7,26.6666667660078
320,104,21354,1,0,0:0:0:0:
256,48,21437,1,0,0:0:0:0:
192,112,21520,2,0,L|192:160,7,26.6666667660078
320,256,22354,1,0,0:0:0:0:
376,192,22437,1,0,0:0:0:0:
320,128,22520,2,0,L|288:128,7,26.6666667660078
184,248,23354,1,0,0:0:0:0:
128,192,23437,1,0,0:0:0:0:
184,128,23520,2,0,L|216:128,7,26.6666667660078
184,264,24354,1,0,0:0:0:0:
256,328,24437,1,0,0:0:0:0:
336,256,24520,2,0,L|336:224,7,26.6666667660078
184,112,25354,1,0,0:0:0:0:
256,48,25437,1,0,0:0:0:0:
336,120,25520,2,8,L|336:152,7,26.6666667660078
312,48,26354,6,0,L|456:248,1,240.00000089407
296,240,27354,2,0,L|144:24,1,240.00000089407
40,80,28354,5,0,0:0:0:0:
63,67,28437,1,0,0:0:0:0:
88,58,28520,1,0,0:0:0:0:
114,52,28603,1,0,0:0:0:0:
141,50,28687,1,0,0:0:0:0:
167,50,28770,1,0,0:0:0:0:
194,55,28853,1,0,0:0:0:0:
219,62,28937,1,0,0:0:0:0:
244,73,29020,1,0,0:0:0:0:
267,86,29103,1,0,0:0:0:0:
392,184,29354,1,0,0:0:0:0:
366,175,29437,1,0,0:0:0:0:
340,170,29520,1,0,0:0:0:0:
314,167,29603,1,0,0:0:0:0:
287,166,29687,1,0,0:0:0:0:
260,169,29770,1,0,0:0:0:0:
234,174,29853,1,0,0:0:0:0:
209,182,29937,1,0,0:0:0:0:
184,192,30020,1,0,0:0:0:0:
161,204,30103,1,0,0:0:0:0:
64,328,30354,1,0,0:0:0:0:
89,334,30437,1,0,0:0:0:0:
116,337,30520,1,0,0:0:0:0:
142,336,30603,1,0,0:0:0:0:
168,331,30687,1,0,0:0:0:0:
194,322,30770,1,0,0:0:0:0:
217,310,30853,1,0,0:0:0:0:
238,294,30937,1,0,0:0:0:0:
344,304,31104,22,0,L|408:264,1,53.3333335320157
432,248,31354,2,0,L|392:200,1,53.3333335320157
360,168,31604,2,0,L|304:208,1,53.3333335320157
272,232,31853,2,0,L|312:288,1,53.3333335320157
160,224,32104,6,0,B|232:224|288:176|320:160|368:168|384:304,1,280.000001043082
448,296,33104,2,0,B|464:120|352:80|216:56|328:192|200:80|176:120|208:280|56:168|-16:88|96:24|192:72,1,640.000002384188
256,192,45104,5,0,0:0:0:0:
256,192,46104,1,0,0:0:0:0:
256,192,47104,1,0,0:0:0:0:
256,192,48104,1,0,0:0:0:0:
256,192,49104,5,0,0:0:0:0:
256,192,49604,1,0,0:0:0:0:
256,192,50104,1,0,0:0:0:0:
256,192,50604,1,0,0:0:0:0:
256,192,50854,1,0,0:0:0:0:
256,192,51104,5,0,0:0:0:0:
256,192,51354,1,0,0:0:0:0:
256,192,51604,1,0,0:0:0:0:
256,192,51854,1,0,0:0:0:0:
256,192,52104,1,0,0:0:0:0:
256,192,52354,1,0,0:0:0:0:
256,192,52604,1,2,0:0:0:0:
72,88,53104,6,0,B|128:32|240:72,1,160.000000596047
280,96,53854,1,0,0:0:0:0:
344,88,54104,2,0,B|352:192|240:224,1,160.000000596047
200,216,54854,2,0,B|80:216|80:216|128:216,1,160.000000596047
144,272,55604,1,0,0:0:0:0:
208,296,55854,2,0,B|296:320|368:240,1,160.000000596047
400,208,56604,1,4,0:0:0:0:
424,80,57104,6,0,B|360:144|240:112,1,160.000000596047
216,88,57854,1,0,0:0:0:0:
160,64,58104,2,0,B|88:112|96:216,1,160.000000596047
104,264,58854,1,0,0:0:0:0:
160,296,59104,2,0,B|224:320|240:256|320:280,3,160.000000596047
456,144,61104,6,0,B|384:48|240:40,1,239.999993741513
176,104,61854,1,2,0:0:0:0:
88,56,62104,2,0,B|0:136|56:304,1,239.999993741513
128,336,62854,2,0,B|240:360|368:344,1,239.999993741513
456,320,63604,1,2,0:0:0:0:
504,240,63854,2,0,B|504:112|416:8,1,239.999993741513
360,88,64604,2,0,B|256:24|128:32,1,239.999993741513
256,192,65604,12,14,68604,0:0:0:0:
80,64,69104,5,0,0:0:0:0:
224,120,69354,1,0,0:0:0:0:
224,120,69479,1,0,0:0:0:0:
168,152,69604,2,0,B|96:160|80:240,1,119.999996870757
192,304,70104,2,0,B|216:368|296:344|320:296,1,119.999996870757
320,272,70479,1,0,0:0:0:0:
320,272,70604,1,0,0:0:0:0:
320,272,70729,1,0,0:0:0:0:
320,272,70854,1,0,0:0:0:0:
320,272,70979,1,4,0:0:0:0:
384,296,71104,5,0,0:0:0:0:
448,192,71354,1,0,0:0:0:0:
448,192,71479,1,0,0:0:0:0:
424,128,71604,2,0,B|400:72|376:64|352:56|296:56,1,119.999996870757
280,176,72104,2,0,B|264:232|240:256|160:248,1,119.999996870757
152,200,72479,1,0,0:0:0:0:
152,200,72604,1,0,0:0:0:0:
152,200,72729,1,0,0:0:0:0:
152,200,72854,1,0,0:0:0:0:
152,200,72979,1,4,0:0:0:0:
96,232,73104,5,0,0:0:0:0:
48,104,73354,1,0,0:0:0:0:
48,104,73479,1,0,0:0:0:0:
96,64,73604,2,0,B|136:32|192:40|200:56|248:104,1,119.999996870757
232,192,74104,2,0,B|248:256|296:288|344:280,1,119.999996870757
376,272,74479,1,0,0:0:0:0:
376,272,74604,1,0,0:0:0:0:
376,272,74729,1,0,0:0:0:0:
376,272,74854,1,0,0:0:0:0:
376,272,74979,1,4,0:0:0:0:
440,176,75104,5,0,0:0:0:0:
440,88,75354,1,0,0:0:0:0:
440,88,75479,1,0,0:0:0:0:
376,72,75604,2,0,B|312:64|240:96|248:152,1,119.999996870757
200,56,75937,1,4,0:0:0:0:
160,63,76020,1,0,0:0:0:0:
124,80,76103,1,4,0:0:0:0:
97,108,76186,1,0,0:0:0:0:
82,145,76270,1,4,0:0:0:0:
80,185,76353,1,0,0:0:0:0:
91,224,76436,1,4,0:0:0:0:
113,256,76520,1,0,0:0:0:0:
147,278,76603,1,4,0:0:0:0:
185,289,76686,1,0,0:0:0:0:
225,290,76770,1,4,0:0:0:0:
265,286,76853,1,0,0:0:0:0:
304,279,76936,1,4,0:0:0:0:
176,88,77104,6,0,B|288:96|432:40|496:280,1,419.999989047648
432,280,78104,2,0,B|288:344|88:280|40:144,1,419.999989047648
104,136,79104,2,0,B|144:96|240:-8|264:128|312:328|472:64,1,419.999989047648
480,168,80104,2,0,B|488:296|352:328|320:360|112:272,1,419.999989047648
96,264,81104,2,0,B|0:176|32:64|264:0|288:16|344:64,1,419.999989047648
368,40,82104,2,0,B|496:40|480:248|208:360,1,419.999989047648
264,264,83104,2,0,B|168:256|176:144,3,119.999996870757
256,88,84104,1,0,0:0:0:0:
256,192,84604,1,14,0:0:0:0:
48,32,85104,5,8,0:0:0:0:
152,112,85354,1,8,0:0:0:0:
48,192,85604,1,8,0:0:0:0:
152,272,85854,1,12,0:0:0:0:
280,312,86104,2,8,B|344:312|360:272|392:192,3,119.999996870757
432,104,87104,1,8,0:0:0:0:
336,192,87354,1,8,0:0:0:0:
264,80,87604,1,8,0:0:0:0:
136,88,87854,1,12,0:0:0:0:
88,208,88104,2,8,B|64:264|96:320|184:280,3,119.999996870757
232,192,89104,2,8,B|304:192,12,59.9999984353783
232,192,90854,1,14,0:0:0:0:
224,224,91104,5,0,0:0:0:0:
176,264,91270,1,0,0:0:0:0:
120,240,91437,1,0,0:0:0:0:
224,160,91604,5,0,0:0:0:0:
184,112,91770,1,0,0:0:0:0:
208,56,91937,1,0,0:0:0:0:
288,160,92104,5,0,0:0:0:0:
336,120,92270,1,0,0:0:0:0:
392,144,92437,1,0,0:0:0:0:
288,224,92604,5,0,0:0:0:0:
328,272,92770,1,0,0:0:0:0:
304,328,92937,1,0,0:0:0:0:
80,152,108931,6,0,B|120:160,3,40.0000001490117
144,176,109431,2,0,B|192:160,3,40.0000001490117
216,152,109931,1,0,0:0:0:0:
248,144,110056,1,0,0:0:0:0:
280,144,110181,1,0,0:0:0:0:
312,152,110306,1,0,0:0:0:0:
344,168,110431,1,0,0:0:0:0:
368,192,110556,1,0,0:0:0:0:
384,216,110681,1,0,0:0:0:0:
392,248,110806,1,0,0:0:0:0:
392,280,110931,6,0,B|344:296,3,40.0000001490117
336,320,111431,2,0,B|272:312,3,40.0000001490117
264,312,111931,1,0,0:0:0:0:
232,304,112056,1,0,0:0:0:0:
208,288,112181,1,0,0:0:0:0:
192,264,112306,1,0,0:0:0:0:
176,240,112431,1,0,0:0:0:0:
168,208,112556,1,0,0:0:0:0:
168,176,112681,1,0,0:0:0:0:
176,144,112806,1,0,0:0:0:0:
168,112,112931,6,0,B|112:120,3,40.0000001490117
112,144,113431,2,0,B|64:160,3,40.0000001490117,0|0|0|0,0:0|0:0|0:0|0:0,0:0:0:0:
64,192,113931,1,0,0:0:0:0:
72,224,114056,1,0,0:0:0:0:
88,256,114181,1,0,0:0:0:0:
112,280,114306,1,0,0:0:0:0:
136,296,114431,1,0,0:0:0:0:
168,312,114556,1,0,0:0:0:0:
200,320,114681,1,0,0:0:0:0:
232,320,114806,1,0,0:0:0:0:
264,320,114931,6,0,B|287:286,3,40.0000001490117
292,257,115431,2,0,B|337:235,3,40.0000001490117
361,224,115931,1,0,0:0:0:0:
390,208,116056,1,0,0:0:0:0:
412,186,116181,1,0,0:0:0:0:
429,158,116306,1,0,0:0:0:0:
442,124,116431,1,0,0:0:0:0:
443,90,116556,1,0,0:0:0:0:
437,62,116681,1,0,0:0:0:0:
420,34,116806,1,0,0:0:0:0:
392,40,116931,6,0,B|352:48,3,40.0000001490117
328,64,117431,2,0,B|280:48,3,40.0000001490117
256,40,117931,1,0,0:0:0:0:
224,32,118056,1,0,0:0:0:0:
192,32,118181,1,0,0:0:0:0:
160,40,118306,1,0,0:0:0:0:
128,56,118431,1,0,0:0:0:0:
104,80,118556,1,0,0:0:0:0:
88,104,118681,1,0,0:0:0:0:
80,136,118806,1,0,0:0:0:0:
72,168,118931,6,0,B|107:188,3,40.0000001490117
135,192,119431,2,0,B|159:236,3,40.0000001490117
173,259,119931,1,0,0:0:0:0:
191,286,120056,1,0,0:0:0:0:
215,307,120181,1,0,0:0:0:0:
244,323,120306,1,0,0:0:0:0:
278,332,120431,1,0,0:0:0:0:
312,330,120556,1,0,0:0:0:0:
340,323,120681,1,0,0:0:0:0:
368,305,120806,1,0,0:0:0:0:
392,288,120931,6,0,B|375:250,3,40.0000001490117
354,231,121431,2,0,B|358:180,3,40.0000001490117
361,155,121931,1,0,0:0:0:0:
362,122,122056,1,0,0:0:0:0:
354,91,122181,1,0,0:0:0:0:
336,64,122306,1,0,0:0:0:0:
312,40,122431,2,4,B|184:40,1,120.000000447035
192,72,122931,5,0,0:0:0:0:
192,104,123056,1,0,0:0:0:0:
192,168,123306,1,8,0:0:0:0:
192,232,123556,1,0,0:0:0:0:
192,296,123806,1,0,0:0:0:0:
256,296,124056,1,0,0:0:0:0:
256,296,124306,1,0,0:0:0:0:
256,296,124431,1,0,0:0:0:0:
256,296,124556,1,0,0:0:0:0:
256,296,124681,1,12,0:0:0:0:
64,112,124931,6,0,B|168:264|352:184,3,320.000001192094
280,296,128931,2,0,B|359:360|534:341|627:154|482:1|315:18|239:139,2,640.000002384188
184,216,133431,5,2,0:0:0:0:
152,88,133931,2,0,B|64:80|96:192|96:192|136:312|24:304,2,320.000001192094
256,160,136431,1,4,0:0:0:0:
368,96,136931,2,0,B|496:144|512:320|296:384|16:344|32:216,2,640.000002384188
256,160,141431,5,8,0:0:0:0:
136,128,141931,2,0,B|144:56|232:96|264:56,1,160.000000596047
392,32,142931,2,0,B|416:136|280:248|168:216,2,320.000001192094
296,120,145431,1,2,0:0:0:0:
192,48,145931,2,0,B|144:16|104:96|40:48,2,160.000000596047
320,48,147431,6,0,B|368:16|408:96|472:48,2,160.000000596047
256,160,148931,2,0,B|264:184|224:200|200:184|176:152|192:112|224:88|264:80|304:80|344:144|312:200|280:224|280:224|248:240|232:240|216:232|192:240|160:224|128:184|136:144|136:96|176:96|176:80|200:56|224:48|256:56,1,640.000002384188
368,48,151431,2,0,B|448:96|448:216,1,160.000000596047
416,304,152431,1,2,0:0:0:0:
296,344,152931,6,4,B|200:352|16:280|24:72|176:0|384:48,1,640.000002384188
256,192,155556,12,0,159181,0:0:0:0:
56,72,167185,6,0,B|48:128|56:176|88:240,1,160.000000596047
128,272,167935,1,0,0:0:0:0:
184,304,168185,2,0,B|240:328|304:320|368:296,1,160.000000596047
448,232,169185,2,0,B|472:160|432:96|400:72,1,160.000000596047
472,56,169935,1,0,0:0:0:0:
416,32,170185,2,0,B|360:16|304:24|248:88,1,160.000000596047
376,128,171185,6,0,B|480:144|440:280,1,160.000000596047
384,248,171935,1,0,0:0:0:0:
424,296,172185,2,0,B|360:320|304:296|256:256,1,160.000000596047
144,256,173185,2,0,B|160:176|136:128|80:112,1,160.000000596047
64,176,173935,1,0,0:0:0:0:
32,120,174185,2,0,B|48:32|184:48,1,160.000000596047
248,80,175185,6,0,B|320:152|416:80,1,160.000000596047
376,160,175935,1,2,0:0:0:0:
424,112,176185,2,0,B|488:184|440:280,1,160.000000596047
488,312,176935,1,2,0:0:0:0:
424,336,177185,2,0,B|336:368|232:320,1,160.000000596047
288,272,177935,5,2,0:0:0:0:
344,248,178185,2,0,B|320:136|208:144,1,160.000000596047
248,208,178935,1,2,0:0:0:0:
224,272,179185,2,0,B|144:320|64:272,1,160.000000596047
120,232,179935,5,2,0:0:0:0:
184,216,180185,2,0,B|160:128|64:104,1,160.000000596047
72,168,180935,1,2,0:0:0:0:
40,224,181185,2,0,B|72:304|192:304,1,160.000000596047
232,304,181935,5,2,0:0:0:0:
232,240,182185,2,0,B|328:208|336:96,1,160.000000596047
272,104,182935,1,4,0:0:0:0:
104,56,183685,6,0,B|40:72|32:136,1,80.0000002980235
40,144,184060,2,0,B|40:176|88:184,3,40.0000001490117
400,40,185685,5,0,0:0:0:0:
456,104,185935,2,0,B|432:144|360:144,1,80.0000002980235
304,176,186435,1,0,0:0:0:0:
392,200,186685,1,0,0:0:0:0:
464,248,186935,1,0,0:0:0:0:
416,296,187185,1,8,0:0:0:0:
208,320,187685,1,0,0:0:0:0:
248,240,187935,2,0,B|256:200|240:184|192:176,1,80.0000002980235
160,248,188435,1,0,0:0:0:0:
72,224,188685,1,0,0:0:0:0:
32,144,188935,1,0,0:0:0:0:
80,104,189185,1,4,0:0:0:0:
280,48,189685,5,0,0:0:0:0:
368,56,189935,2,0,B|416:64|432:136,1,80.0000002980235
344,152,190435,1,0,0:0:0:0:
432,176,190685,1,0,0:0:0:0:
480,248,190935,1,0,0:0:0:0:
432,296,191185,1,8,0:0:0:0:
224,320,191685,1,0,0:0:0:0:
224,232,191935,2,0,B|224:184|152:168,1,80.0000002980235
160,264,192435,1,0,0:0:0:0:
88,216,192685,1,0,0:0:0:0:
64,128,192935,1,0,0:0:0:0:
120,96,193185,1,4,0:0:0:0:
312,48,193685,5,0,0:0:0:0:
256,120,193935,2,0,B|240:160|280:192,1,80.0000002980235
368,192,194435,1,0,0:0:0:0:
328,272,194685,1,0,0:0:0:0:
240,280,194935,1,0,0:0:0:0:
184,248,195185,1,8,0:0:0:0:
96,56,195685,1,0,0:0:0:0:
144,128,195935,2,0,B|168:184|80:200,1,80.0000002980235
56,256,196435,1,0,0:0:0:0:
112,320,196685,1,0,0:0:0:0:
200,320,196935,1,0,0:0:0:0:
256,288,197185,1,4,0:0:0:0:
392,312,197685,5,0,0:0:0:0:
432,264,197935,2,0,B|464:216|448:184,1,80.0000002980235
416,136,198435,1,0,0:0:0:0:
360,112,198685,1,0,0:0:0:0:
296,120,198935,1,0,0:0:0:0:
320,176,199185,1,2,0:0:0:0:
168,56,199685,1,0,0:0:0:0:
136,112,199935,1,0,0:0:0:0:
152,136,200060,1,0,0:0:0:0:
160,168,200185,1,0,0:0:0:0:
120,216,200435,1,0,0:0:0:0:
96,240,200560,1,0,0:0:0:0:
80,264,200685,1,0,0:0:0:0:
88,328,200935,2,8,B|128:360|192:320,1,80.0000002980235
288,312,201685,5,0,0:0:0:0:
248,264,201935,1,0,0:0:0:0:
216,248,202060,1,0,0:0:0:0:
184,232,202185,1,0,0:0:0:0:
160,176,202435,1,0,0:0:0:0:
160,144,202560,1,0,0:0:0:0:
176,120,202685,1,0,0:0:0:0:
216,64,202935,2,8,B|256:40|304:64,1,80.0000002980235
424,48,203685,1,0,0:0:0:0:
448,112,203935,1,0,0:0:0:0:
456,144,204060,1,0,0:0:0:0:
464,176,204185,1,0,0:0:0:0:
440,232,204435,1,0,0:0:0:0:
416,256,204560,1,0,0:0:0:0:
392,280,204685,1,0,0:0:0:0:
360,224,204935,2,8,B|336:168|288:168,1,80.0000002980235
184,128,205685,5,0,0:0:0:0:
128,96,205935,1,0,0:0:0:0:
96,88,206060,1,0,0:0:0:0:
72,104,206185,1,0,0:0:0:0:
40,160,206435,1,0,0:0:0:0:
32,192,206560,1,0,0:0:0:0:
32,224,206685,1,0,0:0:0:0:
128,312,207185,2,0,B|168:344|296:368|416:328|496:208|464:80|376:40|216:24,1,640.000002384188
192,32,209435,1,0,0:0:0:0:
128,72,209685,1,0,0:0:0:0:
88,120,209935,1,0,0:0:0:0:
56,176,210185,1,0,0:0:0:0:
64,240,210435,1,0,0:0:0:0:
88,304,210685,1,0,0:0:0:0:
136,344,210935,1,0,0:0:0:0:
200,360,211185,1,2,0:0:0:0:
264,360,211435,5,0,0:0:0:0:
328,352,211685,1,0,0:0:0:0:
384,328,211935,1,0,0:0:0:0:
432,288,212185,1,0,0:0:0:0:
456,224,212435,1,0,0:0:0:0:
448,160,212685,1,0,0:0:0:0:
416,104,212935,1,0,0:0:0:0:
360,64,213185,1,0,0:0:0:0:
296,40,213435,1,0,0:0:0:0:
232,40,213685,1,0,0:0:0:0:
168,64,213935,1,0,0:0:0:0:
112,104,214185,1,0,0:0:0:0:
80,160,214435,1,0,0:0:0:0:
72,224,214685,1,0,0:0:0:0:
96,280,214935,1,0,0:0:0:0:
152,320,215185,1,0,0:0:0:0:
208,352,215435,1,0,0:0:0:0:
256,192,215685,12,0,223185,0:0:0:0:
168,56,223685,5,2,0:0:0:0:
136,112,223935,1,0,0:0:0:0:
152,136,224060,1,0,0:0:0:0:
160,168,224185,1,0,0:0:0:0:
120,216,224435,1,0,0:0:0:0:
96,240,224560,1,0,0:0:0:0:
80,264,224685,1,0,0:0:0:0:
88,328,224935,2,8,B|128:360|192:320,1,80.0000002980235
288,312,225685,1,2,0:0:0:0:
248,264,225935,1,0,0:0:0:0:
216,248,226060,1,0,0:0:0:0:
184,232,226185,1,0,0:0:0:0:
160,176,226435,1,0,0:0:0:0:
160,144,226560,1,0,0:0:0:0:
176,120,226685,1,0,0:0:0:0:
216,64,226935,2,8,B|256:40|304:64,1,80.0000002980235
424,56,227685,5,2,0:0:0:0:
448,112,227935,1,0,0:0:0:0:
456,144,228060,1,0,0:0:0:0:
464,176,228185,1,0,0:0:0:0:
440,232,228435,1,0,0:0:0:0:
416,256,228560,1,0,0:0:0:0:
392,280,228685,1,0,0:0:0:0:
360,224,228935,2,8,B|336:168|288:168,1,80.0000002980235
200,104,229685,1,2,0:0:0:0:
144,136,229935,1,0,0:0:0:0:
120,152,230060,1,0,0:0:0:0:
96,176,230185,1,0,0:0:0:0:
144,216,230435,1,0,0:0:0:0:
168,240,230560,1,0,0:0:0:0:
184,264,230685,1,0,0:0:0:0:
56,336,231185,5,0,0:0:0:0:
72,248,231435,1,0,0:0:0:0:
80,208,231560,1,0,0:0:0:0:
96,168,231685,1,0,0:0:0:0:
120,128,231810,1,0,0:0:0:0:
152,96,231935,1,0,0:0:0:0:
184,72,232060,1,0,0:0:0:0:
224,56,232185,1,0,0:0:0:0:
312,56,232435,1,0,0:0:0:0:
352,72,232560,1,0,0:0:0:0:
384,104,232685,1,0,0:0:0:0:
416,136,232810,1,0,0:0:0:0:
440,168,232935,1,0,0:0:0:0:
464,208,233060,1,0,0:0:0:0:
472,248,233185,1,4,0:0:0:0:
384,248,233435,5,0,0:0:0:0:
360,208,233560,1,0,0:0:0:0:
336,176,233685,1,0,0:0:0:0:
296,152,233810,1,0,0:0:0:0:
256,136,233935,1,0,0:0:0:0:
216,144,234060,1,0,0:0:0:0:
184,168,234185,1,0,0:0:0:0:
120,232,234435,1,0,0:0:0:0:
144,264,234560,1,0,0:0:0:0:
184,288,234685,1,0,0:0:0:0:
224,296,234810,1,0,0:0:0:0:
264,296,234935,1,0,0:0:0:0:
304,296,235060,1,0,0:0:0:0:
344,280,235185,1,4,0:0:0:0:
424,320,235435,5,0,0:0:0:0:
456,288,235560,1,0,0:0:0:0:
472,248,235685,1,0,0:0:0:0:
480,208,235810,1,0,0:0:0:0:
480,168,235935,1,0,0:0:0:0:
472,128,236060,1,0,0:0:0:0:
448,96,236185,1,0,0:0:0:0:
368,64,236435,1,0,0:0:0:0:
344,104,236560,1,0,0:0:0:0:
312,136,236685,1,0,0:0:0:0:
272,152,236810,1,0,0:0:0:0:
232,160,236935,1,0,0:0:0:0:
192,168,237060,1,0,0:0:0:0:
152,168,237185,1,4,0:0:0:0:
184,88,237435,5,0,0:0:0:0:
160,56,237560,1,0,0:0:0:0:
120,40,237685,1,0,0:0:0:0:
80,48,237810,1,0,0:0:0:0:
48,72,237935,1,0,0:0:0:0:
24,112,238060,1,0,0:0:0:0:
16,152,238185,1,0,0:0:0:0:
56,232,238435,1,0,0:0:0:0:
56,272,238560,1,0,0:0:0:0:
80,312,238685,1,0,0:0:0:0:
120,336,238810,1,0,0:0:0:0:
160,352,238935,1,4,0:0:0:0:
232,288,239185,5,0,0:0:0:0:
192,272,239310,1,0,0:0:0:0:
160,240,239435,2,0,B|112:200|112:144,2,80.0000002980235
232,288,240185,1,0,0:0:0:0:
272,280,240310,1,0,0:0:0:0:
312,248,240435,2,0,B|352:224|368:184,2,80.0000002980235
232,296,241185,1,0,0:0:0:0:
216,256,241310,1,0,0:0:0:0:
192,216,241435,2,0,B|168:168|112:168,2,80.0000002980235
256,152,242185,1,0,0:0:0:0:
240,112,242310,1,0,0:0:0:0:
208,80,242435,2,0,B|152:40|112:72,2,80.0000002980235
256,192,243185,6,14,B|256:184|264:216|224:232|200:216|176:184|192:144|224:120|264:112|304:112|344:176|312:232|288:248|288:248|248:272|232:272|216:264|192:272|160:256|128:216|136:176|136:128|176:128|176:112|200:88|224:80|256:88,2,640.000002384188
88,56,268040,5,0,0:0:0:0:
56,144,268456,1,0,0:0:0:0:
80,240,268873,1,8,0:0:0:0:
192,328,269498,2,0,B|232:352|304:328|352:256,2,160.000000596047
168,288,270540,1,0,0:0:0:0:
192,192,270956,1,4,0:0:0:0:
136,112,271373,1,0,0:0:0:0:
216,56,271790,1,0,0:0:0:0:
312,56,272206,1,8,0:0:0:0:
360,192,272831,2,0,B|368:288|480:328,2,160.000000596047
392,152,273873,1,0,0:0:0:0:
464,88,274290,1,4,0:0:0:0:
384,40,274706,5,0,0:0:0:0:
384,136,275123,1,0,0:0:0:0:
304,88,275540,1,8,0:0:0:0:
384,208,276165,2,0,B|448:224|488:256|480:352,2,160.000000596047
336,192,277206,1,0,0:0:0:0:
256,136,277623,1,4,0:0:0:0:
168,176,278040,1,0,0:0:0:0:
104,248,278456,1,0,0:0:0:0:
80,344,278873,1,8,0:0:0:0:
48,200,279498,2,0,B|48:80|136:80,2,160.000000596047
80,232,280540,1,0,0:0:0:0:
136,312,280956,1,12,0:0:0:0:
232,328,281373,37,0,0:0:0:0:
184,248,281790,1,0,0:0:0:0:
280,224,282206,1,8,0:0:0:0:
184,120,282831,2,0,B|208:24|344:56,2,160.000000596047
168,168,283873,1,0,0:0:0:0:
200,256,284290,1,4,0:0:0:0:
288,296,284706,1,0,0:0:0:0:
264,200,285123,1,0,0:0:0:0:
352,232,285540,1,8,0:0:0:0:
288,104,286165,2,0,B|344:24|448:64,2,160.000000596047
256,136,287206,1,0,0:0:0:0:
160,136,287623,1,4,0:0:0:0:
80,88,288040,5,0,0:0:0:0:
104,184,288456,1,0,0:0:0:0:
56,272,288873,1,8,0:0:0:0:
192,312,289498,2,0,B|288:336|352:232,2,160.000000596047
168,272,290540,1,0,0:0:0:0:
192,176,290956,1,4,0:0:0:0:
272,224,291373,1,0,0:0:0:0:
368,248,291790,1,0,0:0:0:0:
456,208,292206,1,8,0:0:0:0:
416,72,292831,2,0,B|328:32|240:88,2,160.000000596047
440,112,293873,1,0,0:0:0:0:
464,208,294290,1,4,0:0:0:0:
408,288,294706,5,0,0:0:0:0:
320,328,295123,1,0,0:0:0:0:
224,304,295540,1,8,0:0:0:0:
80,320,296165,2,0,B|32:240|56:128,2,160.000000596047
128,336,297206,1,0,0:0:0:0:
216,288,297623,1,0,0:0:0:0:
240,160,298040,1,14,0:0:0:0:
144,48,301373,5,0,0:0:0:0:
144,112,301581,2,0,B|176:144|248:144,1,80.0000002980235
280,144,301998,1,0,0:0:0:0:
344,176,302206,1,0,0:0:0:0:
408,160,302415,1,0,0:0:0:0:
400,224,302623,2,0,B|384:272|312:280,1,80.0000002980235
280,280,303040,1,8,0:0:0:0:
248,224,303248,6,0,B|224:176|152:176,1,80.0000002980235
120,176,303665,1,0,0:0:0:0:
64,144,303873,1,0,0:0:0:0:
48,80,304081,1,0,0:0:0:0:
96,48,304290,2,0,B|136:24|192:48,1,80.0000002980235
232,72,304706,1,8,0:0:0:0:
256,128,304915,6,0,B|264:168|320:192,1,80.0000002980235
368,192,305331,1,0,0:0:0:0:
424,224,305540,1,0,0:0:0:0:
456,280,305748,1,0,0:0:0:0:
424,336,305956,2,0,B|384:360|320:344,1,80.0000002980235
280,336,306373,1,8,0:0:0:0:
248,280,306581,6,0,B|232:232|176:208,1,80.0000002980235
136,192,306998,1,0,0:0:0:0:
72,184,307206,1,0,0:0:0:0:
32,240,307415,1,0,0:0:0:0:
56,304,307623,2,0,B|104:336|160:304,1,80.0000002980235
192,296,308040,1,14,0:0:0:0:
232,248,308248,6,0,B|264:208|240:160,1,80.0000002980235
224,112,308665,1,0,0:0:0:0:
184,64,308873,1,0,0:0:0:0:
120,48,309081,1,0,0:0:0:0:
80,88,309290,2,0,B|48:120|56:176,1,80.0000002980235
64,224,309706,1,8,0:0:0:0:
88,288,309915,6,0,B|112:320|168:328,1,80.0000002980235
224,320,310331,1,0,0:0:0:0:
288,304,310540,1,0,0:0:0:0:
328,256,310748,1,0,0:0:0:0:
352,200,310956,2,0,B|384:160|368:112,1,80.0000002980235
352,64,311373,1,4,0:0:0:0:
312,112,311581,2,0,B|264:136|208:96,1,80.0000002980235
176,88,311998,5,0,0:0:0:0:
120,64,312206,1,0,0:0:0:0:
64,88,312415,1,0,0:0:0:0:
32,144,312623,2,0,B|16:184|32:224,1,80.0000002980235
64,280,313040,1,8,0:0:0:0:
112,328,313248,6,0,B|152:344|208:328,1,80.0000002980235
248,304,313665,1,0,0:0:0:0:
296,264,313873,1,0,0:0:0:0:
336,216,314081,1,0,0:0:0:0:
344,152,314290,2,0,B|336:104|368:72,1,80.0000002980235
424,48,314706,1,2,0:0:0:0:
472,88,314915,6,0,B|496:120|488:176,1,80.0000002980235
464,224,315331,1,0,0:0:0:0:
416,272,315540,1,0,0:0:0:0:
360,304,315748,1,0,0:0:0:0:
352,240,315956,6,0,B|304:208|240:240,1,80.0000002980235
240,280,316373,1,8,0:0:0:0:
280,328,316581,2,0,B|232:344|192:336,1,80.0000002980235
144,320,316998,1,0,0:0:0:0:
96,280,317206,1,0,0:0:0:0:
64,224,317415,1,0,0:0:0:0:
56,160,317623,2,0,B|56:112|96:88,1,80.0000002980235
144,56,318040,1,4,0:0:0:0:
144,120,318248,6,0,B|176:152|232:128,1,80.0000002980235
280,112,318665,1,0,0:0:0:0:
312,168,318873,1,0,0:0:0:0:
288,232,319081,1,0,0:0:0:0:
224,256,319290,2,0,B|176:280|128:224,1,80.0000002980235
104,200,319706,1,8,0:0:0:0:
80,136,319915,2,0,B|80:56,2,80.0000002980235
80,136,321373,6,0,B|240:96,1,160.000000596047
360,120,322194,2,0,B|200:160,1,160.000000596047
144,176,322802,1,0,0:0:0:0:
56,272,323204,1,0,0:0:0:0:
176,312,323604,2,0,B|256:280,1,80.0000002980235
376,272,324198,1,8,0:0:0:0:
440,160,324593,6,0,B|400:72|288:64,1,160.000000596047
192,80,325372,2,0,B|88:96|64:192,1,160.000000596047
56,232,325948,1,0,0:0:0:0:
160,304,326330,1,0,0:0:0:0:
280,256,326710,2,0,B|280:176,1,80.0000002980235
400,128,327275,1,4,0:0:0:0:
288,64,327650,6,0,B|120:64,1,160.000000596047
96,120,328205,1,0,0:0:0:0:
128,176,328390,2,0,B|288:176,1,160.000000596047
408,216,329121,1,0,0:0:0:0:
408,216,329301,1,0,0:0:0:0:
352,336,329663,1,0,0:0:0:0:
288,336,329843,2,0,B|200:320|168:232,1,160.000000596047
160,176,330386,1,2,0:0:0:0:
152,112,330566,6,0,B|312:112,1,160.000000596047
376,88,331108,1,0,0:0:0:0:
336,40,331289,2,0,B|160:40,1,160.000000596047
112,56,331831,1,0,0:0:0:0:
72,104,332012,1,0,0:0:0:0:
56,168,332190,1,0,0:0:0:0:
64,232,332369,1,0,0:0:0:0:
104,280,332547,1,0,0:0:0:0:
160,312,332726,2,0,B|328:304,1,160.000000596047
432,264,333400,6,0,B|400:184,3,80.0000002980235
408,128,334074,2,0,B|320:96,3,80.0000002980235
272,80,334748,1,0,0:0:0:0:
208,80,334914,1,0,0:0:0:0:
144,104,335081,1,0,0:0:0:0:
104,160,335248,1,0,0:0:0:0:
104,224,335414,2,0,B|152:264|208:192|264:264,1,160.000000596047
296,296,335914,1,14,0:0:0:0:
352,256,336081,6,0,B|336:176,3,80.0000002980235
312,120,336740,2,0,B|328:40,3,80.0000002980235
384,72,337399,1,0,0:0:0:0:
424,120,337562,1,0,0:0:0:0:
440,184,337725,1,0,0:0:0:0:
432,248,337888,1,0,0:0:0:0:
408,312,338051,2,0,B|248:288,1,160.000000596047
192,320,338540,1,4,0:0:0:0:
144,272,338703,6,0,B|120:192,1,80.0000002980235
64,168,339018,2,0,B|88:80,1,80.0000002980235
144,56,339334,2,0,B|176:104|240:72,3,80.0000002980235
280,64,339979,2,0,B|344:112,3,80.0000002980235
392,152,340591,2,0,B|360:208|272:128|208:184,1,160.000000596047
176,184,341050,1,8,0:0:0:0:
112,208,341203,6,0,B|152:288,3,80.0000002980235
200,320,341809,2,0,B|288:304,3,80.0000002980235
344,288,342415,1,0,0:0:0:0:
384,240,342566,1,0,0:0:0:0:
400,176,342718,1,0,0:0:0:0:
384,112,342869,1,0,0:0:0:0:
352,56,343021,1,0,0:0:0:0:
224,48,343324,2,0,B|136:64,1,80.0000002980235
80,80,343634,5,0,0:0:0:0:
320,160,344216,1,8,0:0:0:0:
80,80,344799,1,0,0:0:0:0:
152,256,345231,1,0,0:0:0:0:
160,192,345375,1,4,0:0:0:0:
416,152,345952,5,0,0:0:0:0:
192,32,346523,1,8,0:0:0:0:
288,272,347094,1,0,0:0:0:0:
160,280,347377,2,0,B|80:328,2,80.0000002980235
232,176,347943,2,0,B|168:128,1,80.0000002980235
112,88,348226,5,0,0:0:0:0:
240,56,348506,1,2,0:0:0:0:
360,24,348786,1,0,0:0:0:0:
328,152,349067,2,0,B|360:128|408:128,4,80.0000002980235
336,280,349902,2,0,B|280:280|232:248|200:184,1,160.000000596047
160,80,350458,5,0,0:0:0:0:
104,192,350733,2,0,B|88:240|48:256,4,80.0000002980235
112,280,351421,1,0,0:0:0:0:
176,304,351558,1,0,0:0:0:0:
240,288,351691,1,0,0:0:0:0:
296,256,351825,1,0,0:0:0:0:
344,208,351959,1,0,0:0:0:0:
376,152,352093,2,0,B|440:216|376:280|328:296,1,160.000000596047
296,320,352495,1,2,0:0:0:0:
240,352,352629,6,0,B|152:352,3,80.0000002980235
104,328,353150,1,0,0:0:0:0:
88,264,353281,1,0,0:0:0:0:
72,200,353411,1,0,0:0:0:0:
56,136,353542,1,0,0:0:0:0:
40,72,353672,2,0,B|128:64,3,80.0000002980235
184,64,354194,2,0,B|256:112|344:80,1,160.000000596047
400,64,354585,1,0,0:0:0:0:
448,104,354715,5,0,0:0:0:0:
416,160,354846,1,0,0:0:0:0:
368,200,354976,1,0,0:0:0:0:
312,232,355107,1,0,0:0:0:0:
248,248,355237,1,0,0:0:0:0:
184,256,355368,1,0,0:0:0:0:
120,248,355498,1,0,0:0:0:0:
56,232,355629,1,0,0:0:0:0:
40,168,355759,2,0,B|96:112,1,80.0000002980235
120,168,356020,2,0,B|184:104,1,80.0000002980235
240,88,356281,2,0,B|248:248,1,160.000000596047
248,312,356672,1,0,0:0:0:0:
312,328,356802,6,0,B|384:288,1,80.0000002980235
440,264,357063,1,0,0:0:0:0:
464,208,357194,1,0,0:0:0:0:
464,144,357324,2,0,B|376:120,1,80.0000002980235
328,104,357585,1,0,0:0:0:0:
272,80,357715,1,0,0:0:0:0:
208,56,357846,2,0,B|128:80,1,80.0000002980235
88,128,358100,2,0,B|176:136,1,80.0000002980235
232,144,358354,2,0,B|328:152|360:200,2,106.666667064031
160,192,358862,5,0,0:0:0:0:
136,256,358990,1,0,0:0:0:0:
160,312,359117,1,0,0:0:0:0:
216,344,359244,1,0,0:0:0:0:
280,344,359371,1,0,0:0:0:0:
328,304,359498,1,0,0:0:0:0:
328,240,359625,1,0,0:0:0:0:
280,192,359752,1,0,0:0:0:0:
248,136,359879,1,0,0:0:0:0:
264,72,360007,1,0,0:0:0:0:
312,32,360134,1,0,0:0:0:0:
376,32,360261,1,0,0:0:0:0:
432,56,360388,1,0,0:0:0:0:
464,112,360515,1,0,0:0:0:0:
456,176,360642,1,0,0:0:0:0:
424,232,360769,1,8,0:0:0:0:
256,320,361146,5,2,0:0:0:0:
200,288,361271,1,2,0:0:0:0:
160,240,361396,1,2,0:0:0:0:
136,176,361521,1,2,0:0:0:0:
120,240,361646,1,2,0:0:0:0:
80,288,361771,1,2,0:0:0:0:
24,320,361896,1,2,0:0:0:0:
24,320,362146,5,2,0:0:0:0:
80,288,362271,1,2,0:0:0:0:
120,240,362396,1,2,0:0:0:0:
136,176,362521,1,2,0:0:0:0:
160,240,362646,1,2,0:0:0:0:
200,288,362771,1,2,0:0:0:0:
256,320,362896,1,2,0:0:0:0:
256,320,363146,5,2,0:0:0:0:
312,288,363271,1,2,0:0:0:0:
352,240,363396,1,2,0:0:0:0:
376,176,363521,1,2,0:0:0:0:
392,240,363646,1,2,0:0:0:0:
432,288,363771,1,2,0:0:0:0:
488,320,363896,1,2,0:0:0:0:
488,320,364146,5,2,0:0:0:0:
432,288,364271,1,2,0:0:0:0:
392,240,364396,1,2,0:0:0:0:
376,176,364521,1,2,0:0:0:0:
352,240,364646,1,2,0:0:0:0:
312,288,364771,1,2,0:0:0:0:
256,320,364896,1,2,0:0:0:0:
136,288,365146,5,0,0:0:0:0:
104,232,365271,1,0,0:0:0:0:
96,168,365396,1,0,0:0:0:0:
120,112,365521,1,0,0:0:0:0:
168,72,365646,1,0,0:0:0:0:
232,56,365771,1,0,0:0:0:0:
296,48,365896,2,0,B|432:32,2,106.666667064031
360,104,366396,2,0,B|472:88,2,106.666667064031
64,112,367146,5,0,0:0:0:0:
88,168,367271,2,0,B|176:176,1,80.0000002980235
208,128,367521,1,0,0:0:0:0:
256,168,367646,1,0,0:0:0:0:
320,160,367771,1,0,0:0:0:0:
384,152,367896,1,2,0:0:0:0:
400,224,368146,5,0,0:0:0:0:
336,248,368271,1,0,0:0:0:0:
280,280,368396,2,4,B|184:328|80:328,1,200.000000745059
48,232,368896,5,0,0:0:0:0:
64,168,369021,1,0,0:0:0:0:
104,120,369146,1,0,0:0:0:0:
160,88,369271,1,0,0:0:0:0:
216,64,369396,2,2,B|288:16|392:64,1,160.000000596047
448,160,369896,5,0,0:0:0:0:
392,184,370021,2,0,B|432:280,1,80.0000002980235
360,280,370271,1,0,0:0:0:0:
296,296,370396,2,0,B|208:304,1,80.0000002980235
184,248,370646,2,2,B|288:240,1,80.0000002980235
288,184,370896,5,0,0:0:0:0:
272,120,371021,1,0,0:0:0:0:
216,88,371146,1,0,0:0:0:0:
152,80,371271,1,0,0:0:0:0:
88,80,371396,2,0,B|48:160,3,80.0000002980235
56,216,371896,5,2,0:0:0:0:
88,272,372021,1,2,0:0:0:0:
144,304,372146,1,2,0:0:0:0:
208,320,372271,1,2,0:0:0:0:
272,320,372396,5,2,0:0:0:0:
336,296,372521,1,2,0:0:0:0:
384,256,372646,1,2,0:0:0:0:
416,200,372771,1,2,0:0:0:0:
440,136,372896,5,14,0:0:0:0:
384,104,373021,2,0,B|304:56,1,80.0000002980235
272,112,373271,2,0,B|352:160,1,80.0000002980235
304,208,373521,1,0,0:0:0:0:
240,224,373646,1,0,0:0:0:0:
176,224,373771,1,6,0:0:0:0:
128,104,374021,5,8,0:0:0:0:
64,160,374271,5,0,0:0:0:0:
48,224,374396,1,0,0:0:0:0:
72,288,374521,1,0,0:0:0:0:
112,336,374646,2,0,B|184:352|296:336,1,160.000000596047
256,192,375146,12,14,376896,0:0:0:0:
232,296,391872,22,0,B|153:360|-22:341|-115:154|30:1|197:18|273:139,2,640.000002384188
400,208,396672,1,2,0:0:0:0:
320,32,397632,2,0,B|128:48|40:184,1,320.000001192094
192,296,399552,2,0,B|184:216|192:120|256:72|312:56|384:56,2,320.000001192094
112,240,401952,1,2,0:0:0:0:
136,144,402432,2,0,B|184:48|456:32,3,320.000001192094
160,64,407232,5,0,0:0:0:0:
280,144,407952,1,2,0:0:0:0:
416,184,408672,1,0,0:0:0:0:
464,320,409392,1,0,0:0:0:0:
320,328,410112,1,0,0:0:0:0:
320,328,410592,1,2,0:0:0:0:
232,296,411072,5,0,0:0:0:0:
96,256,411792,2,0,B|32:224|24:152|32:112|144:64,1,240.00000089407
264,48,413232,1,0,0:0:0:0:
384,128,413952,1,0,0:0:0:0:
384,128,414432,1,4,0:0:0:0:
432,216,414912,5,0,0:0:0:0:
352,336,415632,2,0,B|224:360|200:360|120:248,1,240.00000089407
88,144,417072,1,0,0:0:0:0:
192,48,417792,1,0,0:0:0:0:
288,40,418272,1,2,0:0:0:0:
384,64,418752,5,0,0:0:0:0:
456,192,419472,2,0,B|448:272|432:328|288:344,1,240.00000089407
160,312,420912,1,0,0:0:0:0:
88,184,421632,1,0,0:0:0:0:
120,96,422112,1,4,0:0:0:0:
232,32,422592,5,0,0:0:0:0:
368,80,423312,1,2,0:0:0:0:
456,200,424032,1,0,0:0:0:0:
376,320,424752,1,0,0:0:0:0:
232,328,425472,1,0,0:0:0:0:
232,328,425952,1,8,0:0:0:0:
144,296,426432,5,0,0:0:0:0:
64,176,427152,1,0,0:0:0:0:
152,64,427872,1,2,0:0:0:0:
248,64,428352,5,0,0:0:0:0:
304,112,428592,1,0,0:0:0:0:
336,192,428832,1,0,0:0:0:0:
352,272,429072,1,0,0:0:0:0:
400,272,429312,5,0,0:0:0:0:
400,198,429552,1,0,0:0:0:0:
361,121,429792,1,0,0:0:0:0:
311,57,430032,1,4,0:0:0:0:
80,56,435072,5,0,0:0:0:0:
48,136,435312,1,0,0:0:0:0:
80,216,435552,2,2,B|96:256|168:264,1,80.0000002980235
200,328,436032,1,0,0:0:0:0:
224,248,436272,1,0,0:0:0:0:
224,248,436392,1,0,0:0:0:0:
200,208,436512,2,2,B|160:176|144:112,1,80.0000002980235
208,72,436992,6,0,B|280:72,10,40.0000001490117
296,72,438432,1,2,0:0:0:0:
376,40,438672,1,4,0:0:0:0:
440,104,438912,5,0,0:0:0:0:
488,176,439152,1,0,0:0:0:0:
400,176,439392,2,2,B|352:168|320:232,1,80.0000002980235
288,288,439872,1,0,0:0:0:0:
216,232,440112,1,0,0:0:0:0:
216,232,440232,1,0,0:0:0:0:
176,232,440352,2,2,B|112:232|128:144,1,80.0000002980235
200,136,440832,6,0,B|272:136,10,40.0000001490117
120,104,442272,1,2,0:0:0:0:
48,48,442512,1,4,0:0:0:0:
112,48,442752,5,0,0:0:0:0:
51,109,442992,1,0,0:0:0:0:
49,195,443232,2,2,B|48:238|111:273,1,80.0000002980235
116,345,443712,1,0,0:0:0:0:
169,281,443952,1,0,0:0:0:0:
169,281,444072,1,0,0:0:0:0:
163,234,444192,2,2,B|138:188|148:123,1,80.0000002980235
223,112,444672,6,0,B|289:140,10,40.0000001490117
304,144,446112,1,2,0:0:0:0:
390,148,446352,1,4,0:0:0:0:
440,104,446592,5,0,0:0:0:0:
496,176,446832,1,0,0:0:0:0:
424,224,447072,2,2,B|384:248|320:240,1,80.0000002980235
256,248,447552,1,0,0:0:0:0:
176,208,447792,1,0,0:0:0:0:
176,208,447912,1,0,0:0:0:0:
144,176,448032,2,2,B|96:216|40:176,1,80.0000002980235
80,104,448512,6,0,B|128:80,10,40.0000001490117
256,96,449952,1,2,0:0:0:0:
256,96,450192,1,4,0:0:0:0:
304,56,450432,5,0,0:0:0:0:
336,48,450552,1,0,0:0:0:0:
368,48,450672,1,0,0:0:0:0:
400,56,450792,1,0,0:0:0:0:
424,72,450912,1,0,0:0:0:0:
432,104,451032,1,0,0:0:0:0:
440,136,451152,1,0,0:0:0:0:
432,168,451272,1,0,0:0:0:0:
416,200,451392,1,0,0:0:0:0:
400,224,451512,1,0,0:0:0:0:
384,248,451632,1,0,0:0:0:0:
360,272,451752,1,0,0:0:0:0:
336,296,451872,1,0,0:0:0:0:
312,312,451992,1,0,0:0:0:0:
288,328,452112,1,0,0:0:0:0:
256,336,452232,1,0,0:0:0:0:
224,336,452352,2,4,B|24:328|80:128,2,280.000001043082
288,336,454272,5,8,0:0:0:0:
344,304,454512,1,0,0:0:0:0:
368,288,454632,1,0,0:0:0:0:
392,264,454752,1,0,0:0:0:0:
408,240,454872,1,0,0:0:0:0:
424,208,454992,1,0,0:0:0:0:
432,176,455112,1,0,0:0:0:0:
440,144,455232,1,0,0:0:0:0:
440,112,455352,1,0,0:0:0:0:
424,88,455472,1,0,0:0:0:0:
400,64,455592,1,0,0:0:0:0:
376,48,455712,1,0,0:0:0:0:
344,40,455832,1,0,0:0:0:0:
312,32,455952,1,0,0:0:0:0:
280,32,456072,1,0,0:0:0:0:
248,40,456192,2,0,B|136:24|72:96,1,160.000000596047
56,192,457152,2,0,B|104:264|224:216,1,160.000000596047
192,288,457872,1,0,0:0:0:0:
160,344,458112,5,8,0:0:0:0:
224,352,458352,1,0,0:0:0:0:
256,344,458472,1,0,0:0:0:0:
288,336,458592,1,0,0:0:0:0:
320,320,458712,1,0,0:0:0:0:
344,304,458832,1,0,0:0:0:0:
368,280,458952,1,0,0:0:0:0:
384,256,459072,1,0,0:0:0:0:
400,232,459192,1,0,0:0:0:0:
416,208,459312,1,0,0:0:0:0:
432,176,459432,1,0,0:0:0:0:
432,144,459552,1,0,0:0:0:0:
424,112,459672,1,0,0:0:0:0:
408,88,459792,1,0,0:0:0:0:
384,64,459912,1,0,0:0:0:0:
351,44,460032,2,0,B|257:28|177:102,1,160.000000596047
242,203,460992,2,0,B|144:229|106:146,1,160.000000596047
106,84,461712,1,0,0:0:0:0:
48,55,461952,5,8,0:0:0:0:
32,116,462192,1,0,0:0:0:0:
29,147,462312,1,0,0:0:0:0:
27,178,462432,1,0,0:0:0:0:
29,209,462552,1,0,0:0:0:0:
35,240,462672,1,0,0:0:0:0:
45,270,462792,1,0,0:0:0:0:
56,299,462912,1,0,0:0:0:0:
76,323,463032,1,0,0:0:0:0:
103,339,463152,1,0,0:0:0:0:
134,346,463272,1,0,0:0:0:0:
165,347,463392,1,0,0:0:0:0:
196,350,463512,1,0,0:0:0:0:
227,349,463632,1,0,0:0:0:0:
258,342,463752,1,0,0:0:0:0:
279,317,463872,2,0,B|256:226|137:196,1,160.000000596047
294,169,464832,2,0,B|273:82|170:49,1,160.000000596047
80,56,465792,5,0,0:0:0:0:
136,120,466032,1,0,0:0:0:0:
72,176,466272,1,0,0:0:0:0:
224,264,466752,1,4,0:0:0:0:
56,320,467232,1,0,0:0:0:0:
112,256,467472,1,0,0:0:0:0:
256,152,467952,1,0,0:0:0:0:
312,224,468192,1,0,0:0:0:0:
376,56,468672,1,0,0:0:0:0:
456,216,469152,1,4,0:0:0:0:
456,256,469392,5,0,0:0:0:0:
456,256,469632,1,0,0:0:0:0:
456,48,470112,5,0,0:0:0:0:
288,104,470592,1,8,0:0:0:0:
432,200,471072,1,0,0:0:0:0:
432,200,471312,1,0,0:0:0:0:
280,288,471792,1,0,0:0:0:0:
192,264,472032,1,0,0:0:0:0:
40,168,472512,1,8,0:0:0:0:
200,104,472992,1,6,0:0:0:0:
56,40,473952,5,0,0:0:0:0:
88,120,474192,1,0,0:0:0:0:
40,192,474432,1,0,0:0:0:0:
184,296,474912,1,0,0:0:0:0:
256,344,475152,1,0,0:0:0:0:
416,272,475632,1,0,0:0:0:0:
440,192,475872,1,0,0:0:0:0:
320,64,476352,1,0,0:0:0:0:
224,208,476832,1,4,0:0:0:0:
88,56,477792,5,0,0:0:0:0:
256,112,478272,1,0,0:0:0:0:
88,160,478752,1,0,0:0:0:0:
48,240,478992,1,0,0:0:0:0:
216,280,479472,1,0,0:0:0:0:
304,280,479712,1,0,0:0:0:0:
368,120,480192,1,0,0:0:0:0:
424,288,480672,1,14,0:0:0:0:
352,232,481152,6,0,B|264:224|200:120,1,160.000000596047
144,80,481992,1,0,0:0:0:0:
144,80,482112,1,0,0:0:0:0:
144,80,482232,1,0,0:0:0:0:
64,192,482592,1,8,0:0:0:0:
64,280,482832,1,2,0:0:0:0:
128,336,483072,2,0,B|144:248|240:224,1,160.000000596047
320,128,483912,1,0,0:0:0:0:
320,128,484032,1,0,0:0:0:0:
320,128,484152,1,0,0:0:0:0:
416,40,484512,1,8,0:0:0:0:
464,112,484752,1,2,0:0:0:0:
448,200,484992,6,0,B|448:304|336:344,1,160.000000596047
240,320,485832,1,0,0:0:0:0:
240,320,485952,1,0,0:0:0:0:
240,320,486072,1,0,0:0:0:0:
112,280,486432,1,8,0:0:0:0:
72,200,486672,1,2,0:0:0:0:
80,112,486912,2,0,B|176:104|216:208,1,160.000000596047
224,280,487752,1,0,0:0:0:0:
224,280,487872,1,0,0:0:0:0:
224,280,487992,1,0,0:0:0:0:
304,328,488352,1,8,0:0:0:0:
368,320,488592,1,2,0:0:0:0:
424,296,488832,6,0,B|488:232|456:120,1,160.000000596047
368,176,489672,1,0,0:0:0:0:
368,176,489792,1,0,0:0:0:0:
368,176,489912,1,0,0:0:0:0:
376,80,490272,1,8,0:0:0:0:
320,56,490512,1,2,0:0:0:0:
272,128,490752,2,0,B|176:168|88:96,1,160.000000596047
88,48,491592,1,0,0:0:0:0:
88,48,491712,1,0,0:0:0:0:
88,48,491832,1,0,0:0:0:0:
56,128,492192,1,8,0:0:0:0:
72,256,492432,1,2,0:0:0:0:
256,64,493152,5,2,0:0:0:0:
256,240,493632,1,8,0:0:0:0:
392,128,494112,1,0,0:0:0:0:
392,216,494352,1,0,0:0:0:0:
280,336,494832,1,0,0:0:0:0:
192,336,495072,1,0,0:0:0:0:
136,168,495552,1,8,0:0:0:0:
136,168,496032,1,14,0:0:0:0:
64,56,496512,5,0,0:0:0:0:
136,104,496752,1,0,0:0:0:0:
192,32,496992,2,2,B|232:24|280:72,1,80.0000002980235
320,128,497472,1,0,0:0:0:0:
376,192,497712,1,0,0:0:0:0:
400,232,497832,1,0,0:0:0:0:
400,272,497952,2,2,B|376:328|312:320,1,80.0000002980235
280,320,498432,1,0,0:0:0:0:
216,304,498672,1,0,0:0:0:0:
224,240,498912,2,2,B|216:184|168:160,1,80.0000002980235
128,136,499392,1,0,0:0:0:0:
104,120,499512,1,0,0:0:0:0:
80,96,499632,1,0,0:0:0:0:
48,176,499872,2,14,B|16:128|24:72,1,80.0000002980235
64,56,500352,5,0,0:0:0:0:
136,104,500592,1,0,0:0:0:0:
192,32,500832,2,2,B|232:24|280:72,1,80.0000002980235
320,128,501312,1,0,0:0:0:0:
376,192,501552,1,0,0:0:0:0:
400,232,501672,1,0,0:0:0:0:
400,272,501792,2,2,B|376:328|312:320,1,80.0000002980235
280,320,502272,1,0,0:0:0:0:
216,304,502512,1,0,0:0:0:0:
224,240,502752,2,2,B|216:184|168:160,1,80.0000002980235
128,136,503232,1,0,0:0:0:0:
104,120,503352,1,0,0:0:0:0:
80,96,503472,1,0,0:0:0:0:
24,72,503712,2,14,B|40:24|120:32,1,80.0000002980235
168,56,504192,5,0,0:0:0:0:
240,104,504432,1,0,0:0:0:0:
296,32,504672,2,2,B|336:24|384:72,1,80.0000002980235
424,128,505152,1,0,0:0:0:0:
480,192,505392,1,0,0:0:0:0:
496,232,505512,1,0,0:0:0:0:
488,272,505632,2,2,B|464:328|400:320,1,80.0000002980235
344,320,506112,1,0,0:0:0:0:
264,280,506352,1,0,0:0:0:0:
328,240,506592,2,2,B|320:184|272:160,1,80.0000002980235
232,136,507072,1,0,0:0:0:0:
208,120,507192,1,0,0:0:0:0:
184,96,507312,1,0,0:0:0:0:
136,168,507552,2,14,B|72:168|72:104,1,80.0000002980235
64,56,508032,5,0,0:0:0:0:
136,104,508272,1,0,0:0:0:0:
192,32,508512,2,2,B|232:24|280:72,1,80.0000002980235
320,128,508992,1,0,0:0:0:0:
376,192,509232,1,0,0:0:0:0:
400,232,509352,1,0,0:0:0:0:
400,272,509472,2,2,B|376:328|312:320,1,80.0000002980235
280,320,509952,1,0,0:0:0:0:
216,304,510192,1,0,0:0:0:0:
224,240,510432,2,2,B|216:184|168:160,1,80.0000002980235
128,136,510912,1,0,0:0:0:0:
104,120,511032,1,0,0:0:0:0:
80,96,511152,1,0,0:0:0:0:
24,72,511392,2,14,B|40:24|120:32,1,80.0000002980235
152,40,511872,6,0,B|336:16|416:120,2,239.999993741513
208,120,512952,1,0,0:0:0:0:
208,120,513072,1,0,0:0:0:0:
288,176,513312,1,0,0:0:0:0:
368,120,513552,1,8,0:0:0:0:
464,96,513792,5,0,0:0:0:0:
440,136,513912,1,0,0:0:0:0:
416,176,514032,1,0,0:0:0:0:
384,208,514152,1,0,0:0:0:0:
344,232,514272,1,0,0:0:0:0:
304,256,514392,1,0,0:0:0:0:
256,272,514512,1,2,0:0:0:0:
208,264,514632,5,0,0:0:0:0:
168,240,514752,1,0,0:0:0:0:
128,216,514872,1,0,0:0:0:0:
96,184,514992,1,0,0:0:0:0:
72,144,515112,1,0,0:0:0:0:
48,104,515232,1,0,0:0:0:0:
40,200,515472,1,4,0:0:0:0:
152,344,515712,6,0,B|336:368|416:264,2,239.999993741513
208,264,516792,1,0,0:0:0:0:
208,264,516912,1,0,0:0:0:0:
288,208,517152,1,0,0:0:0:0:
368,264,517392,1,8,0:0:0:0:
464,288,517632,5,0,0:0:0:0:
440,248,517752,1,0,0:0:0:0:
416,208,517872,1,0,0:0:0:0:
384,176,517992,1,0,0:0:0:0:
344,152,518112,1,0,0:0:0:0:
304,128,518232,1,0,0:0:0:0:
256,112,518352,1,2,0:0:0:0:
208,120,518472,5,0,0:0:0:0:
168,144,518592,1,0,0:0:0:0:
128,168,518712,1,0,0:0:0:0:
96,200,518832,1,0,0:0:0:0:
72,240,518952,1,0,0:0:0:0:
48,280,519072,1,0,0:0:0:0:
40,184,519312,1,4,0:0:0:0:
152,40,519552,6,0,B|336:16|416:120,2,239.999993741513
208,120,520632,1,0,0:0:0:0:
208,120,520752,1,0,0:0:0:0:
288,176,520992,1,0,0:0:0:0:
368,120,521232,1,8,0:0:0:0:
464,96,521472,5,0,0:0:0:0:
440,136,521592,1,0,0:0:0:0:
416,176,521712,1,0,0:0:0:0:
384,208,521832,1,0,0:0:0:0:
344,232,521952,1,0,0:0:0:0:
304,256,522072,1,0,0:0:0:0:
256,272,522192,1,2,0:0:0:0:
208,264,522312,5,0,0:0:0:0:
168,240,522432,1,0,0:0:0:0:
128,216,522552,1,0,0:0:0:0:
96,184,522672,1,0,0:0:0:0:
72,144,522792,1,0,0:0:0:0:
48,104,522912,1,0,0:0:0:0:
40,200,523152,1,4,0:0:0:0:
152,344,523392,6,0,B|336:368|416:264,2,239.999993741513
208,264,524472,1,0,0:0:0:0:
208,264,524592,1,0,0:0:0:0:
288,208,524832,1,0,0:0:0:0:
368,264,525072,1,8,0:0:0:0:
464,288,525312,5,0,0:0:0:0:
440,248,525432,1,0,0:0:0:0:
416,208,525552,1,0,0:0:0:0:
384,176,525672,1,0,0:0:0:0:
344,152,525792,1,0,0:0:0:0:
304,128,525912,1,0,0:0:0:0:
256,112,526032,1,2,0:0:0:0:
208,120,526152,5,0,0:0:0:0:
168,144,526272,1,0,0:0:0:0:
128,168,526392,1,0,0:0:0:0:
96,200,526512,5,0,0:0:0:0:
72,240,526632,1,0,0:0:0:0:
48,280,526752,1,0,0:0:0:0:
200,72,527232,6,0,B|16:72|-32:280|112:328|240:320,1,480.000001788141
408,272,529152,1,2,0:0:0:0:
336,224,529392,1,2,0:0:0:0:
416,184,529632,1,2,0:0:0:0:
336,144,529872,1,2,0:0:0:0:
184,64,530112,1,2,0:0:0:0:
264,104,530352,1,2,0:0:0:0:
184,144,530592,1,2,0:0:0:0:
264,184,530832,1,2,0:0:0:0:
312,72,531072,6,0,B|496:72|544:280|400:328|272:320,1,480.000001788141
104,272,532992,1,2,0:0:0:0:
176,224,533232,1,2,0:0:0:0:
96,184,533472,1,2,0:0:0:0:
176,144,533712,1,2,0:0:0:0:
328,64,533952,1,2,0:0:0:0:
248,104,534192,1,2,0:0:0:0:
328,144,534432,1,2,0:0:0:0:
248,184,534672,1,2,0:0:0:0:
200,72,534912,6,0,B|16:72|-32:280|112:328|240:320,1,480.000001788141
408,272,536832,1,2,0:0:0:0:
336,224,537072,1,2,0:0:0:0:
416,184,537312,1,2,0:0:0:0:
336,144,537552,1,2,0:0:0:0:
184,64,537792,1,2,0:0:0:0:
264,104,538032,1,2,0:0:0:0:
184,144,538272,1,2,0:0:0:0:
264,184,538512,1,2,0:0:0:0:
312,72,538752,6,0,B|496:72|544:280|400:328|272:320,1,480.000001788141
104,272,540672,1,2,0:0:0:0:
176,224,540912,1,2,0:0:0:0:
96,184,541152,1,2,0:0:0:0:
176,144,541392,1,2,0:0:0:0:
328,64,541632,1,2,0:0:0:0:
248,104,541872,1,2,0:0:0:0:
328,144,542112,1,2,0:0:0:0:
248,184,542352,1,2,0:0:0:0:
192,208,542592,5,0,0:0:0:0:
80,144,543072,1,0,0:0:0:0:
80,144,543312,1,0,0:0:0:0:
72,336,544032,1,0,0:0:0:0:
200,320,544512,1,0,0:0:0:0:
256,288,544752,1,0,0:0:0:0:
304,248,544992,1,0,0:0:0:0:
352,208,545232,1,0,0:0:0:0:
336,144,545472,1,0,0:0:0:0:
288,104,545712,1,0,0:0:0:0:
232,80,545952,1,0,0:0:0:0:
176,56,546192,1,0,0:0:0:0:
176,120,546432,5,0,0:0:0:0:
280,48,546912,1,0,0:0:0:0:
280,48,547152,1,0,0:0:0:0:
472,56,547872,1,0,0:0:0:0:
424,176,548352,1,0,0:0:0:0:
376,216,548592,1,0,0:0:0:0:
328,256,548832,1,0,0:0:0:0:
272,296,549072,1,0,0:0:0:0:
272,232,549312,1,0,0:0:0:0:
232,184,549552,1,0,0:0:0:0:
192,136,549792,1,0,0:0:0:0:
152,88,550032,1,0,0:0:0:0:
88,72,550272,5,0,0:0:0:0:
80,144,550752,1,0,0:0:0:0:
80,144,550992,1,0,0:0:0:0:
72,336,551712,1,0,0:0:0:0:
200,320,552192,1,0,0:0:0:0:
256,288,552432,1,0,0:0:0:0:
304,248,552672,1,0,0:0:0:0:
352,208,552912,1,0,0:0:0:0:
336,144,553152,1,0,0:0:0:0:
288,104,553392,1,0,0:0:0:0:
232,80,553632,1,0,0:0:0:0:
176,56,553872,1,0,0:0:0:0:
176,120,554112,5,0,0:0:0:0:
280,48,554592,1,0,0:0:0:0:
280,48,554832,1,0,0:0:0:0:
472,56,555552,1,0,0:0:0:0:
424,176,556032,1,0,0:0:0:0:
376,216,556272,1,0,0:0:0:0:
328,256,556512,1,0,0:0:0:0:
272,296,556752,1,0,0:0:0:0:
272,232,556992,1,0,0:0:0:0:
208,208,557232,1,0,0:0:0:0:
152,176,557472,1,0,0:0:0:0:
96,152,557712,1,0,0:0:0:0:
80,56,557952,6,0,B|168:40|240:144,1,160.000000596047
256,64,558672,1,0,0:0:0:0:
432,144,559392,1,0,0:0:0:0:
208,136,560112,1,0,0:0:0:0:
360,256,560832,1,0,0:0:0:0:
264,336,561312,5,0,0:0:0:0:
200,336,561552,1,0,0:0:0:0:
136,320,561792,2,0,B|40:272|80:96,1,240.00000089407
264,48,563232,1,0,0:0:0:0:
416,160,563952,1,0,0:0:0:0:
328,328,564672,1,0,0:0:0:0:
256,224,565152,5,0,0:0:0:0:
200,192,565392,1,0,0:0:0:0:
136,192,565632,2,0,B|40:352|240:360,1,240.00000089407
384,280,567072,1,0,0:0:0:0:
384,88,567792,1,0,0:0:0:0:
200,48,568512,1,0,0:0:0:0:
80,88,568992,5,0,0:0:0:0:
48,144,569232,1,0,0:0:0:0:
80,200,569472,2,0,B|128:312|304:312,1,240.00000089407
256,192,570912,1,0,0:0:0:0:
256,192,571632,1,0,0:0:0:0:
256,192,572352,1,0,0:0:0:0:
256,192,572832,1,0,0:0:0:0:
448,200,573312,6,0,B|448:304|336:344,1,160.000000596047
240,320,574152,1,0,0:0:0:0:
240,320,574272,1,0,0:0:0:0:
240,320,574392,1,0,0:0:0:0:
112,280,574752,1,0,0:0:0:0:
72,200,574992,1,0,0:0:0:0:
80,112,575232,2,0,B|176:104|216:208,1,160.000000596047
224,280,576072,1,0,0:0:0:0:
224,280,576192,1,0,0:0:0:0:
224,280,576312,1,0,0:0:0:0:
304,328,576672,1,0,0:0:0:0:
368,320,576912,1,0,0:0:0:0:
424,296,577152,6,0,B|488:232|456:120,1,160.000000596047
368,176,577992,1,0,0:0:0:0:
368,176,578112,1,0,0:0:0:0:
368,176,578232,1,0,0:0:0:0:
376,80,578592,1,0,0:0:0:0:
320,56,578832,1,0,0:0:0:0:
272,128,579072,2,0,B|176:168|88:96,1,160.000000596047
88,48,579912,1,0,0:0:0:0:
88,48,580032,1,0,0:0:0:0:
88,48,580152,1,0,0:0:0:0:
56,128,580512,1,0,0:0:0:0:
72,256,580752,1,0,0:0:0:0:
256,64,581472,5,0,0:0:0:0:
168,80,581712,2,0,B|120:64|72:112,1,80.0000002980235
48,256,582432,1,0,0:0:0:0:
104,328,582672,1,0,0:0:0:0:
280,344,583152,1,0,0:0:0:0:
352,288,583392,1,0,0:0:0:0:
176,256,583872,2,0,B|176:168|296:112,1,160.000000596047
256,192,585312,5,0,0:0:0:0:
256,64,585672,1,0,0:0:0:0:
456,152,586272,1,0,0:0:0:0:
456,240,586512,1,0,0:0:0:0:
312,336,586992,1,0,0:0:0:0:
224,336,587232,1,0,0:0:0:0:
136,184,587712,1,0,0:0:0:0:
40,32,588192,1,0,0:0:0:0:
48,88,588672,5,0,0:0:0:0:
64,152,588912,1,0,0:0:0:0:
72,184,589032,1,0,0:0:0:0:
88,208,589152,1,0,0:0:0:0:
152,224,589392,1,0,0:0:0:0:
184,168,589632,1,0,0:0:0:0:
208,112,589872,2,0,B|256:96|288:136,1,80.0000002980235
312,184,590352,1,0,0:0:0:0:
360,144,590592,5,0,0:0:0:0:
384,120,590712,1,0,0:0:0:0:
400,88,590832,1,0,0:0:0:0:
456,64,591072,1,0,0:0:0:0:
480,128,591312,1,0,0:0:0:0:
472,192,591552,2,0,B|472:232|432:280,1,80.0000002980235
384,288,592032,1,0,0:0:0:0:
320,304,592272,1,0,0:0:0:0:
272,256,592512,5,0,0:0:0:0:
240,248,592632,1,0,0:0:0:0:
208,256,592752,1,0,0:0:0:0:
168,304,592992,1,0,0:0:0:0:
104,288,593232,1,0,0:0:0:0:
56,248,593472,2,0,B|24:200|56:136,1,80.0000002980235
64,112,593952,1,0,0:0:0:0:
112,152,594192,1,0,0:0:0:0:
144,96,594432,5,0,0:0:0:0:
168,72,594552,1,0,0:0:0:0:
200,80,594672,1,0,0:0:0:0:
264,80,594912,1,0,0:0:0:0:
232,136,595152,1,0,0:0:0:0:
192,184,595392,2,0,B|224:216|280:192,1,80.0000002980235
312,152,595872,1,0,0:0:0:0:
352,96,596112,1,0,0:0:0:0:
416,80,596352,5,0,0:0:0:0:
448,88,596472,1,0,0:0:0:0:
472,112,596592,1,0,0:0:0:0:
496,176,596832,1,0,0:0:0:0:
424,160,597072,1,0,0:0:0:0:
368,160,597312,2,0,B|368:208|416:240,1,80.0000002980235
464,232,597792,1,0,0:0:0:0:
432,288,598032,1,0,0:0:0:0:
472,336,598272,5,0,0:0:0:0:
440,352,598392,1,0,0:0:0:0:
408,352,598512,1,0,0:0:0:0:
344,336,598752,1,0,0:0:0:0:
376,280,598992,1,0,0:0:0:0:
424,232,599232,2,0,B|384:192|320:208,1,80.0000002980235
288,224,599712,1,0,0:0:0:0:
232,256,599952,1,0,0:0:0:0:
272,304,600192,5,0,0:0:0:0:
248,328,600312,1,0,0:0:0:0:
216,336,600432,1,0,0:0:0:0:
184,280,600672,1,0,0:0:0:0:
136,328,600912,1,0,0:0:0:0:
72,312,601152,2,0,B|32:280|32:224,1,80.0000002980235
56,184,601632,1,0,0:0:0:0:
80,128,601872,1,0,0:0:0:0:
120,72,602112,5,0,0:0:0:0:
152,56,602232,1,0,0:0:0:0:
184,56,602352,1,0,0:0:0:0:
240,88,602592,1,0,0:0:0:0:
192,128,602832,1,0,0:0:0:0:
152,176,603072,2,0,B|160:216|232:216,1,80.0000002980235
296,176,603552,1,0,0:0:0:0:
344,104,603792,1,0,0:0:0:0:
88,40,604512,5,0,0:0:0:0:
160,88,604752,1,0,0:0:0:0:
232,128,604992,1,0,0:0:0:0:
312,160,605232,1,0,0:0:0:0:
312,160,605472,1,0,0:0:0:0:
312,160,605712,1,0,0:0:0:0:
392,48,605952,5,0,0:0:0:0:
432,64,606072,1,0,0:0:0:0:
464,96,606192,1,0,0:0:0:0:
472,184,606432,1,0,0:0:0:0:
384,176,606672,1,0,0:0:0:0:
296,176,606912,2,0,B|296:224|344:256,1,80.0000002980235
416,256,607392,1,0,0:0:0:0:
464,328,607632,1,0,0:0:0:0:
376,336,607872,5,0,0:0:0:0:
336,336,607992,1,0,0:0:0:0:
296,320,608112,1,0,0:0:0:0:
224,272,608352,1,0,0:0:0:0:
168,200,608592,1,0,0:0:0:0:
120,128,608832,2,0,B|72:120|48:192,1,80.0000002980235
48,256,609312,1,0,0:0:0:0:
104,328,609552,1,0,0:0:0:0:
192,336,609792,5,0,0:0:0:0:
232,344,609912,1,0,0:0:0:0:
272,336,610032,1,0,0:0:0:0:
344,280,610272,1,0,0:0:0:0:
256,256,610512,1,0,0:0:0:0:
176,216,610752,2,0,B|176:152|240:144,1,80.0000002980235
288,104,611232,1,0,0:0:0:0:
200,80,611472,1,0,0:0:0:0:
120,48,611712,5,0,0:0:0:0:
80,40,611832,1,0,0:0:0:0:
40,56,611952,1,0,0:0:0:0:
24,144,612192,1,0,0:0:0:0:
48,224,612432,1,0,0:0:0:0:
104,288,612672,2,0,B|152:256|136:192,1,80.0000002980235
104,136,613152,1,0,0:0:0:0:
192,112,613392,1,0,0:0:0:0:
264,64,613632,5,0,0:0:0:0:
304,48,613752,1,0,0:0:0:0:
344,64,613872,1,0,0:0:0:0:
400,128,614112,1,0,0:0:0:0:
456,56,614352,1,0,0:0:0:0:
480,144,614592,2,0,B|496:192|448:248,1,80.0000002980235
424,296,615072,1,0,0:0:0:0:
360,232,615312,1,0,0:0:0:0:
256,48,619872,5,0,0:0:0:0:
304,120,620112,1,0,0:0:0:0:
216,120,620352,1,0,0:0:0:0:
256,200,620592,1,0,0:0:0:0:
320,264,620832,1,0,0:0:0:0:
392,320,621072,1,0,0:0:0:0:
448,136,621552,1,0,0:0:0:0:
256,48,623712,5,0,0:0:0:0:
208,120,623952,1,0,0:0:0:0:
296,120,624192,1,0,0:0:0:0:
256,200,624432,1,0,0:0:0:0:
192,264,624672,1,0,0:0:0:0:
120,320,624912,1,0,0:0:0:0:
56,264,625152,1,0,0:0:0:0:
256,88,625872,1,0,0:0:0:0:
256,88,626592,1,0,0:0:0:0:
256,48,627552,5,0,0:0:0:0:
304,120,627792,1,0,0:0:0:0:
216,120,628032,1,0,0:0:0:0:
256,200,628272,1,0,0:0:0:0:
320,264,628512,1,0,0:0:0:0:
392,320,628752,1,0,0:0:0:0:
448,136,629232,1,0,0:0:0:0:
192,64,629952,5,0,0:0:0:0:
120,112,630192,1,0,0:0:0:0:
184,168,630432,1,0,0:0:0:0:
96,192,630672,1,0,0:0:0:0:
56,272,630912,1,0,0:0:0:0:
128,320,631152,1,0,0:0:0:0:
216,344,631392,1,0,0:0:0:0:
304,344,631632,1,0,0:0:0:0:
448,56,632112,5,0,0:0:0:0:
464,144,632352,1,0,0:0:0:0:
464,232,632592,1,0,0:0:0:0:
400,296,632832,1,0,0:0:0:0:
312,304,633072,1,0,0:0:0:0:
352,224,633312,1,0,0:0:0:0:
272,192,633552,1,0,0:0:0:0:
344,152,633792,1,0,0:0:0:0:
272,104,634032,1,0,0:0:0:0:
352,64,634272,1,0,0:0:0:0:
272,24,634512,1,0,0:0:0:0:
120,80,645296,6,0,B|64:160|32:192|80:272|160:280,1,240.00000089407
256,304,646635,1,0,0:0:0:0:
256,304,646903,1,0,0:0:0:0:
376,256,647438,1,0,0:0:0:0:
424,208,647706,1,0,0:0:0:0:
368,176,647974,1,0,0:0:0:0:
264,104,648510,2,0,B|144:96|96:176|168:280,1,240.00000089407
40,184,649849,1,0,0:0:0:0:
40,184,650117,1,0,0:0:0:0:
112,80,650653,5,0,0:0:0:0:
160,40,650921,1,0,0:0:0:0:
208,80,651188,1,0,0:0:0:0:
336,64,651724,2,0,B|464:64|488:192|472:248,1,240.00000089407
392,320,653063,1,0,0:0:0:0:
392,320,653331,1,0,0:0:0:0:
360,192,653867,5,0,0:0:0:0:
320,240,654135,1,0,0:0:0:0:
256,256,654403,1,0,0:0:0:0:
256,192,654938,6,0,B|272:176|248:232|224:232|200:216|176:184|192:144|224:120|264:112|304:112|344:176|312:232|280:256|280:256|248:272|232:272|216:264|192:272|160:256|128:216|136:176|136:128|176:128|176:112|192:80|224:80|256:56|336:72|352:120|368:184,1,800.000002980235
368,216,657885,5,0,0:0:0:0:
368,216,658019,1,0,0:0:0:0:
368,216,658153,2,0,B|344:328|312:376|80:344|128:272|96:184,1,400.000001490117
96,160,659760,1,0,0:0:0:0:
144,80,660296,1,0,0:0:0:0:
200,48,660563,1,0,0:0:0:0:
248,88,660831,1,0,0:0:0:0:
376,64,661367,2,0,B|496:104|376:264,1,240.00000089407
296,320,662706,1,0,0:0:0:0:
296,320,662974,1,0,0:0:0:0:
168,296,663510,1,0,0:0:0:0:
216,256,663778,1,0,0:0:0:0:
160,224,664046,1,0,0:0:0:0:
96,208,664313,5,0,0:0:0:0:
96,208,664447,1,0,0:0:0:0:
96,208,664581,2,0,B|120:144|72:72|304:40|336:88|360:200,1,400.000001490117
408,152,666188,1,0,0:0:0:0:
328,56,666724,1,0,0:0:0:0:
264,40,666992,1,0,0:0:0:0:
200,56,667260,1,0,0:0:0:0:
256,192,667796,12,0,670474,0:0:0:0:
72,184,671010,6,0,B|152:48|256:48|384:104,1,359.99999061227
448,144,673153,1,0,0:0:0:0:
448,240,673688,1,0,0:0:0:0:
384,168,674224,2,0,B|152:80|64:272,1,359.99999061227
144,320,676367,5,0,0:0:0:0:
112,280,676635,2,0,B|48:240|48:136|128:120,2,179.999995306135
208,168,679046,1,0,0:0:0:0:
320,72,679849,2,0,B|496:176|264:40|232:16|146:29|79:122|32:160|24:288,1,539.999985918405
184,160,683331,6,0,B|312:160,2,119.999996870757
136,176,684671,1,0,0:0:0:0:
104,208,684938,1,0,0:0:0:0:
80,248,685206,1,0,0:0:0:0:
72,296,685474,1,0,0:0:0:0:
40,208,686010,1,0,0:0:0:0:
48,160,686278,1,0,0:0:0:0:
64,120,686546,1,0,0:0:0:0:
96,80,686813,1,0,0:0:0:0:
144,64,687081,5,0,0:0:0:0:
192,64,687349,1,0,0:0:0:0:
240,72,687617,1,0,0:0:0:0:
280,88,687885,1,0,0:0:0:0:
320,120,688153,1,0,0:0:0:0:
352,152,688421,1,0,0:0:0:0:
384,184,688688,1,0,0:0:0:0:
296,224,689224,1,0,0:0:0:0:
256,200,689492,1,0,0:0:0:0:
208,192,689760,1,0,0:0:0:0:
160,192,690028,1,0,0:0:0:0:
112,208,690296,5,0,0:0:0:0:
72,232,690563,1,0,0:0:0:0:
48,272,690831,1,0,0:0:0:0:
72,312,691099,1,0,0:0:0:0:
120,328,691367,1,0,0:0:0:0:
168,328,691635,1,0,0:0:0:0:
216,320,691903,1,0,0:0:0:0:
256,200,692438,5,0,0:0:0:0:
256,64,692974,1,0,0:0:0:0:
392,64,693510,2,0,B|456:144|432:248|344:320|256:336,1,359.99999061227
136,304,695653,1,0,0:0:0:0:
96,248,695921,1,0,0:0:0:0:
64,192,696188,1,0,0:0:0:0:
40,128,696456,1,0,0:0:0:0:
80,64,696724,5,0,0:0:0:0:
80,152,696992,1,0,0:0:0:0:
80,240,697260,1,0,0:0:0:0:
80,328,697528,1,0,0:0:0:0:
80,240,697796,1,0,0:0:0:0:
80,152,698063,1,0,0:0:0:0:
120,72,698331,2,0,B|144:40|184:32|224:48,1,80.0000002980235
256,96,698867,5,0,0:0:0:0:
256,184,699135,1,0,0:0:0:0:
256,272,699403,1,0,0:0:0:0:
256,360,699671,1,0,0:0:0:0:
256,272,699938,1,0,0:0:0:0:
256,184,700206,1,0,0:0:0:0:
256,96,700474,2,0,B|272:56|360:56,1,80.0000002980235
408,40,701010,1,0,0:0:0:0:
408,128,701278,5,0,0:0:0:0:
408,216,701546,1,0,0:0:0:0:
408,304,701813,1,0,0:0:0:0:
408,216,702081,1,0,0:0:0:0:
408,128,702349,1,0,0:0:0:0:
408,40,702617,2,0,B|352:24|296:56,1,80.0000002980235
240,48,703153,5,0,0:0:0:0:
240,136,703421,1,0,0:0:0:0:
240,224,703688,1,0,0:0:0:0:
240,312,703956,1,0,0:0:0:0:
240,224,704224,1,0,0:0:0:0:
240,136,704492,1,0,0:0:0:0:
232,48,704760,2,0,B|192:24|128:64,1,80.0000002980235
72,64,705296,5,0,0:0:0:0:
72,152,705563,1,0,0:0:0:0:
72,240,705831,1,0,0:0:0:0:
72,328,706099,1,0,0:0:0:0:
72,240,706367,1,0,0:0:0:0:
72,152,706635,1,0,0:0:0:0:
72,64,706903,2,0,B|104:40|176:48,1,80.0000002980235
240,48,707438,1,8,0:0:0:0:
64,48,709581,5,0,0:0:0:0:
64,136,709849,1,0,0:0:0:0:
72,176,709983,1,0,0:0:0:0:
96,208,710117,1,0,0:0:0:0:
64,288,710385,2,0,B|176:280,1,80.0000002980235
88,352,710921,1,0,0:0:0:0:
176,344,711188,2,0,B|224:336|272:304,1,80.0000002980235
200,240,711724,1,0,0:0:0:0:
168,160,711992,2,0,B|136:120|160:72,1,80.0000002980235
232,40,712528,1,0,0:0:0:0:
320,32,712796,5,0,0:0:0:0:
400,64,713063,1,0,0:0:0:0:
424,104,713197,1,0,0:0:0:0:
440,144,713331,1,0,0:0:0:0:
440,232,713599,2,0,B|440:280|384:304,1,80.0000002980235
320,328,714135,1,0,0:0:0:0:
320,240,714403,2,0,B|368:208|360:168,1,80.0000002980235
272,168,714938,1,0,0:0:0:0:
312,88,715206,2,0,B|272:64|216:96,1,80.0000002980235
160,128,715742,1,0,0:0:0:0:
96,72,716009,5,0,0:0:0:0:
64,104,716143,1,0,0:0:0:0:
72,144,716277,1,0,0:0:0:0:
120,208,716546,2,0,B|176:200|184:272,1,80.0000002980235
240,312,717081,1,0,0:0:0:0:
248,224,717349,2,0,B|304:136,1,80.0000002980235
352,224,717885,1,0,0:0:0:0:
352,312,718153,2,0,B|408:320|440:248,1,80.0000002980235
456,200,718688,1,0,0:0:0:0:
416,120,718956,1,0,0:0:0:0:
344,64,719224,5,0,0:0:0:0:
304,48,719358,1,0,0:0:0:0:
264,56,719492,1,0,0:0:0:0:
232,136,719760,2,0,B|328:192,1,80.0000002980235
312,264,720296,1,0,0:0:0:0:
224,280,720563,2,0,B|112:272,1,80.0000002980235
88,208,721099,1,0,0:0:0:0:
64,120,721367,1,0,0:0:0:0:
128,56,721635,1,0,0:0:0:0:
216,48,721903,1,0,0:0:0:0:
304,72,722171,1,0,0:0:0:0:
176,104,722438,6,0,B|24:160,1,119.999996870757
40,216,722974,2,0,B|184:160,1,119.999996870757
216,208,723510,2,0,B|72:272,1,119.999996870757
40,288,724046,1,0,0:0:0:0:
184,312,724581,2,0,B|264:336|376:328|384:184,1,239.999993741513
472,120,725653,2,0,B|272:208|104:48,2,359.99999061227
296,48,728331,1,0,0:0:0:0:
104,88,728867,2,0,B|184:56|360:152|368:272,1,320.000001192094
360,328,730474,2,0,B|224:352|216:144|48:200,1,320.000001192094
72,96,732081,2,0,B|184:168|240:8|408:56,1,320.000001192094
448,112,733688,6,0,B|512:248|392:368|288:352,1,320.000001192094
280,264,735296,2,0,B|224:256|192:192,6,80.0000002980235
200,88,737974,5,0,0:0:0:0:
104,96,738510,2,0,B|32:160|40:256,3,160.000000596047
128,200,740653,2,0,B|200:240,1,80.0000002980235
224,240,741188,2,0,B|312:208,1,80.0000002980235
304,168,741724,2,0,B|248:80|360:8|408:40|448:80|496:104|472:208|456:280|416:320,1,480.000001788141
72,40,748153,5,0,0:0:0:0:
104,64,748287,1,0,0:0:0:0:
144,88,748421,1,0,0:0:0:0:
72,136,748688,1,0,0:0:0:0:
152,176,748956,1,0,0:0:0:0:
72,208,749224,2,0,B|72:256|160:272,1,80.0000002980235
208,296,749760,1,0,0:0:0:0:
240,264,749894,1,0,0:0:0:0:
272,232,750028,1,0,0:0:0:0:
224,160,750296,1,0,0:0:0:0:
304,120,750563,1,0,0:0:0:0:
240,64,750831,2,0,B|264:32|336:48,1,80.0000002980235
400,64,751367,5,0,0:0:0:0:
440,88,751501,1,0,0:0:0:0:
472,112,751635,1,0,0:0:0:0:
392,152,751903,1,0,0:0:0:0:
464,200,752171,1,0,0:0:0:0:
392,248,752438,2,0,B|440:240|472:304,1,80.0000002980235
408,320,752974,1,0,0:0:0:0:
368,328,753108,1,0,0:0:0:0:
336,304,753242,1,0,0:0:0:0:
272,248,753510,1,0,0:0:0:0:
336,224,753778,1,0,0:0:0:0:
280,184,754046,2,0,B|256:128|184:128,1,80.0000002980235
72,40,754581,5,0,0:0:0:0:
104,64,754715,1,0,0:0:0:0:
144,88,754849,1,0,0:0:0:0:
72,136,755116,1,0,0:0:0:0:
152,176,755384,1,0,0:0:0:0:
72,208,755652,2,0,B|72:256|160:272,1,80.0000002980235
208,296,756188,1,0,0:0:0:0:
240,264,756322,1,0,0:0:0:0:
272,232,756456,1,0,0:0:0:0:
224,160,756724,1,0,0:0:0:0:
304,120,756991,1,0,0:0:0:0:
240,64,757259,2,0,B|264:32|336:48,1,80.0000002980235
400,64,757795,5,0,0:0:0:0:
440,88,757929,1,0,0:0:0:0:
472,112,758063,1,0,0:0:0:0:
392,152,758331,1,0,0:0:0:0:
464,200,758599,1,0,0:0:0:0:
392,248,758866,2,0,B|440:240|472:304,1,80.0000002980235
408,320,759402,1,0,0:0:0:0:
368,328,759536,1,0,0:0:0:0:
336,304,759670,1,0,0:0:0:0:
272,248,759938,1,0,0:0:0:0:
336,224,760206,1,0,0:0:0:0:
280,184,760474,2,0,B|256:128|184:128,1,80.0000002980235
72,40,761010,5,0,0:0:0:0:
104,64,761144,1,0,0:0:0:0:
144,88,761278,1,0,0:0:0:0:
72,136,761545,1,0,0:0:0:0:
152,176,761813,1,0,0:0:0:0:
72,208,762081,2,0,B|72:256|160:272,1,80.0000002980235
208,296,762617,1,0,0:0:0:0:
240,264,762751,1,0,0:0:0:0:
272,232,762885,1,0,0:0:0:0:
224,160,763153,1,0,0:0:0:0:
304,120,763420,1,0,0:0:0:0:
240,64,763688,2,0,B|264:32|336:48,1,80.0000002980235
400,64,764224,5,0,0:0:0:0:
440,88,764358,1,0,0:0:0:0:
472,112,764492,1,0,0:0:0:0:
392,152,764760,1,0,0:0:0:0:
464,200,765028,1,0,0:0:0:0:
392,248,765295,2,0,B|440:240|472:304,1,80.0000002980235
408,320,765831,1,0,0:0:0:0:
368,328,765965,1,0,0:0:0:0:
336,304,766099,1,0,0:0:0:0:
272,248,766367,1,0,0:0:0:0:
336,224,766635,1,0,0:0:0:0:
280,184,766903,2,0,B|256:128|184:128,1,80.0000002980235
160,64,767438,5,0,0:0:0:0:
72,48,767706,1,0,0:0:0:0:
32,128,767974,1,0,0:0:0:0:
40,216,768242,2,0,B|72:296|176:296,1,160.000000596047
136,216,769046,1,0,0:0:0:0:
144,128,769313,1,0,0:0:0:0:
232,112,769581,1,0,0:0:0:0:
208,192,769849,2,0,B|288:248|368:152,1,160.000000596047
344,88,770653,5,0,0:0:0:0:
424,56,770938,1,0,0:0:0:0:
440,144,771224,1,0,0:0:0:0:
400,224,771510,1,0,0:0:0:0:
320,240,771795,1,0,0:0:0:0:
240,200,772110,1,0,0:0:0:0:
304,152,772426,1,0,0:0:0:0:
240,96,772778,1,0,0:0:0:0:
160,136,773131,1,0,0:0:0:0:
168,48,773484,1,0,0:0:0:0:
104,88,773837,1,0,0:0:0:0:
104,88,774237,1,0,0:0:0:0:
256,192,774637,12,0,783037,0:0:0:0:
256,184,783905,5,0,0:0:0:0:
256,184,784119,1,0,0:0:0:0:
256,184,784333,1,0,0:0:0:0:
256,184,784547,1,0,0:0:0:0:
256,280,784976,1,4,0:0:0:0:
