osu file format v5

[General]
AudioFilename: ed2 (TV size ver.).mp3
AudioLeadIn: 485
PreviewTime: -1
Countdown: 0
SampleSet: Normal
StackLeniency: 0.7
Mode: 0
LetterboxInBreaks: 1
EditorBookmarks: 25957

[Metadata]
Title:Thank You!!(TV size)
Artist:Home Made Kazoku
Creator:tom800510
Version:Easy
Source:
Tags:

[Difficulty]
HPDrainRate:2
CircleSize:3
OverallDifficulty:4
SliderMultiplier:1
SliderTickRate:2

[Events]
//Background and Video events
1,0,"ED2.MPG"
0,0,"Bleach_poptp_91936_80425.jpg"
//Break Periods
//Storyboard Layer 0 (Background)
//Storyboard Layer 1 (Failing)
//Storyboard Layer 2 (Passing)
//Storyboard Layer 3 (Foreground)
//Storyboard Sound Samples
//Background Colour Transformations
3,100,163,162,255

[TimingPoints]
300,534.521158129176,4,1,0,100,1

[Colours]
Combo1 : 255,128,64
Combo2 : 128,128,192
Combo3 : 255,128,64
Combo4 : 128,128,192

[HitObjects]
120,88,8852,1,4
199,88,9386,1,0
165,160,9921,1,0
129,231,10455,1,0
209,228,10990,1,4
288,219,11524,1,0
359,182,12059,2,0,B|419:165|416:92,1,100,0|0
300,73,13395,5,0
300,73,13663,1,0
220,73,14197,1,0
156,122,14732,1,4
135,199,15266,1,0
135,199,15533,1,0
137,239,15801,1,0
137,239,16068,1,4
261,276,16602,6,0,B|338:296|357:226,1,100
359,209,17404,1,4
366,129,17939,1,0
366,129,18206,1,8
327,58,18740,6,0,B|276:16|214:71,1,100
199,74,19542,1,4
157,142,20077,1,0
157,142,20344,1,8
159,222,20879,6,0,B|164:290|245:282,1,100
256,192,21680,12,2,24620
129,65,25957,5,0
177,128,26491,1,0
136,197,27026,1,0
186,258,27560,2,0,B|220:324|290:284,3,100
347,281,29698,1,4
392,65,30233,5,0
312,55,30767,1,0
240,90,31302,1,0
160,83,31836,1,0
104,140,32371,2,0,B|46:198|86:244,3,100,0|0|0|4
217,313,34509,6,0,B|312:270,1,100
339,198,35578,2,0,B|312:79,1,100
248,58,36647,2,0,B|170:141,1,100
142,201,37716,2,0,B|240:261,1,100,0|4
337,178,38785,6,0,B|346:143|298:132,4,50
257,191,40389,1,4
177,182,40923,2,0,B|160:230|203:235,4,50
256,190,42527,1,4
408,84,43061,5,0
421,121,43328,1,0
433,159,43596,1,4
443,238,44130,1,0
407,257,44397,1,0
370,273,44665,1,4
294,246,45199,1,0
236,301,45734,1,4
157,288,46268,2,0,B|120:280|104:280,1,50
80,243,46803,1,8
79,245,47070,1,8
73,125,47872,5,0
141,84,48406,1,4
221,81,48941,1,0
300,78,49475,1,8
340,78,49743,1,0
379,78,50010,1,0
418,79,50277,1,8
428,211,50812,6,0,B|432:270|412:294|360:300|313:277,1,150,4|0
329,204,52148,1,0
329,204,52415,1,2
185,63,52950,6,0,B|148:37|92:68|72:123|121:144,1,150,4|0
187,140,54286,1,0
187,140,54553,1,2
256,284,55088,6,0,B|326:308|373:286,1,100
386,269,55890,1,4
428,201,56424,1,0
378,138,56959,1,4
307,100,57493,1,0
226,98,58028,1,4
156,138,58562,1,0
156,138,58830,1,0
