osu file format v7

[General]
AudioFilename: Bleach ending 2.mp3
AudioLeadIn: 0
PreviewTime: 9413
Countdown: 1
SampleSet: Normal
StackLeniency: 0.7
Mode: 0
LetterboxInBreaks: 1

[Editor]
Bookmarks: 9413,26523,43634
DistanceSpacing: 0.800000011920929
BeatDivisor: 4
GridSize: 8

[Metadata]
Title:Thank You!! (TV Size)
Artist:Home Made Kazoku
Creator:detonator300
Version:Normal
Source:Bleach
Tags:

[Difficulty]
HPDrainRate:4
CircleSize:4
OverallDifficulty:2
SliderMultiplier:1.5
SliderTickRate:2

[Events]
//Background and Video events
0,0,"bleach_48_800.jpg"
Video,0,"Bleach ending 2.avi"
//Break Periods
//Storyboard Layer 0 (Background)
//Storyboard Layer 1 (Fail)
//Storyboard Layer 2 (Pass)
//Storyboard Layer 3 (Foreground)
//Storyboard Sound Samples
//Background Colour Transformations
3,100,163,162,255

[TimingPoints]
9413.01468358098,534.707829181495,4,1,0,80,1,0

[Colours]
Combo1 : 133,250,141
Combo2 : 174,174,0
Combo3 : 197,218,254
Combo4 : 253,164,162

[HitObjects]
96,96,9413,1,0
208,96,9947,1,2
208,208,10482,1,0
320,208,11017,1,8
432,208,11551,2,2,B|432:56,3,150,2|2|2|8
248,56,13958,5,8
192,56,14225,1,8
80,56,14760,1,2
80,168,15294,1,8
192,168,15829,2,2,B|192:320,1,150
256,320,16631,1,0
432,328,17433,5,8
432,208,17968,2,2,B|432:112|336:112,1,150
280,112,18770,1,8
104,104,19572,1,8
104,224,20107,2,2,B|104:320|200:320,1,150
256,320,20909,1,8
376,320,21443,1,0
376,264,21711,1,8
432,160,22246,5,2
432,40,22780,1,2
312,40,23315,1,2
192,40,23850,1,2
192,160,24384,1,0
192,160,24652,1,2
192,160,24919,1,0
192,160,25186,1,4
440,328,26523,6,2,B|440:176,1,150
440,120,27325,1,0
376,120,27593,1,0
264,120,28127,1,2
144,120,28662,2,2,B|144:256|288:256,1,225
336,256,29731,1,8
336,256,29999,1,8
336,256,30266,1,8
344,136,30801,6,2,B|192:136,2,150
408,136,32138,1,0
408,80,32405,1,8
288,80,32940,5,2
200,80,33341,1,2
112,80,33742,1,2
64,120,34009,1,0
112,152,34276,1,0
64,192,34544,1,8
64,312,35078,6,2,B|216:312,1,150
272,312,35881,1,8
328,312,36148,2,2,B|384:312|384:264,1,75
384,216,36683,1,8
384,96,37217,5,0
264,96,37752,1,0
144,96,38287,1,2
184,144,38554,1,2
144,184,38821,1,4
152,304,39356,6,2,B|272:304|312:168,2,225
152,184,41495,1,2
152,64,42030,1,8
240,64,42431,1,8
328,64,42832,1,8
328,120,43099,1,4
416,288,43634,5,0
304,288,44168,1,2
304,176,44703,1,0
192,176,45238,1,8
80,176,45772,2,2,B|80:328,3,150,2|2|2|8
264,328,48179,5,8
320,328,48446,1,8
432,328,48981,1,2
432,216,49515,1,8
320,216,50050,2,2,B|320:64,1,150
256,64,50852,1,0
80,56,51654,5,8
80,176,52189,2,2,B|80:272|176:272,1,150
232,272,52991,1,8
408,280,53793,1,8
408,160,54328,2,2,B|408:64|312:64,1,150
256,64,55130,1,8
136,64,55664,1,0
136,120,55932,1,8
256,192,56467,12,4,58606
