osu file format v5

[General]
AudioFilename: Shounen Heart.mp3
AudioLeadIn: 0
PreviewTime: 15753
Countdown: 0
SampleSet: Normal
StackLeniency: 0.7
Mode: 0
LetterboxInBreaks: 1
EditorBookmarks: 42829,43020
EditorDistanceSpacing: 0.699999988079071

[Metadata]
Title:Shounen Heart (TV Size)
Artist:Home Made Kazoku
Creator:Ryuukun
Version:Terminus typeR909
Source:Eureka 7
Tags:Eureka 7 Shounen Heart Anime

[Difficulty]
HPDrainRate:3
CircleSize:4
OverallDifficulty:2
SliderMultiplier:1.2
SliderTickRate:2

[Events]
//Background and Video events
1,-400,"Eureka seveN OP2 LQ Video.avi"
0,0,"Eureka 7 bg 3.jpg"
//Break Periods
2,65394,72023
//Storyboard Layer 0 (Background)
//Storyboard Layer 1 (Failing)
//Storyboard Layer 2 (Passing)
//Storyboard Layer 3 (Foreground)
//Storyboard Sound Samples
//Background Colour Transformations
3,100,241,209,250

[TimingPoints]
16127,508.474576271186,4,1,0,50,1,0

[Colours]
Combo1 : 189,185,94
Combo2 : 101,205,176
Combo3 : 208,177,224

[HitObjects]
256,88,16635,1,0
256,168,17143,1,2
256,248,17652,1,0
256,248,17906,1,8
256,248,18160,1,2
336,248,18669,6,2,B|456:160,1,120
376,112,19686,1,2
312,160,20194,1,0
224,160,20703,5,0
160,208,21211,1,2
96,160,21720,1,0
96,160,21974,1,8
96,160,22228,1,2
48,224,22737,6,2,B|168:296,1,120
224,288,23754,1,8
280,232,24262,1,0
360,240,24771,5,8
408,168,25279,1,2
328,136,25788,1,0
328,136,26042,1,8
328,136,26296,1,2
248,104,26804,6,2,B|168:224,1,120
128,272,27821,1,8
56,224,28330,1,2
120,168,28838,5,8
200,168,29347,1,0
280,168,29855,1,0
280,168,30110,1,8
280,168,30364,1,2
328,104,30872,5,0
392,152,31381,1,8
408,72,31889,1,0
472,120,32398,1,8
472,200,32906,6,2,B|376:280,1,120,0|8
296,272,33923,2,0,B|192:200,2,120,0|8|2
376,272,35449,1,2
456,272,35957,2,0,B|456:128,1,120,0|8
376,72,36974,6,0,B|466:72,2,60
296,72,37991,1,8
296,152,38499,1,8
296,232,39008,2,2,B|272:328|168:304|192:152,1,240,0|0
192,80,40533,1,8
112,80,41042,5,8
144,160,41550,1,2
200,96,42059,2,2,B|328:96,1,120,0|2
408,96,43076,5,0
464,160,43584,1,2
384,168,44093,2,2,B|256:168,1,120,0|2
168,168,45108,5,0
88,200,45616,1,8
152,256,46125,1,0
232,232,46633,1,2
256,152,47142,5,0
336,152,47650,1,8
296,80,48159,1,0
216,80,48667,1,2
136,80,49177,6,0,B|48:168,1,120,0|2
48,240,50194,2,0,B|136:328,1,120,0|2
208,328,51211,6,0,B|320:280,1,120,0|2
248,216,52227,1,2
168,248,52735,1,2
176,160,53245,6,8,B|288:104,1,120
336,176,54262,2,8,B|408:280,1,120
336,320,55279,6,8,B|200:320,1,120
144,272,56294,1,8
216,232,56803,1,8
144,184,57311,5,0
144,184,57567,1,0
144,184,57820,1,2
80,128,58328,1,0
160,104,58838,1,6
224,152,59345,5,0
224,152,59601,1,0
224,152,59854,1,2
224,232,60362,1,0
296,192,60872,2,0,B|424:192,1,120,6|0
376,112,61889,5,0
416,40,62396,1,2
328,48,62905,1,2
280,112,63413,1,8
240,40,63922,1,8
152,40,64430,1,2
88,96,64938,1,2
88,96,65194,1,4
256,296,73583,5,0
320,240,74091,1,2
256,184,74599,1,0
256,184,74854,1,8
256,184,75108,1,2
312,120,75616,5,8
240,72,76125,1,0
184,136,76633,1,8
112,88,77142,1,0
112,168,77650,5,2
56,232,78159,1,0
136,248,78669,1,0
136,248,78922,1,8
136,248,79176,1,2
208,216,79686,5,8
280,184,80193,1,0
240,112,80701,1,8
312,72,81210,1,0
376,128,81718,5,2
456,160,82227,1,0
392,208,82737,1,0
392,208,82989,1,8
392,208,83245,1,2
304,208,83754,5,8
256,136,84261,1,0
184,184,84769,1,8
232,256,85277,1,0
136,256,85788,5,2
64,296,86294,1,2
64,208,86803,1,2
64,208,87057,1,8
64,208,87311,1,2
256,192,87820,12,4,89599
