osu file format v5

[General]
AudioFilename: Shounen Heart.mp3
AudioLeadIn: 0
PreviewTime: 15753
Countdown: 0
SampleSet: Normal
StackLeniency: 0.7
Mode: 0
LetterboxInBreaks: 1
EditorBookmarks: 42829,43020
EditorDistanceSpacing: 1.29999995231628

[Metadata]
Title:Shounen Heart (TV Size)
Artist:Home Made Kazoku
Creator:Ryuukun
Version:Nirvash typeZERO
Source:Eureka 7
Tags:Eureka 7 Shounen Heart Anime

[Difficulty]
HPDrainRate:6
CircleSize:5
OverallDifficulty:7
SliderMultiplier:1.2
SliderTickRate:2

[Events]
//Background and Video events
1,-400,"Eureka seveN OP2 LQ Video.avi"
0,0,"Eureka 7 bg 1.jpg"
//Break Periods
//Storyboard Layer 0 (Background)
//Storyboard Layer 1 (Failing)
//Storyboard Layer 2 (Passing)
//Storyboard Layer 3 (Foreground)
//Storyboard Sound Samples
//Background Colour Transformations
3,100,254,210,152

[TimingPoints]
16127,508.474576271186,4,1,0,50,1,0

[Colours]
Combo1 : 234,234,234
Combo2 : 101,205,176
Combo3 : 188,143,211

[HitObjects]
256,192,12567,12,0,15618
40,120,15872,5,0
72,184,16127,1,2
104,120,16381,1,0
176,120,16635,1,2
176,264,17143,5,8
224,208,17398,1,0
256,208,17525,1,0
360,208,17906,1,0
360,136,18160,5,8
336,104,18288,1,0
296,104,18415,1,0
272,136,18542,1,0
272,168,18669,1,0
200,168,18923,5,0
200,200,19050,1,0
128,200,19304,1,0
128,272,19559,1,0
160,272,19686,1,8
232,272,19940,5,0
296,240,20194,1,8
360,272,20449,1,0
392,272,20576,1,0
352,96,21211,5,8
371,164,21465,1,0
331,164,21593,1,0
224,160,21974,1,0
224,264,22355,5,0
224,264,22482,1,0
224,264,22610,1,0
224,264,22737,1,8
160,264,22991,2,0,L|160:296,1,30
80,296,23372,2,0,L|80:256,1,30
123,201,23754,1,0
200,200,24008,1,2
280,200,24262,1,0
360,200,24516,1,2
440,200,24771,1,4
408,128,25025,5,0
328,128,25279,1,8
328,128,25406,1,0
328,128,25533,1,0
328,128,25660,2,0,L|224:128,1,90
112,192,26423,5,0
112,232,26550,1,0
112,272,26677,1,0
112,312,26804,1,8
192,312,27059,1,8
192,272,27186,1,8
272,272,27440,5,8
352,272,27694,1,8
352,232,27821,1,8
352,152,28076,1,0
272,152,28330,1,8
192,152,28584,1,0
192,72,28838,5,2
312,72,29220,1,0
312,112,29347,1,2
312,224,29728,5,0
352,224,29855,1,2
392,224,29982,1,0
312,224,30237,5,2
224,152,30618,5,4
224,192,30745,1,4
128,264,31126,5,0
128,264,31254,1,0
128,264,31381,1,8
128,264,31508,1,0
208,264,31762,1,0
288,264,32016,1,0
352,208,32271,2,0,L|352:168,1,30
272,176,32652,1,0
272,96,32906,5,2
232,96,33033,1,0
176,152,33288,1,0
216,152,33415,1,2
256,152,33542,1,0
256,232,33796,5,0
216,232,33923,1,2
136,232,34177,1,0
136,192,34304,1,0
136,112,34559,1,0
216,112,34813,5,0
256,112,34940,1,2
296,112,35067,1,0
336,112,35194,1,2
368,136,35321,1,0
368,176,35449,1,2
368,216,35576,1,0
336,240,35703,1,2
296,240,35830,1,0
256,240,35957,1,2
256,320,36211,5,0
216,320,36338,1,0
240,248,36593,1,4
160,248,36847,5,0
160,168,37101,1,8
160,88,37355,1,0
192,112,37482,1,8
224,136,37610,1,0
304,136,37864,1,0
304,176,37991,1,0
304,216,38118,1,0
328,240,38245,1,0
368,240,38372,1,0
408,240,38499,1,8
408,200,38627,1,0
408,120,38881,5,0
328,120,39135,1,0
352,88,39262,1,0
376,56,39389,1,0
336,56,39516,1,0
296,56,39643,1,0
216,56,39898,2,0,L|176:56,1,30
184,136,40279,2,0,L|224:136,1,30
216,216,40660,5,2
216,256,40788,1,0
291,236,41042,1,4
368,144,41423,5,0
368,144,41550,1,0
368,144,41677,1,0
368,144,41804,1,0
288,144,42059,1,8
208,144,42313,1,8
208,184,42440,1,8
280,232,42694,1,0
280,272,42821,1,0
280,312,42949,1,8
208,312,43203,5,0
168,312,43330,1,0
136,280,43457,1,0
136,240,43584,1,0
176,240,43711,1,0
216,240,43838,1,0
256,240,43965,5,8
256,160,44220,1,8
216,160,44347,1,8
216,80,44601,1,4
320,128,44982,5,0
344,160,45110,1,2
344,200,45237,1,0
320,232,45364,1,0
280,232,45491,1,0
240,232,45618,1,2
200,232,45745,1,0
200,152,45999,6,0,L|168:152,1,30,0|4
248,152,46381,6,4,L|288:152,1,30
280,72,46762,5,0
360,72,47016,5,2
440,72,47271,1,0
440,152,47525,1,0
440,192,47652,1,2
408,216,47779,1,0
376,192,47906,1,0
344,216,48033,1,0
312,192,48160,1,2
240,216,48415,1,0
216,184,48542,1,0
192,216,48669,1,2
112,216,48923,1,4
112,176,49050,5,8
112,136,49177,1,0
96,56,49432,2,0,L|56:56,2,30
40,136,49940,1,0
40,176,50067,1,8
40,216,50194,1,0
120,216,50449,1,0
160,216,50576,1,8
160,296,50830,1,8
160,216,51084,5,0
232,216,51338,1,0
264,192,51465,1,0
296,216,51593,1,8
328,192,51720,1,0
328,112,51974,1,8
368,112,52101,1,8
432,152,52355,1,0
408,184,52482,1,8
432,216,52610,1,0
408,248,52737,2,0,L|408:320,1,60
336,336,53245,5,0
336,256,53499,1,2
240,184,53881,5,0
200,184,54008,1,4
168,160,54135,1,0
168,120,54262,1,4
200,96,54389,1,0
280,96,54643,1,8
280,136,54771,1,8
360,136,55025,1,4
360,216,55279,5,2
360,248,55406,1,0
360,280,55533,1,0
336,312,55660,1,0
304,288,55788,1,2
272,312,55915,1,0
192,312,56169,5,0
192,272,56296,1,2
192,232,56423,1,0
152,232,56550,1,0
152,192,56677,1,0
152,152,56804,1,2
232,152,57059,1,4
232,72,57313,5,8
152,72,57567,1,8
72,72,57821,1,8
72,72,57949,1,8
72,72,58076,1,8
72,152,58330,1,4
136,200,58584,1,4
168,224,58711,1,4
256,144,59093,5,8
336,144,59347,1,0
256,144,59601,1,8
336,144,59855,5,0
376,144,59982,1,0
400,176,60110,1,8
376,208,60237,1,8
352,232,60364,1,8
352,312,60618,1,8
312,312,60745,1,8
264,248,60999,5,0
264,248,61127,1,0
264,248,61254,1,0
264,248,61381,1,4
168,120,61889,5,2
248,120,62143,6,0,L|248:160,1,30,0|2
168,160,62525,6,0,L|168:200,1,30,0|2
104,296,63033,5,0
144,296,63160,1,8
184,296,63288,1,0
224,296,63415,1,8
304,296,63669,1,8
344,296,63796,1,8
344,216,64050,1,2
264,216,64304,1,2
112,152,64813,5,0
72,152,64940,1,0
72,72,65194,1,4
160,72,65703,5,0
192,96,65830,1,8
224,120,65957,1,0
376,112,66465,5,0
344,136,66593,1,8
312,160,66720,1,0
224,192,66974,5,0
256,216,67101,1,8
288,240,67228,1,0
408,136,67737,5,8
408,56,67991,1,0
328,56,68245,1,8
288,56,68372,1,8
232,112,68627,1,0
152,112,68881,1,0
152,112,69008,1,0
152,112,69135,1,12
152,112,69262,1,0
104,256,69771,5,0
136,280,69898,1,8
168,304,70025,1,0
320,304,70533,5,0
352,280,70660,1,8
384,256,70788,1,0
328,200,71042,5,0
296,176,71169,1,8
264,152,71296,1,0
184,152,71550,2,0,B|88:152,2,90
264,152,72567,1,0
424,72,72821,5,0
384,136,73076,1,0
344,72,73330,1,0
264,72,73584,1,2
144,176,74093,5,8
224,176,74347,1,0
224,216,74474,1,0
96,272,74855,1,0
168,304,75110,5,2
200,328,75237,1,0
232,304,75364,1,0
264,328,75491,1,0
296,304,75618,1,2
376,304,75872,1,0
376,264,75999,1,0
336,200,76254,1,0
416,200,76508,1,0
416,160,76635,1,2
352,112,76889,5,0
272,112,77143,1,8
192,112,77398,1,0
152,112,77525,1,8
304,224,78160,5,0
224,224,78415,1,0
184,224,78542,1,2
304,224,78923,1,0
408,168,79304,5,0
432,200,79432,1,8
408,232,79559,1,0
432,264,79686,1,2
368,312,79940,1,0
328,312,80067,1,8
248,312,80321,5,0
208,312,80449,1,8
160,248,80703,5,8
208,184,80957,1,8
160,120,81211,1,8
208,56,81465,1,8
280,56,81720,1,4
280,136,81974,5,0
280,216,82228,1,8
280,216,82355,1,0
280,216,82482,1,0
280,216,82610,1,0
280,328,82991,1,4
384,272,83372,5,0
352,248,83499,1,0
320,272,83627,1,0
288,248,83754,1,2
216,272,84008,1,8
176,272,84135,1,8
176,192,84389,1,8
96,192,84643,5,0
96,232,84771,1,2
16,232,85025,1,8
16,152,85279,1,10
16,72,85533,1,8
96,72,85788,5,4
208,72,86169,1,0
240,96,86296,1,8
240,208,86677,5,0
272,184,86804,1,8
304,160,86932,1,0
304,240,87186,1,2
224,240,87567,6,0,L|184:240,1,30,0|4
96,208,87949,5,0
96,168,88076,1,2
128,144,88203,1,0
160,168,88330,1,2
192,144,88457,1,0
272,152,88711,5,0
312,216,88965,1,0
352,152,89220,1,8
392,152,89347,1,10
472,152,89601,1,0
