osu file format v5

[General]
AudioFilename: Shounen Heart.mp3
AudioLeadIn: 0
PreviewTime: 15753
Countdown: 0
SampleSet: Normal
StackLeniency: 0.7
Mode: 0
LetterboxInBreaks: 1
EditorBookmarks: 42829,43020
EditorDistanceSpacing: 1.10000002384186

[Metadata]
Title:Shounen Heart (TV Size)
Artist:Home Made Kazoku
Creator:Ryuukun
Version:Nirvash typeTheEND
Source:Eureka 7
Tags:Eureka 7 Shounen Heart Anime

[Difficulty]
HPDrainRate:3
CircleSize:4
OverallDifficulty:6
SliderMultiplier:1.2
SliderTickRate:2

[Events]
//Background and Video events
1,-400,"Eureka seveN OP2 LQ Video.avi"
0,0,"Eureka 7 bg 2.jpg"
//Break Periods
2,65394,71771
//Storyboard Layer 0 (Background)
//Storyboard Layer 1 (Failing)
//Storyboard Layer 2 (Passing)
//Storyboard Layer 3 (Foreground)
//Storyboard Sound Samples
//Background Colour Transformations
3,100,184,170,206

[TimingPoints]
16127,508.474576271186,4,1,0,50,1,0

[Colours]
Combo1 : 151,60,185
Combo2 : 234,168,204
Combo3 : 221,209,60

[HitObjects]
56,72,15872,1,0
88,128,16127,1,0
136,80,16381,1,0
168,136,16635,1,2
256,232,17143,5,8
368,168,17652,1,0
384,232,17906,1,0
368,296,18160,1,2
256,232,18669,5,0
192,216,18923,1,8
192,216,19050,1,8
232,168,19304,1,0
168,152,19559,1,0
168,152,19686,1,2
40,192,20194,5,8
56,256,20449,1,0
104,304,20703,1,2
232,344,21211,6,0,B|296:376|368:336,1,120
400,304,21974,1,0
400,240,22228,1,2
336,120,22737,5,0
400,104,22991,1,0
384,72,23118,1,2
352,16,23372,1,0
320,16,23499,1,2
256,16,23754,5,0
200,48,24008,1,2
256,80,24262,1,0
200,112,24516,1,2
256,144,24771,1,4
384,144,25279,6,0,B|472:144|456:224,1,120
456,280,26042,1,0
456,344,26296,1,2
320,344,26804,5,8
256,224,27313,1,8
376,168,27821,1,8
320,128,28076,1,0
256,112,28330,1,8
192,128,28584,1,0
144,176,28838,5,2
208,256,29220,1,0
208,256,29347,1,2
304,256,29728,1,0
304,256,29855,1,2
304,256,29982,1,0
256,208,30237,5,4
256,112,30618,2,0,B|256:56,1,30
168,32,31126,5,0
136,40,31254,1,0
112,64,31381,1,0
104,96,31508,1,0
96,160,31762,1,0
96,160,32016,1,0
104,224,32271,1,0
120,256,32398,1,0
168,288,32652,1,0
232,288,32906,5,0
232,288,33033,1,2
232,184,33415,1,0
232,184,33542,1,2
312,240,33923,5,8
360,192,34177,1,0
408,240,34432,1,8
456,192,34686,1,0
408,144,34940,6,0,B|424:72|352:48|296:136|200:88,1,240
152,96,36211,1,0
152,96,36338,1,8
96,128,36593,1,8
80,192,36847,5,0
120,240,37101,1,0
160,192,37355,1,0
192,192,37482,1,2
224,192,37610,1,0
288,192,37864,6,0,B|328:192,6,30
352,192,38881,5,8
384,136,39135,1,8
384,136,39262,1,8
320,136,39516,1,8
320,136,39643,1,8
256,136,39898,6,0,B|224:136,1,30
192,192,40279,2,0,B|240:192,1,30
280,192,40660,1,2
248,288,41042,5,4
152,288,41423,1,0
120,272,41550,1,8
104,240,41677,1,0
104,208,41804,1,0
104,144,42059,1,8
104,80,42313,1,0
104,80,42440,1,8
168,80,42694,1,8
168,80,42821,1,0
232,80,43076,5,0
248,144,43330,1,2
304,104,43584,1,0
320,168,43838,1,2
376,128,44093,2,0,B|464:128,2,60
408,216,44982,6,0,B|408:264,6,30
408,112,46126,2,0,B|416:48|296:72,1,120
184,64,47143,5,4
184,320,47652,1,0
312,320,48160,1,4
376,296,48415,1,0
328,248,48669,1,2
392,224,48923,1,8
344,176,49177,5,8
344,40,49686,1,2
280,40,49940,1,0
216,40,50194,1,8
152,40,50449,1,0
88,40,50703,2,0,B|88:80|88:128,1,60
88,168,51211,5,8
40,216,51465,1,0
96,256,51720,1,8
208,320,52228,1,8
336,320,52737,1,8
272,208,53245,2,0,B|272:128,1,60,8|4
168,144,53881,6,0,B|112:144,4,30
232,144,54643,1,0
232,144,54771,1,8
296,144,55025,1,2
322,200,55279,2,0,L|194:200,3,120
248,336,57313,5,0
312,336,57567,1,2
376,336,57821,1,0
408,272,58076,1,2
344,272,58330,1,0
280,272,58584,1,2
280,272,58711,1,0
176,272,59093,5,4
112,272,59347,1,0
48,272,59601,1,2
48,272,59855,1,0
80,216,60110,1,2
144,216,60364,1,0
208,216,60618,1,2
208,216,60745,1,0
256,192,60999,12,0,61635
456,48,61889,5,0
392,48,62143,1,8
392,48,62271,1,8
328,48,62525,1,8
328,48,62652,1,8
360,136,63033,5,0
336,160,63160,1,8
312,136,63288,1,0
288,160,63415,1,2
224,160,63669,1,8
192,160,63796,1,0
128,160,64050,1,2
64,160,64304,1,2
96,288,64813,5,0
128,288,64940,1,8
192,288,65194,1,4
392,296,72821,5,0
328,296,73076,1,0
392,296,73330,1,0
360,240,73584,2,0,B|232:240,1,120
176,240,74347,1,0
176,240,74474,1,0
80,240,74855,1,0
80,176,75110,5,2
80,144,75237,1,0
80,112,75364,1,0
128,64,75618,1,0
160,120,75872,1,8
160,120,75999,1,8
208,72,76254,1,0
240,128,76508,1,0
240,128,76635,1,2
368,128,77143,2,0,B|424:176|360:256,1,120
240,240,78160,5,0
176,240,78415,1,8
176,240,78542,1,8
80,240,78923,1,12
80,144,79304,6,0,B|112:104,3,30
160,120,79940,1,0
160,120,80067,1,2
224,120,80321,1,0
224,120,80449,1,2
224,184,80703,5,0
256,240,80957,1,2
296,192,81211,1,0
328,248,81465,1,2
368,200,81720,1,4
440,88,82228,6,0,B|312:88,1,120,0|0
256,88,82991,1,8
320,88,83245,1,2
384,200,83754,5,0
368,264,84008,1,8
368,264,84135,1,8
304,256,84389,1,0
288,320,84643,1,0
288,320,84771,5,2
240,272,85025,1,0
224,336,85279,1,2
176,288,85533,1,0
200,224,85788,5,4
256,144,86169,1,0
256,144,86296,1,8
312,224,86677,1,0
312,224,86804,1,8
312,224,86932,1,0
256,264,87186,1,2
256,192,87821,12,4,89601
